Subcategories

Soft Machine - Land of Cockayne (1981) [Reissue 2010] (Repost)

Posted By: gribovar
Soft Machine - Land of Cockayne (1981) [Reissue 2010] (Repost)

Soft Machine - Land of Cockayne (1981) [Reissue 2010]
EAC Rip | WavPack (image+.cue+log) - 293 MB | MP3 CBR 320 kbps (LAME 3.93) - 103 MB | Covers - 145 MB
Genre: Progressive Rock/Canterbury Scene | RAR 3% Rec. | Label: Esoteric Recordings (ECLEC 2208)

Esoteric Recordings are pleased to announce the remastered release of Soft Machine’s final album, "Land of Cockayne". By the time the album was recorded Soft Machine comprised keyboard player and saxophonist Karl Jenkins and drummer John Marshall. The duo were joined by musicians such as Jack Bruce, the returning Allan Holdsworth, Dick Morrissey and Ray Warleigh among others to produce a different, but polished album. This official Esoteric CD edition has been re-mastered from the original master tapes and features an essay by Sid Smith.

Tracklist:
01. Over 'N' Above
02. Lotus Groves
03. Isle Of The Blessed
04. Panoramania
05. Behind The Crystal Curtain
06. Palace Of Glass
07. Hot-Biscuit Slim
08. (Black) Velvet Mountain
09. Sly Monkey
10. A Lot Of What You Fancy

Total time: 43:43

Exact Audio Copy V1.0 beta 3 from 29. August 2011

EAC extraction logfile from 30. July 2012, 7:15

Soft Machine / Land of Cockayne

Used drive : HL-DT-STBDDVDRW GBC-H20N Adapter: 1 ID: 0

Read mode : Secure
Utilize accurate stream : Yes
Defeat audio cache : Yes
Make use of C2 pointers : No

Read offset correction : 667
Overread into Lead-In and Lead-Out : No
Fill up missing offset samples with silence : Yes
Delete leading and trailing silent blocks : No
Null samples used in CRC calculations : Yes
Used interface : Native Win32 interface for Win NT & 2000

Used output format : User Defined Encoder
Selected bitrate : 1024 kBit/s
Quality : High
Add ID3 tag : No
Command line compressor : C:\Program Files\Exact Audio Copy\wavpack.exe
Additional command line options : -hm %source% %dest%


TOC of the extracted CD

Track | Start | Length | Start sector | End sector
––––––––––––––––––––––––––––-
1 | 0:00.00 | 7:23.21 | 0 | 33245
2 | 7:23.21 | 4:55.62 | 33246 | 55432
3 | 12:19.08 | 1:56.15 | 55433 | 64147
4 | 14:15.23 | 7:05.36 | 64148 | 96058
5 | 21:20.59 | 0:53.07 | 96059 | 100040
6 | 22:13.66 | 3:21.66 | 100041 | 115181
7 | 25:35.57 | 7:24.57 | 115182 | 148538
8 | 33:00.39 | 5:08.58 | 148539 | 171696
9 | 38:09.22 | 4:58.72 | 171697 | 194118
10 | 43:08.19 | 0:34.62 | 194119 | 196730


Range status and errors

Selected range

Filename I:\Music\Canterbury scene\Soft Machine\Soft.Machine-Discography.1968-2010.FLAC.CUE.Lossless\1 - Studio\12 - Land of Cockayne\Soft Machine - Land of Cockayne.wav

Peak level 98.8 %
Extraction speed 5.8 X
Range quality 100.0 %
Test CRC A03038F6
Copy CRC A03038F6
Copy OK

No errors occurred


AccurateRip summary

Track 1 accurately ripped (confidence 2) [B34FA1EE] (AR v1)
Track 2 accurately ripped (confidence 2) [1F65C9CA] (AR v1)
Track 3 accurately ripped (confidence 2) [45C00008] (AR v1)
Track 4 accurately ripped (confidence 2) [9C757AD3] (AR v1)
Track 5 accurately ripped (confidence 2) [46D34F28] (AR v1)
Track 6 accurately ripped (confidence 2) [A2006317] (AR v1)
Track 7 accurately ripped (confidence 2) [B1FA329F] (AR v1)
Track 8 accurately ripped (confidence 2) [F3E495CA] (AR v1)
Track 9 accurately ripped (confidence 2) [BEE66DD7] (AR v1)
Track 10 not present in database

9 track(s) accurately ripped
1 track(s) not present in the AccurateRip database

Some tracks could not be verified as accurate

End of status report

–– CUETools DB Plugin V2.1.3

[CTDB TOCID: df_eYNwmhG0589GRzaPOzj4XZcg-] found, Submit result: df_eYNwmhG0589GRzaPOzj4XZcg- has been confirmed
[f928bad5] (2/2) Accurately ripped


==== Log checksum 0753FC24CDD66D12F9ED05976B44092534673B959AD1CB82AF40AB82C1F1AB01 ====

[CUETools log; Date: 15.07.2019 1:14:43; Version: 2.1.4]
[CTDB TOCID: df_eYNwmhG0589GRzaPOzj4XZcg-] found.
Track | CTDB Status
1 | (29/30) Accurately ripped
2 | (30/30) Accurately ripped
3 | (30/30) Accurately ripped
4 | (30/30) Accurately ripped
5 | (30/30) Accurately ripped
6 | (30/30) Accurately ripped
7 | (30/30) Accurately ripped
8 | (30/30) Accurately ripped
9 | (30/30) Accurately ripped
10 | (29/30) Accurately ripped
[AccurateRip ID: 0011ee9b-008c9c27-8a0a3f0a] found.
Track [ CRC | V2 ] Status
01 [b34fa1ee|8309793b] (03+14/21) Accurately ripped
02 [1f65c9ca|e7dcf3cc] (02+14/20) Accurately ripped
03 [45c00008|5b4aeea4] (03+14/21) Accurately ripped
04 [9c757ad3|38d920f3] (03+14/21) Accurately ripped
05 [46d34f28|3be1be15] (02+14/20) Accurately ripped
06 [a2006317|3ba3da5b] (03+14/21) Accurately ripped
07 [b1fa329f|2b5a1d1f] (03+14/21) Accurately ripped
08 [f3e495ca|360ece18] (02+14/20) Accurately ripped
09 [bee66dd7|f000f3f5] (03+14/21) Accurately ripped
10 [caf9d60c|b8d1b730] (03+13/20) Accurately ripped
Offsetted by -114:
01 [607f3ccc] (00/21) No match (V2 was not tested)
02 [ec3e54d8] (00/20) No match (V2 was not tested)
03 [c096d881] (00/21) No match (V2 was not tested)
04 [343b2be6] (00/21) No match (V2 was not tested)
05 [da688000] (00/20) No match (V2 was not tested)
06 [f040ad5c] (00/21) No match (V2 was not tested)
07 [1a91be67] (00/21) No match (V2 was not tested)
08 [2e5f91de] (00/20) No match (V2 was not tested)
09 [6c77aa10] (00/21) No match (V2 was not tested)
10 [ecb1ac40] (00/20) No match (V2 was not tested)
Offsetted by 6:
01 [75b52084] (00/21) No match (V2 was not tested)
02 [57fc1350] (00/20) No match (V2 was not tested)
03 [48bee8c9] (00/21) No match (V2 was not tested)
04 [f49d6596] (00/21) No match (V2 was not tested)
05 [d344b860] (00/20) No match (V2 was not tested)
06 [5f6b6f98] (00/21) No match (V2 was not tested)
07 [ab9ceda7] (00/21) No match (V2 was not tested)
08 [41a837ae] (00/20) No match (V2 was not tested)
09 [c60d186c] (00/21) No match (V2 was not tested)
10 [85d53690] (00/20) No match (V2 was not tested)

Track Peak [ CRC32 ] [W/O NULL] [ LOG ]
– 98,8 [A03038F6] [375E934E] CRC32
01 98,8 [78C28DC8] [499C35B9]
02 98,8 [CEAB5D2F] [AB9343E3]
03 80,5 [FB172A4C] [F6C1A9BF]
04 98,8 [22CF4A69] [037458FD]
05 50,0 [B51C0A4B] [01C849A7]
06 98,8 [3E8B4B08] [6A03C27F]
07 98,8 [21D4D8A0] [DAA15E05]
08 98,5 [2BE92AFA] [E23E44DB]
09 98,8 [CF4813B1] [9C22241C]
10 59,9 [60C54EA0] [722A0817]

Thanks to arizonadream

See also:
Soft Machine - Third (1970) [Japanese Edition 1992]
Soft Machine - Fourth (1971) [Japanese Edition 1991]
Soft Machine - Fifth (1972) [Japanese Edition 1991]
Soft Machine - Six (1973) [Japanese Edition 1992]
Soft Machine - Seven (1973) [Japanese Edition 1991]
Soft Machine - 11 Live Albums (1988-2006)