Subcategories

Soft Machine Legacy - Burden Of Proof (2013)

Posted By: gribovar
Soft Machine Legacy - Burden Of Proof (2013)

Soft Machine Legacy - Burden Of Proof (2013)
EAC Rip | FLAC (image+.cue+log) - 351 MB | MP3 CBR 320 kbps (LAME 3.93) - 130 MB | Covers - 45 MB
Genre: Progressive/Jazz Rock, Canterbury Scene | RAR 3% Rec. | Label: Esoteric Antenna (EANTCD 1015)

Esoteric Antenna are pleased to announce the release of the album by Soft Machine Legacy, "Burden Of Proof". This wonderful new studio album was recorded in Italy in the closing months of 2012 and features John Etheridge (Electric Guitar), Theo Travis (Tenor Sax, Flute, Fender Rhodes), Roy Babbington (Bass Guitar) and John Marshall (Drums and Percussion). Following in the fine tradition of Soft Machine, "Burden of Proof” is arguably Soft Machine Legacy’s finest album to date, featuring a host of outstanding new compositions, along with a new recording and arrangement of Hugh Hopper’s ‘Kings and Queens’ (originally featured on Soft Machine Fourth). The excellence of "Burden of Proof” rests with Soft Machine Legacy.

Tracklist:
01. Burden Of Proof
02. Voyage Beyond Seven
03. Kitto
04. Pie Chart
05. JSP
06. Kings And Queens
07. Fallout
08. Going Somewhwere Canorous?
09. Black And Crimson
10. The Brief
11. Pump Room
12. Green Cubes
13. They Landed On A Hill

Total time: 55:14

Exact Audio Copy V1.0 beta 3 from 29. August 2011

Отчёт EAC об извлечении, выполненном 22. мая 2013, 17:01

SOFT MACHINE LEGACY / Burden Of Proof

Дисковод: TSSTcorpCD/DVDW SH-S183A Adapter: 4 ID: 1

Режим чтения : Достоверность
Использование точного потока : Да
Отключение кэша аудио : Да
Использование указателей C2 : Нет

Коррекция смещения при чтении : 6
Способность читать области Lead-in и Lead-out : Нет
Заполнение пропущенных сэмплов тишиной : Да
Удаление блоков с тишиной в начале и конце : Нет
При вычислениях CRC использовались нулевые сэмплы : Да
Интерфейс : Встроенный Win32-интерфейс для Win NT/2000

Выходной формат : Внутренние WAV-операции
Формат сэмплов : 44.100 Гц; 16 бит; стерео


TOC извлечённого CD

Трек | Старт | Длительность | Начальный сектор | Конечный сектор
––––––––––––––––––––––––––––––––––-
1 | 0:00.00 | 5:51.27 | 0 | 26351
2 | 5:51.27 | 4:53.70 | 26352 | 48396
3 | 10:45.22 | 1:50.44 | 48397 | 56690
4 | 12:35.66 | 5:07.17 | 56691 | 79732
5 | 17:43.08 | 1:03.00 | 79733 | 84457
6 | 18:46.08 | 6:46.19 | 84458 | 114926
7 | 25:32.27 | 6:59.69 | 114927 | 146420
8 | 32:32.21 | 1:13.59 | 146421 | 151954
9 | 33:46.05 | 5:05.08 | 151955 | 174837
10 | 38:51.13 | 2:27.59 | 174838 | 185921
11 | 41:18.72 | 5:19.12 | 185922 | 209858
12 | 46:38.09 | 5:33.03 | 209859 | 234836
13 | 52:11.12 | 3:03.07 | 234837 | 248568


Характеристики диапазона извлечения и сообщения об ошибках

Выбранный диапазон

Имя файла D:\TEMP\SOFT MACHINE LEGACY - 2013 - Burden Of Proof.wav

Пиковый уровень 100.0 %
Скорость извлечения 5.2 X
Качество диапазона 100.0 %
CRC теста AEAEB8A0
CRC копии AEAEB8A0
Копирование… OK

Ошибок не произошло


AccurateRip: сводка

Трек 1 отсутствует в базе данных
Трек 2 отсутствует в базе данных
Трек 3 отсутствует в базе данных
Трек 4 отсутствует в базе данных
Трек 5 отсутствует в базе данных
Трек 6 отсутствует в базе данных
Трек 7 отсутствует в базе данных
Трек 8 отсутствует в базе данных
Трек 9 отсутствует в базе данных
Трек 10 отсутствует в базе данных
Трек 11 отсутствует в базе данных
Трек 12 отсутствует в базе данных
Трек 13 отсутствует в базе данных

Ни одного трека нет в базе AccurateRip

Конец отчёта

[CUETools log; Date: 17.07.2019 3:37:57; Version: 2.1.4]
[CTDB TOCID: TWyyRGZkV6D0uGgO4sAti6zx1uQ-] found.
Track | CTDB Status
1 | (18/27) Accurately ripped
2 | (18/27) Accurately ripped
3 | (18/27) Accurately ripped
4 | (18/27) Accurately ripped
5 | (18/27) Accurately ripped
6 | (18/27) Accurately ripped
7 | (18/27) Accurately ripped
8 | (18/27) Accurately ripped
9 | (18/27) Accurately ripped
10 | (18/27) Accurately ripped
11 | (18/27) Accurately ripped
12 | (18/27) Accurately ripped
13 | (18/27) Accurately ripped
[AccurateRip ID: 001ae68f-010b4e7a-a20cf20d] found.
Track [ CRC | V2 ] Status
01 [14df0ad6|25d68747] (00+06/14) Accurately ripped
02 [9dafd1e3|888f881a] (00+06/14) Accurately ripped
03 [d3358609|31ea34d8] (00+06/14) Accurately ripped
04 [06569a43|0a027c15] (00+06/14) Accurately ripped
05 [b5519ccc|0be1cfcf] (00+06/14) Accurately ripped
06 [2b825a8d|9c8602c3] (00+06/14) Accurately ripped
07 [e7c734ce|b96a69de] (00+06/14) Accurately ripped
08 [d762c64f|fadb90fa] (00+06/14) Accurately ripped
09 [78605a0e|29457eb7] (00+06/14) Accurately ripped
10 [07e1473d|ec686461] (00+06/14) Accurately ripped
11 [6a4b3102|ed657017] (00+06/14) Accurately ripped
12 [bacdfe92|f761762c] (00+06/14) Accurately ripped
13 [79668542|3f6f84f4] (00+06/14) Accurately ripped

Track Peak [ CRC32 ] [W/O NULL] [ LOG ]
– 100,0 [AEAEB8A0] [B02165BA] CRC32
01 81,5 [74BA0E6C] [AE005063]
02 81,5 [5DE6CD9A] [C8E6A17B]
03 71,2 [106D344C] [DBB45002]
04 81,5 [F5491BC8] [DADDC5E4]
05 81,5 [436A9CC0] [C568690C]
06 80,6 [10766C55] [4D0FDBEA]
07 81,5 [D8281107] [A970BD42]
08 81,5 [227F68BA] [61A5A642]
09 81,5 [C08BC662] [16896C80]
10 81,5 [B7C05775] [FAFB38F2]
11 100,0 [32FD5610] [90BB8533]
12 81,5 [7D73A7FD] [7E13D43A]
13 81,5 [FAC3866B] [548E908B]

Thanks to spAceLover

See also: