Subcategories

Soft Machine Legacy - Soft Machine Legacy (2006)

Posted By: gribovar
Soft Machine Legacy - Soft Machine Legacy (2006)

Soft Machine Legacy - Soft Machine Legacy (2006)
EAC Rip | WavPack (image+.cue+log) - 336 MB | MP3 CBR 320 kbps (LAME 3.93) - 135 MB | Covers - 99 MB
Genre: Progressive Rock/Canterbury Scene | RAR 3% Rec. | Label: Moonjune Records (MJR008)

A powerful rock-edged collaboration from Elton Dean, John Etheridge, Hugh Hopper and John Marshall, four legendary members of jazz-rock pioneers Soft Machine. This album itself is a mixed bag. There are two tracks that sound a bit too much like studio improvisations. There are a couple in conventional head-solo-tail jazz constructions. There is a Softs medley, Mike Ratledge's "Facelift," "As If" & "Slightly All The Time" (titled "Ratlift"). There is a ten-minute Hopper epic with typically Hopperean twists and turns.

Tracklist:
01. Kite Runner
02. Ratlift
03. Twelve Twelve
04. F & I
05. Fresh Brew
06. New Day
07. Fur Edge
08. Theta Meter
09. Grape Hound
10. Strange Comforts

Total time: 57:31

Exact Audio Copy V1.0 beta 3 from 29. August 2011

EAC extraction logfile from 2. August 2012, 22:41

Soft Machine Legacy / Soft Machine Legacy

Used drive : HL-DT-STBDDVDRW GBC-H20N Adapter: 1 ID: 0

Read mode : Secure
Utilize accurate stream : Yes
Defeat audio cache : Yes
Make use of C2 pointers : No

Read offset correction : 667
Overread into Lead-In and Lead-Out : No
Fill up missing offset samples with silence : Yes
Delete leading and trailing silent blocks : No
Null samples used in CRC calculations : Yes
Used interface : Native Win32 interface for Win NT & 2000

Used output format : User Defined Encoder
Selected bitrate : 1024 kBit/s
Quality : High
Add ID3 tag : No
Command line compressor : C:\Program Files\Exact Audio Copy\wavpack.exe
Additional command line options : -hm %source% %dest%


TOC of the extracted CD

Track | Start | Length | Start sector | End sector
––––––––––––––––––––––––––––-
1 | 0:00.00 | 6:57.07 | 0 | 31281
2 | 6:57.07 | 7:55.40 | 31282 | 66946
3 | 14:52.47 | 10:20.65 | 66947 | 113511
4 | 25:13.37 | 2:08.42 | 113512 | 123153
5 | 27:22.04 | 6:24.13 | 123154 | 151966
6 | 33:46.17 | 3:47.18 | 151967 | 169009
7 | 37:33.35 | 2:49.45 | 169010 | 181729
8 | 40:23.05 | 3:44.19 | 181730 | 198548
9 | 44:07.24 | 6:56.41 | 198549 | 229789
10 | 51:03.65 | 6:26.51 | 229790 | 258790


Range status and errors

Selected range

Filename I:\Music\Canterbury scene\Soft Machine\Soft.Machine-Discography.1968-2010.FLAC.CUE.Lossless\3 - Soft Works - Soft Machine Legacy\3 - Soft Machine Legacy\Soft Machine Legacy - Soft Machine Legacy.wav

Peak level 96.6 %
Extraction speed 6.3 X
Range quality 100.0 %
Test CRC B7462DB1
Copy CRC B7462DB1
Copy OK

No errors occurred


AccurateRip summary

Track 1 accurately ripped (confidence 2) [5B3BEB6F] (AR v1)
Track 2 accurately ripped (confidence 2) [BB7E3FD1] (AR v1)
Track 3 accurately ripped (confidence 2) [575BBEB7] (AR v1)
Track 4 accurately ripped (confidence 2) [CAF23AF4] (AR v1)
Track 5 accurately ripped (confidence 2) [7C7E73B6] (AR v1)
Track 6 accurately ripped (confidence 2) [AB9D9506] (AR v1)
Track 7 accurately ripped (confidence 2) [997999D5] (AR v1)
Track 8 accurately ripped (confidence 2) [E51BF939] (AR v1)
Track 9 accurately ripped (confidence 2) [62D6AEEA] (AR v1)
Track 10 accurately ripped (confidence 2) [0D634C99] (AR v1)

All tracks accurately ripped

End of status report

–– CUETools DB Plugin V2.1.3

[CTDB TOCID: Ropziz32FKMau_tJuZuXbhmliuU-] found, Submit result: Ropziz32FKMau_tJuZuXbhmliuU- has been confirmed
[cd716048] (2/2) Accurately ripped


==== Log checksum 2E35ECBF49CB14BA67D5ED2804F18776836B9BEED4B3E110C58E80F593A9D0D8 ====

[CUETools log; Date: 21.07.2019 15:07:02; Version: 2.1.4]
[CTDB TOCID: Ropziz32FKMau_tJuZuXbhmliuU-] found.
Track | CTDB Status
1 | (18/20) Accurately ripped
2 | (18/20) Accurately ripped
3 | (18/20) Accurately ripped
4 | (18/20) Accurately ripped
5 | (18/20) Accurately ripped
6 | (18/20) Accurately ripped
7 | (18/20) Accurately ripped
8 | (18/20) Accurately ripped
9 | (18/20) Accurately ripped
10 | (18/20) Accurately ripped
[AccurateRip ID: 001743fc-00b44266-8a0d7a0a] found.
Track [ CRC | V2 ] Status
01 [5b3beb6f|d837a399] (02+05/14) Accurately ripped
02 [bb7e3fd1|367a696f] (02+05/14) Accurately ripped
03 [575bbeb7|53f0696d] (02+05/14) Accurately ripped
04 [caf23af4|6170da39] (02+05/14) Accurately ripped
05 [7c7e73b6|f6a7ea9d] (02+05/14) Accurately ripped
06 [ab9d9506|7a52f5f4] (02+05/14) Accurately ripped
07 [997999d5|7715fc11] (02+05/14) Accurately ripped
08 [e51bf939|3bd3424c] (02+05/14) Accurately ripped
09 [62d6aeea|81687638] (02+05/14) Accurately ripped
10 [0d634c99|ee3011cf] (02+05/14) Accurately ripped
Offsetted by 664:
01 [3f2fcffd] (00/14) No match (V2 was not tested)
02 [79513ee9] (00/14) No match (V2 was not tested)
03 [43c65816] (00/14) No match (V2 was not tested)
04 [ce84acc1] (00/14) No match (V2 was not tested)
05 [b5722b95] (00/14) No match (V2 was not tested)
06 [e7092b8b] (00/14) No match (V2 was not tested)
07 [9a35c4fc] (00/14) No match (V2 was not tested)
08 [c6d9e6bf] (00/14) No match (V2 was not tested)
09 [39848a3a] (00/14) No match (V2 was not tested)
10 [0d0784a4] (00/14) No match (V2 was not tested)

Track Peak [ CRC32 ] [W/O NULL] [ LOG ]
– 96,6 [B7462DB1] [7DE6BE4A] CRC32
01 96,6 [1EA74897] [DF76E1A5]
02 96,6 [AF8A17A5] [EB7D85BC]
03 96,6 [A586AFF3] [637DA2E2]
04 84,5 [4E37DFC8] [6E18A874]
05 96,6 [30446C28] [3EC67E47]
06 96,6 [37A6AAAB] [51FD210F]
07 96,6 [4B1F3335] [6EA95D7A]
08 92,8 [2AADD324] [C8703271]
09 96,6 [601F3FBE] [226E622B]
10 96,6 [3C669AFB] [5767AFA0]

Thanks to arizonadream

See also: