Subcategories

Soft Machine - Live at the Paradiso 1969 (1995)

Posted By: gribovar
Soft Machine - Live at the Paradiso 1969 (1995)

Soft Machine - Live at the Paradiso 1969 (1995)
EAC Rip | WavPack (image+.cue+log) - 261 MB | MP3 CBR 320 kbps (LAME 3.93) - 95 MB | Covers - 108 MB
Genre: Progressive Rock/Canterbury Scene | RAR 3% Rec. | Label: Voiceprint (BP193CD)

This 40-minute live fragment captures the Soft Machine at the Paradiso Club in Amsterdam circa 1969. The second incarnation of the band included Hugh Hopper (guitar/bass/vocals), Mike Ratledge (keyboards), and Robert Wyatt (drums/vocals). The trio heard here had originally been joined by Kevin Ayers (guitar) on the group's major-label debut Volume One (1968). Not only did that leave the band minus a lead guitarist but a primary contributor to the material as well. The songs are derived from Volume Two (1969), which had been recorded but not yet issued when the Soft Machine set out on tour. While the album is not replicated in its entirety, Live at the Paradiso 1969 (1995) presents a vast majority of the LP with a lean and ravenous capital A Attack. The disc commences with a swirling and swaggering reading of the Hopper-driven medley "Hulloder," "Dada Was Here," "Thank You Pierrot Lunaire," "Have You Ever Bean Green?," and "As Long as He Lies Perfectly Still." This miniature suite was abandoned prior to the creation of the Third (1970) and subsequent repertoire. Those familiar with the original studio platter will note on paper what would appear to be a slight shift in the performance order. Although the credits claim "Hulloder" and "Dada Was Here" are the first two tracks, the opposite is actually the case. This is reversed from the Volume Two rendering as well. As heard here, it works as a cohesive segue with the removal of the free-form "Out of Tunes" and the surreal acoustic ballad "Dedicated to You, But You Weren't Listening."

Tracklist:
01. Hulloder
02. Dada Was Here
03. Thank You Pierrot Lunaire
04. Have You Ever Bean Green?
05. Pataphysical Introduction, Part 2
06. As Long As He Lies Perfectly Still
07. Fire Engine Passing With Bells Clanging
08. Hibou, Anemone And Bear
09. Fire Engine Passing With Bells Clanging (Reprise)
10. Pig
11. Orange Skin Food
12. A Door Opens And Closes
13. 10:30 Returns To The Bedroom

Total time: 40:20

Exact Audio Copy V1.0 beta 3 from 29. August 2011

EAC extraction logfile from 7. December 2012, 18:35

Soft Machine / Live at the Paradiso

Used drive : HL-DT-STBDDVDRW GBC-H20N Adapter: 1 ID: 0

Read mode : Secure
Utilize accurate stream : Yes
Defeat audio cache : Yes
Make use of C2 pointers : No

Read offset correction : 667
Overread into Lead-In and Lead-Out : No
Fill up missing offset samples with silence : Yes
Delete leading and trailing silent blocks : No
Null samples used in CRC calculations : Yes
Used interface : Native Win32 interface for Win NT & 2000

Used output format : User Defined Encoder
Selected bitrate : 1024 kBit/s
Quality : High
Add ID3 tag : No
Command line compressor : C:\Program Files\Exact Audio Copy\wavpack.exe
Additional command line options : -hm %source% %dest%


TOC of the extracted CD

Track | Start | Length | Start sector | End sector
––––––––––––––––––––––––––––-
1 | 0:00.00 | 0:24.72 | 0 | 1871
2 | 0:24.72 | 8:21.33 | 1872 | 39479
3 | 8:46.30 | 0:45.32 | 39480 | 42886
4 | 9:31.62 | 0:57.40 | 42887 | 47201
5 | 10:29.27 | 1:00.40 | 47202 | 51741
6 | 11:29.67 | 1:55.10 | 51742 | 60376
7 | 13:25.02 | 2:17.13 | 60377 | 70664
8 | 15:42.15 | 4:17.12 | 70665 | 89951
9 | 19:59.27 | 3:26.63 | 89952 | 105464
10 | 23:26.15 | 4:21.47 | 105465 | 125086
11 | 27:47.62 | 0:15.43 | 125087 | 126254
12 | 28:03.30 | 1:18.00 | 126255 | 132104
13 | 29:21.30 | 10:59.07 | 132105 | 181536


Range status and errors

Selected range

Filename I:\Music\Canterbury scene\Soft Machine\Soft.Machine-Discography.1968-2010.FLAC.CUE.Lossless\2 - Live\03 - Live At The Paradiso\Soft Machine - Live at the Paradiso.wav

Peak level 99.5 %
Extraction speed 5.7 X
Range quality 100.0 %
Test CRC 678B8A4A
Copy CRC 678B8A4A
Copy OK

No errors occurred


AccurateRip summary

Track 1 accurately ripped (confidence 4) [A1CF31E9] (AR v1)
Track 2 accurately ripped (confidence 3) [3FC94E62] (AR v1)
Track 3 accurately ripped (confidence 4) [1B004F2F] (AR v1)
Track 4 accurately ripped (confidence 4) [9B8A28A7] (AR v1)
Track 5 accurately ripped (confidence 4) [EC24F174] (AR v1)
Track 6 accurately ripped (confidence 4) [ED1F2D22] (AR v1)
Track 7 accurately ripped (confidence 4) [49E6AD1E] (AR v1)
Track 8 accurately ripped (confidence 4) [F583D965] (AR v1)
Track 9 accurately ripped (confidence 3) [EB64F9AF] (AR v1)
Track 10 accurately ripped (confidence 3) [D1C811D6] (AR v1)
Track 11 accurately ripped (confidence 4) [C08B2701] (AR v1)
Track 12 accurately ripped (confidence 4) [4EB4CAF7] (AR v1)
Track 13 accurately ripped (confidence 4) [8DE9C206] (AR v1)

All tracks accurately ripped

End of status report

–– CUETools DB Plugin V2.1.3

[CTDB TOCID: J23JaRPXWEK_TeIalikjplm1uN4-] disk not present in database, Submit result: J23JaRPXWEK_TeIalikjplm1uN4- has been uploaded


==== Log checksum 3CD111E4A49331E7B7C9F66091A2AD100EF2B251CEB5F4012D0F94C3E9BD0953 ====

[CUETools log; Date: 18.11.2019 14:18:52; Version: 2.1.4]
[CTDB TOCID: J23JaRPXWEK_TeIalikjplm1uN4-] found.
Track | CTDB Status
1 | (21/21) Accurately ripped
2 | (21/21) Accurately ripped
3 | (21/21) Accurately ripped
4 | (21/21) Accurately ripped
5 | (21/21) Accurately ripped
6 | (21/21) Accurately ripped
7 | (21/21) Accurately ripped
8 | (21/21) Accurately ripped
9 | (21/21) Accurately ripped
10 | (21/21) Accurately ripped
11 | (21/21) Accurately ripped
12 | (21/21) Accurately ripped
13 | (21/21) Accurately ripped
[AccurateRip ID: 001065c2-00a570a0-ae09740d] found.
Track [ CRC | V2 ] Status
01 [a1cf31e9|086b0f68] (04+08/15) Accurately ripped
02 [3fc94e62|96abd2c9] (03+08/14) Accurately ripped
03 [1b004f2f|025279bf] (04+08/15) Accurately ripped
04 [9b8a28a7|559a0a39] (04+08/15) Accurately ripped
05 [ec24f174|2872e186] (04+08/15) Accurately ripped
06 [ed1f2d22|25126ef6] (04+08/15) Accurately ripped
07 [49e6ad1e|3f825374] (04+08/15) Accurately ripped
08 [f583d965|f71b6d31] (04+08/15) Accurately ripped
09 [eb64f9af|6b13391b] (03+08/14) Accurately ripped
10 [d1c811d6|8fa79be2] (03+08/14) Accurately ripped
11 [c08b2701|a4a7bab7] (04+08/15) Accurately ripped
12 [4eb4caf7|e5c237a7] (04+08/15) Accurately ripped
13 [8de9c206|e5154a9a] (04+08/15) Accurately ripped
Offsetted by -1340:
01 [8d138b8e] (03/15) Accurately ripped
02 [cc2cfb26] (03/14) Accurately ripped
03 [2e22a3c3] (03/15) Accurately ripped
04 [f2e9c43f] (03/15) Accurately ripped
05 [cf9ef2af] (03/15) Accurately ripped
06 [cd5a17bd] (03/15) Accurately ripped
07 [c8edca0f] (03/15) Accurately ripped
08 [360a59d4] (03/15) Accurately ripped
09 [0e039f97] (03/14) Accurately ripped
10 [1161a0bd] (03/14) Accurately ripped
11 [98339c62] (03/15) Accurately ripped
12 [1a1a3990] (03/15) Accurately ripped
13 [9c3034d6] (03/15) Accurately ripped
Offsetted by -664:
01 [013b8464] (00/15) No match (V2 was not tested)
02 [f48cd829] (00/14) No match (V2 was not tested)
03 [fa30bb07] (00/15) No match (V2 was not tested)
04 [033a0afc] (00/15) No match (V2 was not tested)
05 [fb1e688a] (00/15) No match (V2 was not tested)
06 [bf1cf91b] (00/15) No match (V2 was not tested)
07 [97dc0256] (00/15) No match (V2 was not tested)
08 [1759989b] (00/15) No match (V2 was not tested)
09 [a211daa4] (00/14) No match (V2 was not tested)
10 [3c551930] (00/14) No match (V2 was not tested)
11 [20b03938] (00/15) No match (V2 was not tested)
12 [879ec2c3] (00/15) No match (V2 was not tested)
13 [00d6a7e4] (00/15) No match (V2 was not tested)

Track Peak [ CRC32 ] [W/O NULL] [ LOG ]
– 99,5 [678B8A4A] [81CFF353] CRC32
01 85,1 [FB6F10DB] [C9356556]
02 99,5 [BD9B7095] [611AFCA2]
03 95,2 [9F15C97E] [D501E1AD]
04 94,1 [51018E8E] [0AE573B5]
05 93,0 [36309F94] [7F3D8EAD]
06 93,5 [994FC5E9] [921839B7]
07 97,4 [11925BA2] [4A7774B5]
08 87,5 [506CD546] [597608F1]
09 99,0 [9D03DF45] [218C0DC1]
10 91,0 [36A37C6D] [840AE4AB]
11 63,8 [637A7901] [E12AEA69]
12 87,4 [51308AF2] [A1957FD3]
13 92,1 [2FC3F623] [D59DDA1C]

Thanks to arizonadream

See also: