Subcategories

Soft Machine - Softs (1976) [Reissue 2010]

Posted By: gribovar
Soft Machine - Softs (1976) [Reissue 2010]

Soft Machine - Softs (1976) [Reissue 2010]
EAC Rip | WavPack (image+.cue+log) - 273 MB | MP3 CBR 320 kbps (LAME 3.93) - 106 MB | Covers - 125 MB
Genre: Progressive Rock/Canterbury Scene | RAR 3% Rec. | Label: Esoteric Recordings (ECLEC 2202)

Esoteric Recordings are pleased to announce the long overdue release of the re-mastered edition of the classic 1976 album 'Softs' by the celebrated Jazz and Rock group Soft Machine. The album was the band s second for EMI s Harvest label and featured a line-up of Mike Ratledge (keyboards), Karl Jenkins (Oboe, Piano, Soprano Sax), John Marshall (Drums), Roy Babbington (Bass) and new member John Etheridge (Guitar), along with Saxophonist Alan Wakeman. An accessible collection featuring John Etheridge s considerable guitar playing talents and would also be the final album to feature founder member Mike Ratledge. Unavailable on CD for nearly 15 years, this reissue has been re-mastered from the original tapes and fully restores the original artwork.

Tracklist:
01. Aubade
02. The Tale of Taliesin
03. Ban-Ban Caliban
04. Song of Aeolus
05. Out of Season
06. Second Bundle
07. Kayoo
08. The Camden Tandem
09. Nexus
10. One Over the Eight
11. Etika

Total time: 45:15

Exact Audio Copy V1.0 beta 3 from 29. August 2011

EAC extraction logfile from 29. July 2012, 15:43

Softs / Soft Machine

Used drive : HL-DT-STBDDVDRW GBC-H20N Adapter: 1 ID: 0

Read mode : Secure
Utilize accurate stream : Yes
Defeat audio cache : Yes
Make use of C2 pointers : No

Read offset correction : 667
Overread into Lead-In and Lead-Out : No
Fill up missing offset samples with silence : Yes
Delete leading and trailing silent blocks : No
Null samples used in CRC calculations : Yes
Used interface : Native Win32 interface for Win NT & 2000

Used output format : User Defined Encoder
Selected bitrate : 1024 kBit/s
Quality : High
Add ID3 tag : No
Command line compressor : C:\Program Files\Exact Audio Copy\wavpack.exe
Additional command line options : -hm %source% %dest%


TOC of the extracted CD

Track | Start | Length | Start sector | End sector
––––––––––––––––––––––––––––-
1 | 0:00.00 | 1:51.73 | 0 | 8397
2 | 1:51.73 | 7:17.49 | 8398 | 41221
3 | 9:09.47 | 9:23.05 | 41222 | 83451
4 | 18:32.52 | 4:26.40 | 83452 | 103441
5 | 22:59.17 | 5:31.24 | 103442 | 128290
6 | 28:30.41 | 2:35.66 | 128291 | 139981
7 | 31:06.32 | 3:27.52 | 139982 | 155558
8 | 34:34.09 | 2:01.19 | 155559 | 164652
9 | 36:35.28 | 0:49.46 | 164653 | 168373
10 | 37:24.74 | 5:29.40 | 168374 | 193088
11 | 42:54.39 | 2:20.18 | 193089 | 203606


Range status and errors

Selected range

Filename I:\Music\Canterbury scene\Soft Machine\Soft.Machine-Discography.1968-2010.FLAC.CUE.Lossless\1 - Studio\09 - Softs\Softs - Soft Machine.wav

Peak level 98.8 %
Extraction speed 5.7 X
Range quality 99.9 %
Test CRC 1DAFFD54
Copy CRC 1DAFFD54
Copy OK

No errors occurred


AccurateRip summary

Track 1 accurately ripped (confidence 2) [65D477D3] (AR v2)
Track 2 accurately ripped (confidence 2) [D8132FB7] (AR v2)
Track 3 accurately ripped (confidence 2) [6C15AE1A] (AR v2)
Track 4 accurately ripped (confidence 2) [C7C98E01] (AR v2)
Track 5 accurately ripped (confidence 2) [E24ABFBE] (AR v2)
Track 6 accurately ripped (confidence 2) [C281972C] (AR v2)
Track 7 accurately ripped (confidence 2) [E9AD18C4] (AR v2)
Track 8 accurately ripped (confidence 2) [0BB6DFD0] (AR v2)
Track 9 accurately ripped (confidence 2) [42F98496] (AR v2)
Track 10 accurately ripped (confidence 2) [9E5567F7] (AR v2)
Track 11 accurately ripped (confidence 2) [4F918DCE] (AR v2)

All tracks accurately ripped

End of status report

–– CUETools DB Plugin V2.1.3

[CTDB TOCID: m6dJD5WeK_V4a0EEKM.9R_yzLAM-] found, Submit result: m6dJD5WeK_V4a0EEKM.9R_yzLAM- has been confirmed
[cf74756c] (2/2) Accurately ripped


==== Log checksum FF0F57B2F3FC6A73647D8D9C69D4AEEE61FBA365F22ADD00023F2BF75121C404 ====

[CUETools log; Date: 19.07.2019 2:27:09; Version: 2.1.4]
[CTDB TOCID: m6dJD5WeK_V4a0EEKM.9R_yzLAM-] found.
Track | CTDB Status
1 | (57/57) Accurately ripped
2 | (57/57) Accurately ripped
3 | (57/57) Accurately ripped
4 | (57/57) Accurately ripped
5 | (57/57) Accurately ripped
6 | (57/57) Accurately ripped
7 | (57/57) Accurately ripped
8 | (57/57) Accurately ripped
9 | (57/57) Accurately ripped
10 | (57/57) Accurately ripped
11 | (57/57) Accurately ripped
[AccurateRip ID: 001535f5-00b2cf35-8c0a9a0b] found.
Track [ CRC | V2 ] Status
01 [889eadf3|65d477d3] (06+22/36) Accurately ripped
02 [9647b2f5|d8132fb7] (06+22/36) Accurately ripped
03 [7461607f|6c15ae1a] (06+22/36) Accurately ripped
04 [eb954d52|c7c98e01] (06+22/36) Accurately ripped
05 [e8ced593|e24abfbe] (06+22/36) Accurately ripped
06 [3353bd3e|c281972c] (06+22/36) Accurately ripped
07 [623465ff|e9ad18c4] (06+22/36) Accurately ripped
08 [cf545b79|0bb6dfd0] (06+22/36) Accurately ripped
09 [1c800313|42f98496] (06+22/36) Accurately ripped
10 [d46ae27e|9e5567f7] (06+22/36) Accurately ripped
11 [386528f1|4f918dce] (05+22/35) Accurately ripped
Offsetted by -114:
01 [ad2cd427] (02/36) Accurately ripped
02 [3b369114] (02/36) Accurately ripped
03 [2560900f] (02/36) Accurately ripped
04 [b99c070c] (02/36) Accurately ripped
05 [65e88a36] (02/36) Accurately ripped
06 [20b4cf43] (02/36) Accurately ripped
07 [8e4f9fe6] (02/36) Accurately ripped
08 [048193cc] (02/36) Accurately ripped
09 [7452aa3e] (02/36) Accurately ripped
10 [81867401] (02/36) Accurately ripped
11 [72d8e62e] (02/35) Accurately ripped
Offsetted by 6:
01 [5575f091] (00/36) No match (V2 was not tested)
02 [3885542f] (00/36) No match (V2 was not tested)
03 [a74beebd] (00/36) No match (V2 was not tested)
04 [8d7bbf44] (00/36) No match (V2 was not tested)
05 [a1022343] (00/36) No match (V2 was not tested)
06 [65eaef70] (00/36) No match (V2 was not tested)
07 [4d9c9d53] (00/36) No match (V2 was not tested)
08 [09444fd9] (00/36) No match (V2 was not tested)
09 [9939886d] (00/36) No match (V2 was not tested)
10 [403252e7] (00/36) No match (V2 was not tested)
11 [1bc7101a] (00/35) No match (V2 was not tested)

Track Peak [ CRC32 ] [W/O NULL] [ LOG ]
– 98,8 [1DAFFD54] [E9265169] CRC32
01 44,0 [D43839F0] [A35971D9]
02 98,8 [56AE4D76] [42653139]
03 98,8 [36159E35] [4C889C6A]
04 98,8 [BCB914A2] [4863E0F1]
05 98,8 [6C6F816E] [947286C1]
06 90,9 [BD570E30] [DAFF96FE]
07 98,8 [519684A0] [C057A4B2]
08 98,8 [D1300267] [4AA443BD]
09 98,8 [ED709DEF] [A0AC9F25]
10 98,8 [A5963603] [A2BCF3A0]
11 75,6 [BD332EF2] [F8DF3DA4]

Thanks to arizonadream

See also: