Subcategories

Solti Conducts Bartok (2012)

Posted By: peotuvave
Solti Conducts Bartok (2012)

Solti Conducts Bartok (2012)
EAC Rip | Flac (Image + cue + log) | 7 CDs | Full Scans | 1.86 GB
Genre: Classical | Label: Decca | Catalog Number: 001746002

October 21, 2012 marks Sir Georg Solti's centenary and Decca is celebrating this with several important reissues. Sir Georg was an exclusive Decca artist for 50 years.

In 1947 he signed his first contract with Decca - as a pianist and that same year he made his first record as a conductor (with the Zurich Tonhalle in Beethovens Egmont Overture). His last public concerts took place just a few weeks before his death in 1997 and were with the Zurich Tonhalle.

Solti was a musician with extraordinarily wide musical interests and sympathies and he was without doubt one of the most important opera conductors of the second half of the twentieth century. His legacy of recordings is dominated by opera and his recording of Wagners Der Ring des Nibelungen - the first ever complete studio recording - has been described as the greatest recording of all time

Composer: Béla Bartók, Leó Weiner, Zoltán Kodály
Performer: Alexandru Agache, Tamás Daróczy, Vladimir Ashkenazy, Kyung-Wha Chung, …
Conductor: Sir Georg Solti
Orchestra/Ensemble: Chicago Symphony Orchestra, Chicago Symphony Orchestra Strings, Hungarian Radio/TV Chorus, …

Reviews: "Sir Georg's empathy for this idiom is everywhere in evidence, and never more so than in Bartok's Romanian folkdances, where lightness of touch and sensitive rubato recreate a crucial feeling of improvisation. The Hungarian Sketches are tellingly pointed, with fluid lines in ''Evening in the Village'' and ''Melody'', a hilarious ff trombone/tuba belch in ''A Little Tipsy'' and cleanly differentiated percussion in the ''Bear Dance''. Here one might also recall Reiner's more explosive option, whereas in Dorati's roughly contemporaneous Minneapolis recording, snare and tenor drum are virtually inaudible. Solti's is now perhaps the current front-runner, and makes for a most entertaining musical diversion. Nice too to hear music by the much underrated Leo Weiner, his Csongor es Tunde ballet with its subtle reminiscences of Nicolai's Merry Wives of Windsor Overture and Liszt's Dante Symphony. The busy scherzo is the sort of thing Bartok might have composed had he not outgrown the worlds of Strauss and Dohnanyi, while the Introduction is reminiscent of Kodaly in pastoral vein."

"It is apt, if ironic, that these very last recordings of Sir Georg Solti, product of sessions in Budapest last June, three months before his sudden death, should make up the perfect valedictory disc. Ironically too, these were his very first recordings made in his native Hungary with Hungarian musicians…Solti came to feel that the story of Bartok’s Cantata profana – about nine sons turned by magic into stags, who finally return home – symbolized his own life-story. The chorus, as I say, sing superbly, with the Romanian baritone, Alexander Agache, a strong and dark soloist.

The rarity here is the Serenade of Leo Weiner, the teacher closest to Solti in his student days, one who both challenged him and drew him out. The amiability of this music, far less individual, less specifically Hungarian than that of Bartok or Kodaly, seems to reflect Weiner’s character as Solti’s mentor. Beautifully written in four cleanly constructed movements, this is a delightful piece full of fresh, crisply conceived ideas, as in the easygoing sonata-form first movement. The warmly responsive woodwind soloists of the Budapest Festival Orchestra come into their own in the interlude of the third movement with its sequence of solos getting faster, in turn for clarinet, bassoon, oboe and flute. Solti could never have conceived a more winning last offering on disc."

Tracklisting:

1. Concerto for Orchestra, Sz 116 by Béla Bartók
Conductor: Sir Georg Solti
Orchestra/Ensemble: Chicago Symphony Orchestra
Period: 20th Century
Written: 1943; USA

2. Dance Suite for Orchestra, Sz 77 by Béla Bartók
Conductor: Sir Georg Solti
Orchestra/Ensemble: Chicago Symphony Orchestra
Period: 20th Century
Written: 1923; Budapest, Hungary

3. Hungarian Sketches (5), Sz 97 by Béla Bartók
Conductor: Sir Georg Solti
Orchestra/Ensemble: Chicago Symphony Orchestra
Period: 20th Century
Written: 1931; Budapest, Hungary

4. Romanian Folkdances for String Orchestra, Sz 68 by Béla Bartók
Conductor: Sir Georg Solti
Orchestra/Ensemble: Chicago Symphony Orchestra
Period: 20th Century
Written: 1917; Budapest, Hungary

5. Music for Strings, Percussion and Celesta, Sz 106 by Béla Bartók
Conductor: Sir Georg Solti
Orchestra/Ensemble: Chicago Symphony Orchestra
Period: 20th Century
Written: 1936; Budapest, Hungary

6. Divertimento for String Orchestra, Sz 113 by Béla Bartók
Conductor: Sir Georg Solti
Orchestra/Ensemble: Chicago Symphony Orchestra Strings
Period: 20th Century
Written: 1939; Budapest, Hungary

7. Miraculous Mandarin, Op. 19/Sz 73: Suite by Béla Bartók
Conductor: Sir Georg Solti
Orchestra/Ensemble: Chicago Symphony Orchestra
Period: 20th Century
Written: 1919-1927; Budapest, Hungary

8. Cantata Profana, Sz 94 by Béla Bartók
Performer: Alexandru Agache (Baritone), Tamás Daróczy (Tenor)
Conductor: Sir Georg Solti
Orchestra/Ensemble: Hungarian Radio/TV Chorus, Budapest Festival Orchestra
Period: 20th Century
Written: 1930; Budapest, Hungary
Date of Recording: 06/1997
Venue: Italian Institute, Budapest, Hungary
Length: 18 Minutes 48 Secs.
Language: Hungarian

9. Concerto for Piano no 1, Sz 83 by Béla Bartók
Performer: Vladimir Ashkenazy (Piano)
Conductor: Sir Georg Solti
Orchestra/Ensemble: London Philharmonic Orchestra
Period: 20th Century
Written: 1926; Budapest, Hungary

10. Concerto for Piano no 2, Sz 95 by Béla Bartók
Performer: Vladimir Ashkenazy (Piano)
Conductor: Sir Georg Solti
Orchestra/Ensemble: London Philharmonic Orchestra
Period: 20th Century
Written: 1930-1931; Budapest, Hungary

11. Concerto for Piano no 3, Sz 119 by Béla Bartók
Performer: Vladimir Ashkenazy (Piano)
Conductor: Sir Georg Solti
Orchestra/Ensemble: London Philharmonic Orchestra
Period: 20th Century
Written: 1945; USA

12. Concerto for Violin no 1, Sz 36 by Béla Bartók
Performer: Kyung-Wha Chung (Violin)
Conductor: Sir Georg Solti
Orchestra/Ensemble: Chicago Symphony Orchestra
Period: 20th Century
Written: 1907-1908; Budapest, Hungary

13. Concerto for Violin no 2, Sz 112 by Béla Bartók
Performer: Kyung-Wha Chung (Violin)
Conductor: Sir Georg Solti
Orchestra/Ensemble: London Philharmonic Orchestra
Period: 20th Century
Written: 1937-1938; Budapest, Hungary

14. Bluebeard's Castle, Op. 11/Sz 48 by Béla Bartók
Performer: Istvan Sztankay (Spoken Vocals), Sylvia Sass (Soprano), Kolos Kováts (Bass)
Conductor: Sir Georg Solti
Orchestra/Ensemble: London Philharmonic Orchestra
Period: 20th Century
Written: 1911/1918; Budapest, Hungary

15. Serenade in F minor, Op. 3 by Leó Weiner
Conductor: Sir Georg Solti
Orchestra/Ensemble: Budapest Festival Orchestra
Period: 20th Century
Written: 1906; Hungary
Date of Recording: 06/1997
Venue: Italian Institute, Budapest, Hungary
Length: 19 Minutes 58 Secs.

16. Dances of Galánta by Zoltán Kodály
Conductor: Sir Georg Solti
Orchestra/Ensemble: London Philharmonic Orchestra
Period: 20th Century
Written: 1933; Hungary
Date of Recording: 11/1952

17. Variations on a Hungarian folksong "The Peacock" by Zoltán Kodály
Conductor: Sir Georg Solti
Orchestra/Ensemble: London Philharmonic Orchestra
Period: 20th Century
Written: 1938-1939; Hungary
Date of Recording: 4/1954

18. Háry János, Op. 15: Suite by Zoltán Kodály
Conductor: Sir Georg Solti
Orchestra/Ensemble: London Philharmonic Orchestra
Period: 20th Century
Written: 1927; Hungary
Date of Recording: 2/1955

19. Music for Strings, Percussion and Celesta, Sz 106 by Béla Bartók
Conductor: Sir Georg Solti
Orchestra/Ensemble: London Philharmonic Orchestra
Period: 20th Century
Written: 1936; Budapest, Hungary

20. Dance Suite for Orchestra, Sz 77 by Béla Bartók
Conductor: Sir Georg Solti
Orchestra/Ensemble: London Philharmonic Orchestra
Period: 20th Century
Written: 1923; Budapest, Hungary

21. Psalmus hungaricus, Op. 13 by Zoltán Kodály
Performer: William Mcalpine (Tenor)
Conductor: Sir Georg Solti
Orchestra/Ensemble: London Philharmonic Orchestra, London Philharmonic Choir
Period: 20th Century
Written: 1923; Hungary

22. Music for Strings, Percussion and Celesta, Sz 106 by Béla Bartók
Conductor: Sir Georg Solti
Orchestra/Ensemble: Chicago Symphony Orchestra
Period: 20th Century
Written: 1936; Budapest, Hungary

23. Dance Suite for Orchestra, Sz 77 by Béla Bartók
Conductor: Sir Georg Solti
Orchestra/Ensemble: Chicago Symphony Orchestra
Period: 20th Century
Written: 1923; Budapest, Hungary

24. Prinz Csongor und die Kobolde Suite, Op. 10b: Scherzo by Leó Weiner
Conductor: Sir Georg Solti
Orchestra/Ensemble: Chicago Symphony Orchestra
Period: Romantic
Written: by 1927; Hungary

Exact Audio Copy V1.0 beta 3 from 29. August 2011

EAC extraction logfile from 13. September 2012, 12:26

Georg Solti - Chicago Symphony Orchestra / Bartók - Orchestral works - Solti (Disc 1)

Used drive : TSSTcorpCDDVDW TS-L633M Adapter: 1 ID: 0

Read mode : Secure
Utilize accurate stream : Yes
Defeat audio cache : Yes
Make use of C2 pointers : No

Read offset correction : 6
Overread into Lead-In and Lead-Out : No
Fill up missing offset samples with silence : Yes
Delete leading and trailing silent blocks : No
Null samples used in CRC calculations : Yes
Used interface : Native Win32 interface for Win NT & 2000

Used output format : User Defined Encoder
Selected bitrate : 320 kBit/s
Quality : High
Add ID3 tag : No
Command line compressor : C:\Program Files\Exact Audio Copy\Flac\flac.exe
Additional command line options : -8 -V -T "TITLE=%title%" -T "ARTIST=%artist%" -T "ALBUMARTIST=%albumartist%" -T "ALBUM=%albumtitle%" -T "DATE=%year%" -T "TRACKNUMBER=%tracknr%" -T "TRACKTOTAL=%numtracks%" -T "GENRE=%genre%" -T "COMMENT=%comment%" -T "PERFORMER=%albuminterpret%" -T "COMPOSER=%composer%" %source% -o %dest%


TOC of the extracted CD

Track | Start | Length | Start sector | End sector
––––––––––––––––––––––––––––-
1 | 0:00.00 | 9:06.12 | 0 | 40961
2 | 9:06.12 | 6:11.07 | 40962 | 68793
3 | 15:17.19 | 6:33.48 | 68794 | 98316
4 | 21:50.67 | 4:03.72 | 98317 | 116613
5 | 25:54.64 | 9:38.11 | 116614 | 159974
6 | 35:33.00 | 3:30.36 | 159975 | 175760
7 | 39:03.36 | 2:12.01 | 175761 | 185661
8 | 41:15.37 | 2:43.34 | 185662 | 197920
9 | 43:58.71 | 2:35.15 | 197921 | 209560
10 | 46:34.11 | 0:58.65 | 209561 | 213975
11 | 47:33.01 | 4:01.74 | 213976 | 232124
12 | 51:35.00 | 6:34.26 | 232125 | 261700
13 | 58:09.26 | 7:23.00 | 261701 | 294925
14 | 65:32.26 | 6:51.62 | 294926 | 325812
15 | 72:24.13 | 6:35.62 | 325813 | 355499


Range status and errors

Selected range

Filename C:\Users\JS\Desktop\Bartok - Orchestral works - Solti\cd1\Bartók - Orchestral works - Solti (Disc 1).wav

Peak level 98.5 %
Extraction speed 3.8 X
Range quality 99.9 %
Test CRC C6919778
Copy CRC C6919778
Copy OK

No errors occurred


AccurateRip summary

Track 1 accurately ripped (confidence 3) [FAFFCD98] (AR v1)
Track 2 accurately ripped (confidence 3) [A9D6033A] (AR v1)
Track 3 accurately ripped (confidence 3) [22297F9A] (AR v1)
Track 4 accurately ripped (confidence 3) [1BC6D02D] (AR v1)
Track 5 accurately ripped (confidence 3) [6EDBF822] (AR v1)
Track 6 accurately ripped (confidence 3) [6A3C7188] (AR v1)
Track 7 accurately ripped (confidence 3) [D6A89B12] (AR v1)
Track 8 accurately ripped (confidence 3) [C9469A32] (AR v1)
Track 9 accurately ripped (confidence 3) [351D2D95] (AR v1)
Track 10 accurately ripped (confidence 3) [E7AFEB19] (AR v1)
Track 11 accurately ripped (confidence 3) [9A344173] (AR v1)
Track 12 accurately ripped (confidence 3) [2DBD943F] (AR v1)
Track 13 accurately ripped (confidence 3) [62B4B0E5] (AR v1)
Track 14 accurately ripped (confidence 3) [570B652C] (AR v1)
Track 15 accurately ripped (confidence 3) [EE7E344C] (AR v1)

All tracks accurately ripped

End of status report

Exact Audio Copy V1.0 beta 3 from 29. August 2011

EAC extraction logfile from 13. September 2012, 16:12

Georg Solti / Bartók - Orchestral works - Solti (Disc 2)

Used drive : TSSTcorpCDDVDW SH-222BB Adapter: 2 ID: 1

Read mode : Secure
Utilize accurate stream : Yes
Defeat audio cache : Yes
Make use of C2 pointers : No

Read offset correction : 6
Overread into Lead-In and Lead-Out : No
Fill up missing offset samples with silence : Yes
Delete leading and trailing silent blocks : No
Null samples used in CRC calculations : Yes
Used interface : Native Win32 interface for Win NT & 2000

Used output format : User Defined Encoder
Selected bitrate : 1024 kBit/s
Quality : High
Add ID3 tag : No
Command line compressor : C:\Program Files\Exact Audio Copy\Flac\flac.exe
Additional command line options : -8 -V -T "TITLE=%title%" -T "ARTIST=%artist%" -T "ALBUMARTIST=%albumartist%" -T "ALBUM=%albumtitle%" -T "DATE=%year%" -T "TRACKNUMBER=%tracknr%" -T "TRACKTOTAL=%numtracks%" -T "GENRE=%genre%" -T "COMMENT=%comment%" -T "PERFORMER=%albuminterpret%" -T "COMPOSER=%composer%" %source% -o %dest%


TOC of the extracted CD

Track | Start | Length | Start sector | End sector
––––––––––––––––––––––––––––-
1 | 0:00.00 | 18:24.58 | 0 | 82857
2 | 18:24.58 | 8:23.66 | 82858 | 120648
3 | 26:48.49 | 7:33.34 | 120649 | 154657
4 | 34:22.08 | 7:16.26 | 154658 | 187383
5 | 41:38.34 | 2:52.32 | 187384 | 200315
6 | 44:30.66 | 1:47.35 | 200316 | 208375
7 | 46:18.26 | 1:58.28 | 208376 | 217253
8 | 48:16.54 | 2:21.26 | 217254 | 227854
9 | 50:38.05 | 2:09.08 | 227855 | 237537
10 | 52:47.13 | 1:21.44 | 237538 | 243656
11 | 54:08.57 | 0:36.09 | 243657 | 246365
12 | 54:44.66 | 1:07.01 | 246366 | 251391
13 | 55:51.67 | 1:34.14 | 251392 | 258455
14 | 57:26.06 | 0:30.16 | 258456 | 260721
15 | 57:56.22 | 0:17.16 | 260722 | 262012
16 | 58:13.38 | 0:47.65 | 262013 | 265602
17 | 59:01.28 | 7:04.02 | 265603 | 297404
18 | 66:05.30 | 7:54.48 | 297405 | 333002
19 | 74:00.03 | 2:50.61 | 333003 | 345813


Range status and errors

Selected range

Filename F:\Ripped general\[9596] Bartok - Orchestral works - Solti\cd2\Bartók - Orchestral works - Solti (Disc 2).wav

Peak level 99.4 %
Extraction speed 8.2 X
Range quality 100.0 %
Test CRC 56C98C04
Copy CRC 56C98C04
Copy OK

No errors occurred


AccurateRip summary

Track 1 not present in database
Track 2 not present in database
Track 3 not present in database
Track 4 not present in database
Track 5 not present in database
Track 6 not present in database
Track 7 not present in database
Track 8 not present in database
Track 9 not present in database
Track 10 not present in database
Track 11 not present in database
Track 12 not present in database
Track 13 not present in database
Track 14 not present in database
Track 15 not present in database
Track 16 not present in database
Track 17 not present in database
Track 18 not present in database
Track 19 not present in database

None of the tracks are present in the AccurateRip database

End of status report

Exact Audio Copy V1.0 beta 3 from 29. August 2011

EAC extraction logfile from 13. September 2012, 16:38

Vladimir Ashkenazy / Bartók - Orchestral works - Solti (Disc 3)

Used drive : TSSTcorpCDDVDW TS-L633M Adapter: 1 ID: 0

Read mode : Secure
Utilize accurate stream : Yes
Defeat audio cache : Yes
Make use of C2 pointers : No

Read offset correction : 6
Overread into Lead-In and Lead-Out : No
Fill up missing offset samples with silence : Yes
Delete leading and trailing silent blocks : No
Null samples used in CRC calculations : Yes
Used interface : Native Win32 interface for Win NT & 2000

Used output format : User Defined Encoder
Selected bitrate : 320 kBit/s
Quality : High
Add ID3 tag : No
Command line compressor : C:\Program Files\Exact Audio Copy\Flac\flac.exe
Additional command line options : -8 -V -T "TITLE=%title%" -T "ARTIST=%artist%" -T "ALBUMARTIST=%albumartist%" -T "ALBUM=%albumtitle%" -T "DATE=%year%" -T "TRACKNUMBER=%tracknr%" -T "TRACKTOTAL=%numtracks%" -T "GENRE=%genre%" -T "COMMENT=%comment%" -T "PERFORMER=%albuminterpret%" -T "COMPOSER=%composer%" %source% -o %dest%


TOC of the extracted CD

Track | Start | Length | Start sector | End sector
––––––––––––––––––––––––––––-
1 | 0:00.32 | 9:17.35 | 32 | 41841
2 | 9:17.67 | 7:22.53 | 41842 | 75044
3 | 16:40.45 | 6:49.72 | 75045 | 105791
4 | 23:30.42 | 9:19.53 | 105792 | 147769
5 | 32:50.20 | 14:33.57 | 147770 | 213301
6 | 47:24.02 | 6:25.38 | 213302 | 242214
7 | 53:49.40 | 7:01.20 | 242215 | 273809
8 | 60:50.60 | 10:49.17 | 273810 | 322501
9 | 71:40.02 | 6:33.30 | 322502 | 352006


Range status and errors

Selected range

Filename C:\Users\JS\Desktop\Bartok - Orchestral works - Solti\cd3\Bartók - Orchestral works - Solti (Disc 3).wav

Peak level 100.0 %
Extraction speed 2.1 X
Range quality 100.0 %
Test CRC D5AFA52A
Copy CRC D5AFA52A
Copy OK

No errors occurred


AccurateRip summary

Track 1 cannot be verified as accurate (confidence 2) [33E42FC7], AccurateRip returned [04CE6078] (AR v2)
Track 2 cannot be verified as accurate (confidence 2) [F40B7E6B], AccurateRip returned [D3C79975] (AR v2)
Track 3 cannot be verified as accurate (confidence 2) [C5B79BF5], AccurateRip returned [C650AF15] (AR v2)
Track 4 cannot be verified as accurate (confidence 2) [B84C91C3], AccurateRip returned [10294ECA] (AR v2)
Track 5 cannot be verified as accurate (confidence 2) [A20D29B3], AccurateRip returned [778DECD7] (AR v2)
Track 6 cannot be verified as accurate (confidence 2) [ED20EA79], AccurateRip returned [14A7AF08] (AR v2)
Track 7 cannot be verified as accurate (confidence 2) [9C2C4148], AccurateRip returned [9D56AB9E] (AR v2)
Track 8 cannot be verified as accurate (confidence 2) [11DAC26F], AccurateRip returned [82E4E4D7] (AR v2)
Track 9 cannot be verified as accurate (confidence 2) [AC4D3C45], AccurateRip returned [DDE8F554] (AR v2)

No tracks could be verified as accurate
You may have a different pressing from the one(s) in the database

End of status report

Exact Audio Copy V1.0 beta 3 from 29. August 2011

EAC extraction logfile from 13. September 2012, 17:13

Kyung Wha Chung / Bartók - Orchestral works - Solti (Disc 4)

Used drive : TSSTcorpCDDVDW SH-222BB Adapter: 2 ID: 1

Read mode : Secure
Utilize accurate stream : Yes
Defeat audio cache : Yes
Make use of C2 pointers : No

Read offset correction : 6
Overread into Lead-In and Lead-Out : No
Fill up missing offset samples with silence : Yes
Delete leading and trailing silent blocks : No
Null samples used in CRC calculations : Yes
Used interface : Native Win32 interface for Win NT & 2000

Used output format : User Defined Encoder
Selected bitrate : 1024 kBit/s
Quality : High
Add ID3 tag : No
Command line compressor : C:\Program Files\Exact Audio Copy\Flac\flac.exe
Additional command line options : -8 -V -T "TITLE=%title%" -T "ARTIST=%artist%" -T "ALBUMARTIST=%albumartist%" -T "ALBUM=%albumtitle%" -T "DATE=%year%" -T "TRACKNUMBER=%tracknr%" -T "TRACKTOTAL=%numtracks%" -T "GENRE=%genre%" -T "COMMENT=%comment%" -T "PERFORMER=%albuminterpret%" -T "COMPOSER=%composer%" %source% -o %dest%


TOC of the extracted CD

Track | Start | Length | Start sector | End sector
––––––––––––––––––––––––––––-
1 | 0:00.33 | 8:40.67 | 33 | 39099
2 | 8:41.25 | 11:34.45 | 39100 | 91194
3 | 20:15.70 | 16:45.63 | 91195 | 166632
4 | 37:01.58 | 9:35.00 | 166633 | 209757
5 | 46:36.58 | 12:28.50 | 209758 | 265907


Range status and errors

Selected range

Filename F:\Ripped general\[9596] Bartok - Orchestral works - Solti\cd4\Bartók - Orchestral works - Solti (Disc 4).wav

Peak level 91.9 %
Extraction speed 2.3 X
Range quality 99.9 %
Test CRC 762E8219
Copy CRC 762E8219
Copy OK

No errors occurred


AccurateRip summary

Track 1 cannot be verified as accurate (confidence 11) [B9F9D754], AccurateRip returned [FC5F5701] (AR v2)
Track 2 cannot be verified as accurate (confidence 11) [330E723B], AccurateRip returned [71E1B94A] (AR v2)
Track 3 cannot be verified as accurate (confidence 11) [0D961BD7], AccurateRip returned [7E16758B] (AR v2)
Track 4 cannot be verified as accurate (confidence 11) [F528E604], AccurateRip returned [010AC3B7] (AR v2)
Track 5 cannot be verified as accurate (confidence 11) [6A6733B4], AccurateRip returned [DF512ED2] (AR v2)

No tracks could be verified as accurate
You may have a different pressing from the one(s) in the database

End of status report

Exact Audio Copy V1.0 beta 3 from 29. August 2011

EAC extraction logfile from 13. September 2012, 17:56

Georg Solti / Bartók - Orchestral works - Solti (Disc 5)

Used drive : TSSTcorpCDDVDW TS-L633M Adapter: 1 ID: 0

Read mode : Secure
Utilize accurate stream : Yes
Defeat audio cache : Yes
Make use of C2 pointers : No

Read offset correction : 6
Overread into Lead-In and Lead-Out : No
Fill up missing offset samples with silence : Yes
Delete leading and trailing silent blocks : No
Null samples used in CRC calculations : Yes
Used interface : Native Win32 interface for Win NT & 2000

Used output format : User Defined Encoder
Selected bitrate : 320 kBit/s
Quality : High
Add ID3 tag : No
Command line compressor : C:\Program Files\Exact Audio Copy\Flac\flac.exe
Additional command line options : -8 -V -T "TITLE=%title%" -T "ARTIST=%artist%" -T "ALBUMARTIST=%albumartist%" -T "ALBUM=%albumtitle%" -T "DATE=%year%" -T "TRACKNUMBER=%tracknr%" -T "TRACKTOTAL=%numtracks%" -T "GENRE=%genre%" -T "COMMENT=%comment%" -T "PERFORMER=%albuminterpret%" -T "COMPOSER=%composer%" %source% -o %dest%


TOC of the extracted CD

Track | Start | Length | Start sector | End sector
––––––––––––––––––––––––––––-
1 | 0:00.33 | 15:34.42 | 33 | 70124
2 | 15:35.00 | 4:04.28 | 70125 | 88452
3 | 19:39.28 | 4:04.45 | 88453 | 106797
4 | 23:43.73 | 2:09.45 | 106798 | 116517
5 | 25:53.43 | 4:48.32 | 116518 | 138149
6 | 30:42.00 | 6:06.28 | 138150 | 165627
7 | 36:48.28 | 11:40.52 | 165628 | 218179
8 | 48:29.05 | 8:39.38 | 218180 | 257142


Range status and errors

Selected range

Filename C:\Users\JS\Desktop\Bartok - Orchestral works - Solti\cd5\Bartók - Orchestral works - Solti (Disc 5).wav

Peak level 93.0 %
Extraction speed 1.7 X
Range quality 99.9 %
Test CRC 0CA26CB9
Copy CRC 0CA26CB9
Copy OK

No errors occurred


AccurateRip summary

Track 1 not present in database
Track 2 not present in database
Track 3 not present in database
Track 4 not present in database
Track 5 not present in database
Track 6 not present in database
Track 7 not present in database
Track 8 not present in database

None of the tracks are present in the AccurateRip database

End of status report

Exact Audio Copy V1.0 beta 3 from 29. August 2011

EAC extraction logfile from 13. September 2012, 17:47

Sir Georg Solti / Bartók - Orchestral works - Solti (Disc 6)

Used drive : TSSTcorpCDDVDW SH-222BB Adapter: 2 ID: 1

Read mode : Secure
Utilize accurate stream : Yes
Defeat audio cache : Yes
Make use of C2 pointers : No

Read offset correction : 6
Overread into Lead-In and Lead-Out : No
Fill up missing offset samples with silence : Yes
Delete leading and trailing silent blocks : No
Null samples used in CRC calculations : Yes
Used interface : Native Win32 interface for Win NT & 2000

Used output format : User Defined Encoder
Selected bitrate : 1024 kBit/s
Quality : High
Add ID3 tag : No
Command line compressor : C:\Program Files\Exact Audio Copy\Flac\flac.exe
Additional command line options : -8 -V -T "TITLE=%title%" -T "ARTIST=%artist%" -T "ALBUMARTIST=%albumartist%" -T "ALBUM=%albumtitle%" -T "DATE=%year%" -T "TRACKNUMBER=%tracknr%" -T "TRACKTOTAL=%numtracks%" -T "GENRE=%genre%" -T "COMMENT=%comment%" -T "PERFORMER=%albuminterpret%" -T "COMPOSER=%composer%" %source% -o %dest%


TOC of the extracted CD

Track | Start | Length | Start sector | End sector
––––––––––––––––––––––––––––-
1 | 0:00.00 | 4:17.33 | 0 | 19307
2 | 4:17.33 | 2:36.53 | 19308 | 31060
3 | 6:54.11 | 1:17.16 | 31061 | 36851
4 | 8:11.27 | 2:48.35 | 36852 | 49486
5 | 10:59.62 | 3:05.02 | 49487 | 63363
6 | 14:04.64 | 3:15.03 | 63364 | 77991
7 | 17:19.67 | 2:18.55 | 77992 | 88396
8 | 19:38.47 | 2:47.09 | 88397 | 100930
9 | 22:25.56 | 5:42.04 | 100931 | 126584
10 | 28:07.60 | 5:14.70 | 126585 | 150204
11 | 33:22.55 | 3:44.32 | 150205 | 167036
12 | 37:07.12 | 3:17.27 | 167037 | 181838
13 | 40:24.39 | 2:10.21 | 181839 | 191609
14 | 42:34.60 | 4:46.49 | 191610 | 213108
15 | 47:21.34 | 3:43.20 | 213109 | 229853
16 | 51:04.54 | 4:49.56 | 229854 | 251584
17 | 55:54.35 | 2:51.53 | 251585 | 264462
18 | 58:46.13 | 5:52.70 | 264463 | 290932
19 | 64:39.08 | 5:10.62 | 290933 | 314244
20 | 69:49.70 | 3:49.52 | 314245 | 331471
21 | 73:39.47 | 5:04.59 | 331472 | 354330


Range status and errors

Selected range

Filename F:\Ripped general\[9596] Bartok - Orchestral works - Solti\cd6\Bartók - Orchestral works - Solti (Disc 6).wav

Peak level 98.8 %
Extraction speed 8.3 X
Range quality 100.0 %
Test CRC 13CDC041
Copy CRC 13CDC041
Copy OK

No errors occurred


AccurateRip summary

Track 1 not present in database
Track 2 not present in database
Track 3 not present in database
Track 4 not present in database
Track 5 not present in database
Track 6 not present in database
Track 7 not present in database
Track 8 not present in database
Track 9 not present in database
Track 10 not present in database
Track 11 not present in database
Track 12 not present in database
Track 13 not present in database
Track 14 not present in database
Track 15 not present in database
Track 16 not present in database
Track 17 not present in database
Track 18 not present in database
Track 19 not present in database
Track 20 not present in database
Track 21 not present in database

None of the tracks are present in the AccurateRip database

End of status report

Exact Audio Copy V1.0 beta 3 from 29. August 2011

EAC extraction logfile from 13. September 2012, 18:15

Sir Georg Solti / Bartók - Orchestral works - Solti (Disc 7)

Used drive : TSSTcorpCDDVDW SH-222BB Adapter: 2 ID: 1

Read mode : Secure
Utilize accurate stream : Yes
Defeat audio cache : Yes
Make use of C2 pointers : No

Read offset correction : 6
Overread into Lead-In and Lead-Out : No
Fill up missing offset samples with silence : Yes
Delete leading and trailing silent blocks : No
Null samples used in CRC calculations : Yes
Used interface : Native Win32 interface for Win NT & 2000

Used output format : User Defined Encoder
Selected bitrate : 1024 kBit/s
Quality : High
Add ID3 tag : No
Command line compressor : C:\Program Files\Exact Audio Copy\Flac\flac.exe
Additional command line options : -8 -V -T "TITLE=%title%" -T "ARTIST=%artist%" -T "ALBUMARTIST=%albumartist%" -T "ALBUM=%albumtitle%" -T "DATE=%year%" -T "TRACKNUMBER=%tracknr%" -T "TRACKTOTAL=%numtracks%" -T "GENRE=%genre%" -T "COMMENT=%comment%" -T "PERFORMER=%albuminterpret%" -T "COMPOSER=%composer%" %source% -o %dest%


TOC of the extracted CD

Track | Start | Length | Start sector | End sector
––––––––––––––––––––––––––––-
1 | 0:00.00 | 3:32.34 | 0 | 15933
2 | 3:32.34 | 2:04.54 | 15934 | 25287
3 | 5:37.13 | 2:37.16 | 25288 | 37078
4 | 8:14.29 | 2:36.16 | 37079 | 48794
5 | 10:50.45 | 1:11.33 | 48795 | 54152
6 | 12:02.03 | 3:47.13 | 54153 | 71190
7 | 15:49.16 | 6:50.52 | 71191 | 101992
8 | 22:39.68 | 7:30.05 | 101993 | 135747
9 | 30:09.73 | 6:24.68 | 135748 | 164615
10 | 36:34.66 | 7:11.29 | 164616 | 196969
11 | 43:46.20 | 6:59.62 | 196970 | 228456
12 | 50:46.07 | 5:05.11 | 228457 | 251342
13 | 55:51.18 | 7:00.37 | 251343 | 282879
14 | 62:51.55 | 10:37.24 | 282880 | 330678


Range status and errors

Selected range

Filename F:\Ripped general\[9596] Bartok - Orchestral works - Solti\cd7\Bartók - Orchestral works - Solti (Disc 7).wav

Peak level 98.8 %
Extraction speed 8.1 X
Range quality 100.0 %
Test CRC B47D927C
Copy CRC B47D927C
Copy OK

No errors occurred


AccurateRip summary

Track 1 not present in database
Track 2 not present in database
Track 3 not present in database
Track 4 not present in database
Track 5 not present in database
Track 6 not present in database
Track 7 not present in database
Track 8 not present in database
Track 9 not present in database
Track 10 not present in database
Track 11 not present in database
Track 12 not present in database
Track 13 not present in database
Track 14 not present in database

None of the tracks are present in the AccurateRip database

End of status report


Thanks to the original releaser
Download:

Filepost

CD 1 | CD 2 | CD 3 | CD 4 | CD 5 | CD 6 | CD 7
Scans

Uploaded

CD 1 | CD 2 | CD 3 | CD 4 | CD 5 | CD 6 | CD 7
Scans