Subcategories
Tags
Language
Tags

Son House - Martin Scorsese Presents The Blues: Son House [Recorded 1930-1965] (2003)

Posted By: gribovar
Son House - Martin Scorsese Presents The Blues: Son House [Recorded 1930-1965] (2003)

Son House - Martin Scorsese Presents The Blues: Son House [Recorded 1930-1965] (2003)
EAC Rip | FLAC (tracks+.cue+log) - 216 MB | MP3 CBR 320 kbps (LAME 3.93) - 140 MB | Covers - 28 MB
Genre: Acoustic Blues, Delta Blues | RAR 3% Rec. | Label: Columbia/Legacy (CK 90485)

This collection spotlights the great Delta bluesman Son House at three distinct points in his life. Included here are three of his 78s issued in the 1930s by Paramount Records, several of the Library of Congress field recordings done by Alan Lomax in 1941-1942, and a sampling of rediscovered 1960s concert pieces, including a riveting version of Blind Willie Johnson's "John the Revelator." All of this material is available elsewhere, but having examples of these different eras all on one disc makes this set a nice introduction to the full sweep of House's recorded legacy.
Tracklist:
01. My Black Mama, Pt. 1
02. Preachin' Blues, Pt. 1
03. Dry Spell Blues, Pt. 1
04. Levee Camp Blues
05. Walking Blues
06. Special Rider Blues
07. Pony Blues
08. Death Letter
09. Pearline
10. John the Revelator
11. Preachin' Blues
12. Empire State Express
13. Levee Camp Moan
14. Grinnin' In Your Face

Total time: 59:46

Exact Audio Copy V0.99 prebeta 5 from 4. May 2009

EAC extraction logfile from 31. May 2009, 11:39

Son House / Martin Scorsese Presents The Blues: Son House

Used drive : TDK DVDRW880N Adapter: 1 ID: 0

Read mode : Secure
Utilize accurate stream : Yes
Defeat audio cache : Yes
Make use of C2 pointers : No

Read offset correction : 48
Overread into Lead-In and Lead-Out : No
Fill up missing offset samples with silence : Yes
Delete leading and trailing silent blocks : No
Null samples used in CRC calculations : Yes
Used interface : Native Win32 interface for Win NT & 2000
Gap handling : Appended to previous track

Used output format : User Defined Encoder
Selected bitrate : 1024 kBit/s
Quality : High
Add ID3 tag : No
Command line compressor : C:\Program Files\FLAC\flac.exe
Additional command line options : -8 -V -T "ARTIST=%a" -T "TITLE=%t" -T "ALBUM=%g" -T "DATE=%y" -T "TRACKNUMBER=%n" -T "GENRE=%m" -T "COMMENT=EAC FLAC -8" %s


TOC of the extracted CD

Track | Start | Length | Start sector | End sector
––––––––––––––––––––––––––––-
1 | 0:00.00 | 3:07.42 | 0 | 14066
2 | 3:07.42 | 3:04.00 | 14067 | 27866
3 | 6:11.42 | 3:12.45 | 27867 | 42311
4 | 9:24.12 | 3:47.03 | 42312 | 59339
5 | 13:11.15 | 6:41.57 | 59340 | 89471
6 | 19:52.72 | 3:07.10 | 89472 | 103506
7 | 23:00.07 | 4:15.20 | 103507 | 122651
8 | 27:15.27 | 4:21.08 | 122652 | 142234
9 | 31:36.35 | 4:33.62 | 142235 | 162771
10 | 36:10.22 | 2:31.65 | 162772 | 174161
11 | 38:42.12 | 5:45.25 | 174162 | 200061
12 | 44:27.37 | 3:41.15 | 200062 | 216651
13 | 48:08.52 | 9:30.43 | 216652 | 259444
14 | 57:39.20 | 2:06.35 | 259445 | 268929


Track 1

Filename C:\EAC\Son House - Martin Scorcese Presents The Blues - Son House (2003) [FLAC]\01 - My Black Mama, Pt. 1.wav

Pre-gap length 0:00:02.00

Peak level 95.4 %
Track quality 100.0 %
Test CRC 5427E8CA
Copy CRC 5427E8CA
Accurately ripped (confidence 3) [023ECFD5]
Copy OK

Track 2

Filename C:\EAC\Son House - Martin Scorcese Presents The Blues - Son House (2003) [FLAC]\02 - Preachin' Blues, Pt. 1.wav

Pre-gap length 0:00:01.50

Peak level 94.4 %
Track quality 100.0 %
Test CRC BFF87AA1
Copy CRC BFF87AA1
Accurately ripped (confidence 3) [59C2FD2E]
Copy OK

Track 3

Filename C:\EAC\Son House - Martin Scorcese Presents The Blues - Son House (2003) [FLAC]\03 - Dry Spell Blues, Pt. 1.wav

Pre-gap length 0:00:01.50

Peak level 65.8 %
Track quality 99.9 %
Test CRC C374D202
Copy CRC C374D202
Accurately ripped (confidence 3) [B985C873]
Copy OK

Track 4

Filename C:\EAC\Son House - Martin Scorcese Presents The Blues - Son House (2003) [FLAC]\04 - Levee Camp Blues.wav

Pre-gap length 0:00:02.65

Peak level 93.7 %
Track quality 100.0 %
Test CRC C4A315DD
Copy CRC C4A315DD
Accurately ripped (confidence 3) [8C804ED5]
Copy OK

Track 5

Filename C:\EAC\Son House - Martin Scorcese Presents The Blues - Son House (2003) [FLAC]\05 - Walking Blues.wav

Pre-gap length 0:00:01.05

Peak level 82.1 %
Track quality 100.0 %
Test CRC A2B986D3
Copy CRC A2B986D3
Accurately ripped (confidence 3) [B1ABF47B]
Copy OK

Track 6

Filename C:\EAC\Son House - Martin Scorcese Presents The Blues - Son House (2003) [FLAC]\06 - Special Rider Blues.wav

Pre-gap length 0:00:01.32

Peak level 77.8 %
Track quality 100.0 %
Test CRC A8F1E1FC
Copy CRC A8F1E1FC
Accurately ripped (confidence 3) [5EF944FB]
Copy OK

Track 7

Filename C:\EAC\Son House - Martin Scorcese Presents The Blues - Son House (2003) [FLAC]\07 - Pony Blues.wav

Pre-gap length 0:00:01.32

Peak level 73.2 %
Track quality 100.0 %
Test CRC AEFCD695
Copy CRC AEFCD695
Accurately ripped (confidence 3) [F3F27247]
Copy OK

Track 8

Filename C:\EAC\Son House - Martin Scorcese Presents The Blues - Son House (2003) [FLAC]\08 - Death Letter.wav

Pre-gap length 0:00:02.42

Peak level 79.4 %
Track quality 100.0 %
Test CRC 05312C63
Copy CRC 05312C63
Accurately ripped (confidence 3) [CE7EDE73]
Copy OK

Track 9

Filename C:\EAC\Son House - Martin Scorcese Presents The Blues - Son House (2003) [FLAC]\09 - Pearline.wav

Pre-gap length 0:00:01.43

Peak level 79.4 %
Track quality 99.9 %
Test CRC 0414BC6B
Copy CRC 0414BC6B
Accurately ripped (confidence 3) [92764068]
Copy OK

Track 10

Filename C:\EAC\Son House - Martin Scorcese Presents The Blues - Son House (2003) [FLAC]\10 - John The Revelator.wav

Pre-gap length 0:00:01.40

Peak level 79.4 %
Track quality 100.0 %
Test CRC 750CEC56
Copy CRC 750CEC56
Accurately ripped (confidence 3) [E12F769D]
Copy OK

Track 11

Filename C:\EAC\Son House - Martin Scorcese Presents The Blues - Son House (2003) [FLAC]\11 - Preachin' Blues.wav

Pre-gap length 0:00:01.40

Peak level 79.4 %
Track quality 99.9 %
Test CRC 2071ABAE
Copy CRC 2071ABAE
Accurately ripped (confidence 3) [3A1C798B]
Copy OK

Track 12

Filename C:\EAC\Son House - Martin Scorcese Presents The Blues - Son House (2003) [FLAC]\12 - Empire State Express.wav

Pre-gap length 0:00:01.40

Peak level 79.4 %
Track quality 100.0 %
Test CRC 2ACFFBF0
Copy CRC 2ACFFBF0
Accurately ripped (confidence 3) [BA4D53DF]
Copy OK

Track 13

Filename C:\EAC\Son House - Martin Scorcese Presents The Blues - Son House (2003) [FLAC]\13 - Levee Camp Moan.wav

Pre-gap length 0:00:01.40

Peak level 79.4 %
Track quality 100.0 %
Test CRC 7C369449
Copy CRC 7C369449
Accurately ripped (confidence 3) [C0BFC198]
Copy OK

Track 14

Filename C:\EAC\Son House - Martin Scorcese Presents The Blues - Son House (2003) [FLAC]\14 - Grinnin' In Your Face.wav

Pre-gap length 0:00:02.43

Peak level 79.4 %
Track quality 100.0 %
Test CRC A5127DE0
Copy CRC A5127DE0
Accurately ripped (confidence 3) [B9A35B1E]
Copy OK


All tracks accurately ripped

No errors occurred

End of status report

[CUETools log; Date: 26.05.2021 12:40:37; Version: 2.1.4]
HDCD: peak extend: none, transient filter: none, gain: none
[CTDB TOCID: NELrt96bcDfA8rVPnXfbbGO_uBY-] found.
Track | CTDB Status
1 | (73/82) Accurately ripped
2 | (71/82) Accurately ripped
3 | (72/82) Accurately ripped
4 | (72/82) Accurately ripped
5 | (73/82) Accurately ripped
6 | (73/82) Accurately ripped
7 | (73/82) Accurately ripped
8 | (73/82) Accurately ripped
9 | (72/82) Accurately ripped
10 | (72/82) Accurately ripped
11 | (72/82) Accurately ripped
12 | (72/82) Accurately ripped
13 | (72/82) Accurately ripped
14 | (73/82) Accurately ripped
[AccurateRip ID: 001cbd53-013938c2-dc0e010e] found.
Track [ CRC | V2 ] Status
01 [023ecfd5|f367e5d2] (05+14/68) Accurately ripped
02 [59c2fd2e|2f3e90f6] (05+14/69) Accurately ripped
03 [b985c873|a26f7374] (05+14/68) Accurately ripped
04 [8c804ed5|de1ced49] (05+14/68) Accurately ripped
05 [b1abf47b|26932f6b] (05+14/66) Accurately ripped
06 [5ef944fb|b60b3c50] (05+14/68) Accurately ripped
07 [f3f27247|99734c3f] (05+14/68) Accurately ripped
08 [ce7ede73|48475546] (05+14/68) Accurately ripped
09 [92764068|e58f1b02] (05+14/67) Accurately ripped
10 [e12f769d|b8c06f9e] (05+14/68) Accurately ripped
11 [3a1c798b|9173e04f] (05+14/67) Accurately ripped
12 [ba4d53df|041d1b49] (05+14/68) Accurately ripped
13 [c0bfc198|997ea3b8] (05+14/67) Accurately ripped
14 [b9a35b1e|6f8c54af] (05+14/67) Accurately ripped
Offsetted by 3:
01 [4efb4473] (05/68) Accurately ripped
02 [32886eaa] (05/69) Accurately ripped
03 [a1fd680c] (04/68) Accurately ripped
04 [78049b0d] (04/68) Accurately ripped
05 [82fd8110] (04/66) Accurately ripped
06 [82e8a69b] (04/68) Accurately ripped
07 [95bb80dc] (04/68) Accurately ripped
08 [7a720b40] (05/68) Accurately ripped
09 [3e8a6c03] (04/67) Accurately ripped
10 [186bad85] (05/68) Accurately ripped
11 [c65766e2] (05/67) Accurately ripped
12 [6a15163b] (05/68) Accurately ripped
13 [ef453012] (05/67) Accurately ripped
14 [480f74fc] (05/67) Accurately ripped
Offsetted by 685:
01 [1e557e17] (03/68) Accurately ripped
02 [07333572] (03/69) Accurately ripped
03 [118d21ea] (03/68) Accurately ripped
04 [47804a1d] (03/68) Accurately ripped
05 [641302b6] (03/66) Accurately ripped
06 [6c26ad5b] (03/68) Accurately ripped
07 [40f11e82] (03/68) Accurately ripped
08 [2c63d3f6] (03/68) Accurately ripped
09 [0dc924fd] (03/67) Accurately ripped
10 [7a8f1a35] (03/68) Accurately ripped
11 [4d562a24] (03/67) Accurately ripped
12 [82ce5943] (03/68) Accurately ripped
13 [3f17f5be] (03/67) Accurately ripped
14 [7d38696a] (03/67) Accurately ripped
Offsetted by 1284:
01 [4d51c7fd] (12/68) Accurately ripped
02 [c3dcb87e] (12/69) Accurately ripped
03 [61849c3f] (12/68) Accurately ripped
04 [4dafbc75] (12/68) Accurately ripped
05 [a602fd97] (12/66) Accurately ripped
06 [73307c7b] (12/68) Accurately ripped
07 [7016d363] (12/68) Accurately ripped
08 [490dc52f] (12/68) Accurately ripped
09 [442f278c] (12/67) Accurately ripped
10 [39db427d] (12/68) Accurately ripped
11 [aca146ff] (12/67) Accurately ripped
12 [9c4645af] (12/68) Accurately ripped
13 [87d47590] (12/67) Accurately ripped
14 [8d13e44c] (12/67) Accurately ripped

Track Peak [ CRC32 ] [W/O NULL] [ LOG ]
– 95,4 [98DCD1D2] [1D575D7D]
01 95,4 [5427E8CA] [2A446D34] CRC32
02 94,4 [BFF87AA1] [E09FED8D] CRC32
03 65,8 [C374D202] [FEBE0CFA] CRC32
04 93,7 [C4A315DD] [C507C912] CRC32
05 82,1 [A2B986D3] [ADEDDACA] CRC32
06 77,8 [A8F1E1FC] [15961E51] CRC32
07 73,2 [AEFCD695] [BBD6D91A] CRC32
08 79,4 [05312C63] [B8645A54] CRC32
09 79,4 [0414BC6B] [69772A3A] CRC32
10 79,4 [750CEC56] [E636DBC3] CRC32
11 79,4 [2071ABAE] [9DBDC592] CRC32
12 79,4 [2ACFFBF0] [CDC6D425] CRC32
13 79,4 [7C369449] [64C23AC1] CRC32
14 79,4 [A5127DE0] [FA68ABB6] CRC32

Thanks to the original releaser

See also:
Son House - Father of the Delt... Complete 1965 Sessions (1992)
Son House - Raw Delta Blues (2011)