Tags
Language
Tags

Sonny Boy Williamson, Willie Love - Clownin' With The World [Recorded 1951-1954] (1993)

Posted By: gribovar
Sonny Boy Williamson, Willie Love - Clownin' With The World [Recorded 1951-1954] (1993)

Sonny Boy Williamson, Willie Love - Clownin' With The World [Recorded 1951-1954] (1993)
EAC Rip | FLAC (image+.cue+log) - 198 MB | MP3 CBR 320 kbps (LAME 3.93) - 104 MB | Covers - 57 MB
Genre: Blues | RAR 3% Rec. | Label: Alligator Records (ALCD 2700)

These sixteen tracks are split equally between Sonny Boy Williamson II and pianist Willie Love, who befriended each other in the early 40s, and recorded a number of sides for Trumpet records. All eight Sonny Boy-numbers are previously unreleased, and the fidelity is very good, better than on Trumpet's other Sonny Boy Williamson-releases. Rice Miller (Sonny Boy) is backed by various electric combos. Three cuts feature Willie Love on piano, and Miller's harp blowing is augumented by the presence of a saxophone player on five tracks. Here are early vesions of "Keep It To Yourself" and "I'm Not Beggin' Nobody", as well as a great "Shuckin' Mama" and the piano-driven boogie of the title track. And it's no surprise that Miller's playing and singing is every bit as impressive as on his later Chess releases. He was in his fifties when these sides were recorded, fully developed as an artist, and had of course been a playing partner of Robert Johnson more than fifteen years before.
The underexposed and sadly underrecorded Willie Love was an energetic boogie piano player who died at 46 in the summer of 1953, just a few months after recording the latest of the eight tracks that are included here. Little Milton Campbell, Joe Willie Wilkins and saxist Otis Green are among the musicians backing him, and he lays down excellent, swinging renditions of "Little Car Blues", "Take It Easy Baby", "Lonesome World Blues" and five other songs, all of them more than worth a listen.
Tracklist:

Sonny Boy Williamson:
01. She's Crazy
02. 309
03. Sonny's Rhythm
04. City Of New Orleans
05. Keep It To Yourself
06. Shuckin' Mama
07. I'm Not Beggin' Nobody
08. Clownin' With The World

Willie Love:
09. Take It Easy Baby
10. Little Car Blues
11. V-8 Ford
12. Nelson Street Blues
13. Falling Rain
14. Feed My Body To The Fishes
15. Worried Blues
16. Lonesome World Blues

Total time: 44:05

Exact Audio Copy V0.99 prebeta 4 from 23. January 2008

EAC extraction logfile from 24. October 2009, 20:55

Sonny Boy Wliiamson / Clownin' With The World (w. Willie Love)

Used drive : PLEXTOR CD-R PX-230A Adapter: 1 ID: 1

Read mode : Secure
Utilize accurate stream : Yes
Defeat audio cache : Yes
Make use of C2 pointers : No

Read offset correction : 738
Overread into Lead-In and Lead-Out : No
Fill up missing offset samples with silence : Yes
Delete leading and trailing silent blocks : No
Null samples used in CRC calculations : Yes
Used interface : Installed external ASPI interface

Used output format : User Defined Encoder
Selected bitrate : 1024 kBit/s
Quality : High
Add ID3 tag : No
Command line compressor : C:\Program Files\Exact Audio Copy\FLAC\FLAC.EXE
Additional command line options : -6 -V -T "ARTIST=%a" -T "TITLE=%t" -T "ALBUM=%g" -T "DATE=%y" -T "TRACKNUMBER=%n" -T "GENRE=%m" -T "COMMENT=%e" %s -o %d


TOC of the extracted CD

Track | Start | Length | Start sector | End sector
––––––––––––––––––––––––––––-
1 | 0:00.00 | 2:48.25 | 0 | 12624
2 | 2:48.25 | 2:46.02 | 12625 | 25076
3 | 5:34.27 | 2:22.48 | 25077 | 35774
4 | 7:57.00 | 2:32.22 | 35775 | 47196
5 | 10:29.22 | 2:37.40 | 47197 | 59011
6 | 13:06.62 | 2:23.65 | 59012 | 69801
7 | 15:30.52 | 2:47.65 | 69802 | 82391
8 | 18:18.42 | 2:45.00 | 82392 | 94766
9 | 21:03.42 | 3:01.38 | 94767 | 108379
10 | 24:05.05 | 3:03.35 | 108380 | 122139
11 | 27:08.40 | 2:52.40 | 122140 | 135079
12 | 30:01.05 | 2:54.37 | 135080 | 148166
13 | 32:55.42 | 3:08.03 | 148167 | 162269
14 | 36:03.45 | 2:37.60 | 162270 | 174104
15 | 38:41.30 | 2:56.17 | 174105 | 187321
16 | 41:37.47 | 2:27.58 | 187322 | 198404


Range status and errors

Selected range

Filename J:\Rips\Sonny Boy Wliiamson - Clownin' With The World (w. Willie Love).wav

Peak level 100.0 %
Range quality 100.0 %
Test CRC DFF7B393
Copy CRC DFF7B393
Copy OK

No errors occurred


AccurateRip summary

Track 1 not present in database
Track 2 not present in database
Track 3 not present in database
Track 4 not present in database
Track 5 not present in database
Track 6 not present in database
Track 7 not present in database
Track 8 not present in database
Track 9 not present in database
Track 10 not present in database
Track 11 not present in database
Track 12 not present in database
Track 13 not present in database
Track 14 not present in database
Track 15 not present in database
Track 16 not present in database

None of the tracks are present in the AccurateRip database

End of status report

[CUETools log; Date: 25.10.2019 16:30:01; Version: 2.1.4]
[CTDB TOCID: lkx4NsVDYI0Pm4gacPQPD1hTJ24-] found.
Track | CTDB Status
1 | (14/14) Accurately ripped
2 | (14/14) Accurately ripped
3 | (14/14) Accurately ripped
4 | (14/14) Accurately ripped
5 | (14/14) Accurately ripped
6 | (14/14) Accurately ripped
7 | (14/14) Accurately ripped
8 | (14/14) Accurately ripped
9 | (14/14) Accurately ripped
10 | (14/14) Accurately ripped
11 | (14/14) Accurately ripped
12 | (14/14) Accurately ripped
13 | (14/14) Accurately ripped
14 | (14/14) Accurately ripped
15 | (14/14) Accurately ripped
16 | (14/14) Accurately ripped
[AccurateRip ID: 00195e34-01321fcb-d70a5510] found.
Track [ CRC | V2 ] Status
01 [1ee2d3ab|79bfe1cc] (3+6/9) Accurately ripped
02 [09a3ea6c|6cb5fd1c] (3+5/8) Accurately ripped
03 [4b5ed82f|4169b303] (3+5/8) Accurately ripped
04 [25ebcec5|50c19c6a] (3+5/8) Accurately ripped
05 [e3aba563|9b122568] (3+5/8) Accurately ripped
06 [51bd5b55|fc497bec] (3+5/8) Accurately ripped
07 [b6fc99ab|8a566b1a] (3+5/8) Accurately ripped
08 [1a75508c|f10da406] (3+5/8) Accurately ripped
09 [36fb60a8|2b73c181] (3+5/8) Accurately ripped
10 [95b373ce|45e923ee] (3+5/8) Accurately ripped
11 [3528ac4f|1be03e3d] (3+5/8) Accurately ripped
12 [abcf6f82|046fa2e0] (3+5/8) Accurately ripped
13 [e43b550c|1ac9b9f0] (3+5/8) Accurately ripped
14 [fbe112cb|2f70ccf1] (3+5/8) Accurately ripped
15 [2b28afd1|144522a3] (3+5/8) Accurately ripped
16 [0cef8871|bc897871] (3+5/8) Accurately ripped

Track Peak [ CRC32 ] [W/O NULL] [ LOG ]
– 100,0 [DFF7B393] [21CA697B] CRC32
01 55,9 [6D65465B] [29120DE8]
02 63,9 [23E0C21C] [7C939835]
03 79,0 [37A98EBC] [AF177FA9]
04 49,8 [CC422252] [7DCD64A2]
05 59,2 [B49D40C1] [1C6D9E64]
06 88,8 [E4623273] [B6671F7A]
07 84,6 [14F7AE54] [5CF69316]
08 100,0 [7917E728] [D027380C]
09 75,7 [0201CE58] [A740C4C6]
10 78,8 [9A7A279A] [6D8CE99C]
11 92,3 [B5B8EE3C] [D5E4D3AC]
12 79,3 [A1B5C3F1] [F5CAC4C4]
13 71,3 [E64D80FC] [868D50C7]
14 73,9 [E5A19D8F] [844B02CF]
15 85,1 [81D10563] [D1C6544C]
16 79,9 [0900B428] [28E48BE6]

Thanks to рмх222