Subcategories

Sonny Rollins - Ballads [Recorded 1956-1957] (2002)

Posted By: gribovar
Sonny Rollins - Ballads [Recorded 1956-1957] (2002)

Sonny Rollins - Ballads [Recorded 1956-1957] (2002)
EAC Rip | APE (image+.cue+log) - 208 MB | MP3 CBR 320 kbps (LAME 3.93) - 99 MB | Covers - 41 MB
Genre: Jazz | RAR 3% Rec. | Label: Blue Note Records (7243 5 37562 2 2)

Blue Note has done an admirable job of collecting the mellow material of a number of classic players for its Ballads series. Sonny Rollins' entry, like the others, finds the tenor in a late-night mood. The disc begins and ends with intimate trios offering fine renditions of "I Can't Get Started" and "Softly As in a Morning Sunrise," both featuring bassist Wilbur Ware and drummer Elvin Jones. The openness of these two live recordings allows Rollins plenty of room to search and discover the right notes. There's a seven-minute version of Thelonious Monk's "Reflections" with Monk himself sitting in, and an adventurous take on "Decision" with trumpeter Donald Byrd, pianist Wynton Kelly, and drummer Max Roach. Certain choices, like "How Are Things in Glocca Morra?" from Finian's Rainbow, also show Rollins' willingness to search outside of the jazz world for good material. It's difficult not to notice, when reading over the credits, other notable names on this disc. J.J. Johnson, Art Blakey, Horace Silver, and Paul Chambers help out on "Poor Butterfly," while Philly Joe Jones and Doug Watkins join in on "Namely You." Ballads is a good collection of Rollins' mid-'50s work and provides a good place to compare his technique in a number of different settings.
Tracklist:
01. I Can't Get Started
02. Poor Butterfly
03. Reflections
04. Namely You
05. How Are Things In Glocca Morra?
06. Decision
07. Softly As In A Morning Sunrise (Alt.)

Total time: 42:14

Exact Audio Copy V0.99 prebeta 4 from 23. January 2008

Отчёт EAC об извлечении, выполненном 27. декабря 2009, 16:30

Sonny Rollins / Ballads

Дисковод: Optiarc DVD RW AD-7200A Adapter: 0 ID: 0

Режим чтения : Достоверность
Использование точного потока : Да
Отключение кэша аудио : Да
Использование указателей C2 : Нет

Коррекция смещения при чтении : 48
Способность читать области Lead-in и Lead-out : Нет
Заполнение пропущенных сэмплов тишиной : Да
Удаление блоков с тишиной в начале и конце : Нет
При вычислениях CRC использовались нулевые сэмплы : Да
Интерфейс : Встроенный Win32-интерфейс для Win NT/2000

Выходной формат : Внутренние WAV-операции
Формат сэмплов : 44.100 Гц; 16 бит; стерео


TOC извлечённого CD

Трек | Старт | Длительность | Начальный сектор | Конечный сектор
––––––––––––––––––––––––––––––––––-
1 | 0:00.00 | 4:35.12 | 0 | 20636
2 | 4:35.12 | 6:07.13 | 20637 | 48174
3 | 10:42.25 | 7:02.67 | 48175 | 79891
4 | 17:45.17 | 3:22.40 | 79892 | 95081
5 | 21:07.57 | 6:19.70 | 95082 | 123576
6 | 27:27.52 | 8:02.30 | 123577 | 159756
7 | 35:30.07 | 6:43.50 | 159757 | 190031


Характеристики диапазона извлечения и сообщения об ошибках

Выбранный диапазон

Имя файла E:\ForTorrents\Temp\Sonny Rollins - Ballads.wav

Пиковый уровень 98.8 %
Качество диапазона 100.0 %
CRC теста 0811DB44
CRC копии 0811DB44
Копирование… OK

Ошибок не произошло


AccurateRip: сводка

Трек 1 точное извлечение (доверие 2) [D022E222]
Трек 2 точное извлечение (доверие 2) [379FBCF4]
Трек 3 точное извлечение (доверие 2) [CA38942C]
Трек 4 точное извлечение (доверие 2) [AF4597E1]
Трек 5 точное извлечение (доверие 2) [DF451E14]
Трек 6 точное извлечение (доверие 2) [A50E27F1]
Трек 7 точное извлечение (доверие 2) [4264E76B]

Все треки извлечены точно

Конец отчёта

[CUETools log; Date: 21.10.2018 1:35:14; Version: 2.1.4]
[CTDB TOCID: aoHxT.AXvLhAxbGGL6Mi2MQwkoA-] found.
Track | CTDB Status
1 | (19/19) Accurately ripped
2 | (19/19) Accurately ripped
3 | (19/19) Accurately ripped
4 | (19/19) Accurately ripped
5 | (19/19) Accurately ripped
6 | (19/19) Accurately ripped
7 | (19/19) Accurately ripped
[AccurateRip ID: 000af160-00428a5b-5c09e507] found.
Track [ CRC | V2 ] Status
01 [d022e222|03dec2a3] (05+07/20) Accurately ripped
02 [379fbcf4|d5f61732] (05+07/20) Accurately ripped
03 [ca38942c|0cf1884f] (05+07/20) Accurately ripped
04 [af4597e1|1a113d98] (05+07/20) Accurately ripped
05 [df451e14|e3d48ddd] (05+07/20) Accurately ripped
06 [a50e27f1|b9b37fb1] (05+07/20) Accurately ripped
07 [4264e76b|2ab812dc] (05+07/20) Accurately ripped
Offsetted by 1301:
01 [c3ea25bb] (06/20) Accurately ripped
02 [4bc50634] (06/20) Accurately ripped
03 [3daefa1a] (06/20) Accurately ripped
04 [b2fe0035] (06/20) Accurately ripped
05 [2e7dbbde] (06/20) Accurately ripped
06 [076d4728] (06/20) Accurately ripped
07 [cca7f7d8] (06/20) Accurately ripped

Track Peak [ CRC32 ] [W/O NULL] [ LOG ]
– 98,8 [0811DB44] [7A8CA78A] CRC32
01 98,8 [70A964AD] [39077B42]
02 86,3 [F86BA33B] [4F9EC360]
03 86,3 [4F2BD196] [FAF0C07C]
04 98,8 [25EE4882] [79658020]
05 98,8 [B9BA4618] [A1C247DA]
06 98,8 [BCA67CD8] [E4D5C86C]
07 98,8 [C85129F0] [92395F9A]

Thanks to Serdgoz

See also:
Sonny Rollins - Moving Out (1956) [Reissue 1987]
Sonny Rollins - Sonny Rollins and The Contemporary Leaders (1958)
Sonny Rollins - Sonny Boy (1961) [Reissue 2006]
Sonny Rollins - Easy Living (1977) [Reissue 2006]
Sonny Rollins - Modern Jazz Archive [Recorded 1951-1954] (2004)
Sonny Rollins - Rollin' With Rollins [Recorded 1953-1956] (2012)