Subcategories

Sonny Rollins - Easy Living (1977) [Reissue 2006]

Posted By: gribovar
Sonny Rollins - Easy Living (1977) [Reissue 2006]

Sonny Rollins - Easy Living (1977) [Reissue 2006]
EAC Rip | FLAC (tracks+.cue+log) - 252 MB | MP3 CBR 320 kbps (LAME 3.93) - 101 MB | Covers (4 MB) included
Genre: Jazz, Fusion | RAR 3% Rec. | Label: Milestone Records (00025218689328)

One of Sonny Rollins' better recordings of the 1970s, this spirited Milestone set finds the veteran tenor saxman adopting a thicker and raunchier R&B-ish tone. Although sticking close to the melody, he really tears into Stevie Wonder's "Isn't She Lovely" and finds interesting new variations to play on "My One and Only Love" (on soprano) and "Easy Living." The fine backup group includes keyboardist George Duke and drummer Tony Williams.
Tracklist:
01. Isn't She Lovely
02. Down The Line
03. My One And Only Love
04. Arroz Con Pollo
05. Easy Living
06. Here What I'm Saying

Total time: 41:18

Exact Audio Copy V0.99 prebeta 4 from 23. January 2008

EAC extraction logfile from 11. January 2009, 22:22

Sonny Rollins / Easy Living

Used drive : PLEXTOR CD-R PREMIUM2 Adapter: 1 ID: 1

Read mode : Secure
Utilize accurate stream : Yes
Defeat audio cache : Yes
Make use of C2 pointers : No

Read offset correction : 30
Overread into Lead-In and Lead-Out : Yes
Fill up missing offset samples with silence : Yes
Delete leading and trailing silent blocks : No
Null samples used in CRC calculations : Yes
Used interface : Installed external ASPI interface
Gap handling : Appended to previous track

Used output format : User Defined Encoder
Selected bitrate : 32 kBit/s
Quality : High
Add ID3 tag : No
Command line compressor : C:\Programmi\FLAC\flac.exe
Additional command line options : -8 -V -T "ARTIST=%a" -T "TITLE=%t" -T "ALBUM=%g" -T "DATE=%y" -T "TRACKNUMBER=%n" -T "GENRE=%m" -T "COMMENT=EAC FLAC -8" %s


TOC of the extracted CD

Track | Start | Length | Start sector | End sector
––––––––––––––––––––––––––––-
1 | 0:00.00 | 6:41.15 | 0 | 30089
2 | 6:41.15 | 8:01.02 | 30090 | 66166
3 | 14:42.17 | 5:06.53 | 66167 | 89169
4 | 19:48.70 | 5:38.45 | 89170 | 114564
5 | 25:27.40 | 6:11.22 | 114565 | 142411
6 | 31:38.62 | 9:41.28 | 142412 | 186014


Track 1

Filename D:\My Rip\01 - Isn't She Lovely.wav

Pre-gap length 0:00:02.00

Peak level 92.8 %
Track quality 100.0 %
Test CRC 135BE2F1
Copy CRC 135BE2F1
Cannot be verified as accurate (confidence 2) [D9A73A8B], AccurateRip returned [9438035A]
Copy OK

Track 2

Filename D:\My Rip\02 - Down The Line.wav

Pre-gap length 0:00:00.84

Peak level 100.0 %
Track quality 100.0 %
Test CRC 6E77CEA1
Copy CRC 6E77CEA1
Cannot be verified as accurate (confidence 2) [A7CB8CFA], AccurateRip returned [C8D73F86]
Copy OK

Track 3

Filename D:\My Rip\03 - My One And Only Love.wav

Pre-gap length 0:00:01.29

Peak level 53.5 %
Track quality 100.0 %
Test CRC FDBCA204
Copy CRC FDBCA204
Cannot be verified as accurate (confidence 2) [6E37D87C], AccurateRip returned [4BD808B3]
Copy OK

Track 4

Filename D:\My Rip\04 - Arroz Con Pollo.wav

Pre-gap length 0:00:00.77

Peak level 76.8 %
Track quality 100.0 %
Test CRC 6C594D54
Copy CRC 6C594D54
Cannot be verified as accurate (confidence 2) [9015DD14], AccurateRip returned [0F3C4350]
Copy OK

Track 5

Filename D:\My Rip\05 - Easy Living.wav

Pre-gap length 0:00:00.53

Peak level 75.1 %
Track quality 100.0 %
Test CRC 980C9E30
Copy CRC 980C9E30
Cannot be verified as accurate (confidence 2) [A4699431], AccurateRip returned [BB0DA409]
Copy OK

Track 6

Filename D:\My Rip\06 - Here What I'm Saying.wav

Pre-gap length 0:00:01.62

Peak level 79.1 %
Track quality 100.0 %
Test CRC 78202F07
Copy CRC 78202F07
Cannot be verified as accurate (confidence 2) [A46AF1A9], AccurateRip returned [7E61096C]
Copy OK


No tracks could be verified as accurate
You may have a different pressing from the one(s) in the database

No errors occurred

End of status report

[CUETools log; Date: 11.01.2018 22:24:14; Version: 2.1.4]
[CTDB TOCID: bou1DR3J4akWuHgTz6i99IaH5Ws-] found.
Track | CTDB Status
1 | (15/15) Accurately ripped
2 | (15/15) Accurately ripped
3 | (15/15) Accurately ripped
4 | (15/15) Accurately ripped
5 | (15/15) Accurately ripped
6 | (14/15) Accurately ripped
[AccurateRip ID: 000996c3-0033097c-4309b006] found.
Track [ CRC | V2 ] Status
01 [d9a73a8b|ccc3dc57] (02+03/17) Accurately ripped
02 [a7cb8cfa|32b3f558] (02+03/18) Accurately ripped
03 [6e37d87c|660dd9b4] (02+03/18) Accurately ripped
04 [9015dd14|c71d6935] (02+03/18) Accurately ripped
05 [a4699431|bc97cb67] (02+03/18) Accurately ripped
06 [a46af1a9|66b5aabe] (02+02/17) Accurately ripped
Offsetted by 377:
01 [c56afe1f] (04/17) Accurately ripped
02 [c073f254] (04/18) Accurately ripped
03 [f23495bf] (04/18) Accurately ripped
04 [244e85ab] (04/18) Accurately ripped
05 [eb43f9d8] (04/18) Accurately ripped
06 [e0ea665b] (04/17) Accurately ripped
Offsetted by 664:
01 [9438035a] (03/17) Accurately ripped
02 [c8d73f86] (03/18) Accurately ripped
03 [4bd808b3] (03/18) Accurately ripped
04 [0f3c4350] (03/18) Accurately ripped
05 [bb0da409] (03/18) Accurately ripped
06 [7e61096c] (03/17) Accurately ripped
Offsetted by -282:
01 [aa76e7f9] (00/17) No match (V2 was not tested)
02 [fb073f37] (00/18) No match (V2 was not tested)
03 [6603e086] (00/18) No match (V2 was not tested)
04 [6c6ca5e9] (00/18) No match (V2 was not tested)
05 [fc4c72f5] (00/18) No match (V2 was not tested)
06 [7f51971d] (00/17) No match (V2 was not tested)

Track Peak [ CRC32 ] [W/O NULL] [ LOG ]
– 100,0 [F0240C6C] [BFEDD602]
01 92,8 [135BE2F1] [D54BE074] CRC32
02 100,0 [6E77CEA1] [358186E9] CRC32
03 53,5 [FDBCA204] [20B7DE3E] CRC32
04 76,8 [6C594D54] [FBF0A571] CRC32
05 75,1 [980C9E30] [62AE1DEE] CRC32
06 79,1 [78202F07] [A9AB4179] CRC32

Thanks to Sarchiapone