Subcategories

Sonny Rollins - Rollin' With Rollins [Recorded 1953-1956] (2012)

Posted By: gribovar
Sonny Rollins - Rollin' With Rollins [Recorded 1953-1956] (2012)

Sonny Rollins - Rollin' With Rollins [Recorded 1953-1956] (2012)
EAC Rip | FLAC (image+.cue+log) - 417 MB | MP3 CBR 320 kbps (LAME 3.93) - 178 MB | Covers (4 MB) included
Genre: Jazz | RAR 3% Rec. | Label: Universal Music (06007 5337997)

The Jazz Club series is an attractive addition to the Verve catalogue. With it's modern design and popular choice of repertoire, the Jazz Club is not only opened for Jazz fans, but for everyone that loves good music.
Sonny Rollins will go down in history as not only the single most enduring tenor saxophonist of the bebop and hard bop eras, but also as one of the greatest jazz saxophonists of all time. His fluid and harmonically innovative ideas, effortless manner, and easily identifiable and accessible sound have influenced generations of players. In addition, these skills have fueled the notion that mainstream jazz can be widely enjoyed, recognized, and proliferated. Rollins served early apprenticeships with Babs Gonzalez, J.J. Johnson, Bud Powell, Miles Davis, and Max Roach & Clifford Brown. His co-billing on a 1953 date with the Modern Jazz Quartet, and his recordings with Thelonious Monk, served to clue in the jazz establishment that a bright young star was in their midst who was not only a fine and remarkable soloist, but a supreme stylist. By the time 1956's classic Saxophone Colossus was issued, he was heralded as jazz's top tenorist. (The album was selected in 2017 for preservation in the National Recording Registry by the Library of Congress for being "culturally, historically, or artistically significant."). A year later when issuing the equally compelling Way Out West, and A Night at the Village Vanguard (two pioneering pianoless trio dates), he was regarded by critics in a class of his own – a reputation he never relinquished. At the same time, Rollins also established himself as a noted composer. Several of his tunes - "St. Thomas," "Oleo," "Doxy," "Pent-Up House," and "Airegin" - have become jazz standards. Rollins' two "retirements" - the first from the summer of 1959 through the end of 1961, when he practiced his horn on the Williamsburg Bridge, resulting in 1962's comeback album The Bridge - and the second from 1969-1971, when he went on a spiritual sojourn in Jamaica and India - only enhanced his abilities and reputation. In between, he issued three more influential albums: the soundtrack to the film Alfie, Sonny Rollins on Impulse!, and East Broadway Run Down. After returning the second time, the saxophonist had changed his style of play and, to a degree, his tone, which had become much more physical, soulful, and urgent, resulting in albums that reflected the influence of funk, pop, and R&B in his music as it met hard post-bop jazz - as evidenced by the live date Don't Stop the Carnival in 1978. As one of jazz's elder statesmen in the '90s and early 21st centuries, he held an unbreakable connection between the music's historical lineage and modernity. Rollins continued to set the creative bar high: He won Grammys for 2000's This Is What I Do and 2005's Without a Song: The 9/11 Concert, and a Lifetime Achievement Award. Rollins is such a cultural icon that he made an appearance on The Simpsons. He stopped performing in public in 2012 due to respiratory issues and was eventually forced to stop playing altogether.
Tracklist:
01. I Feel A Song Coming On
02. On A Slow Boat To China
03. Pent-Up House
04. Sonny Boy
05. I've Grown Accustomed To Your Face
06. I Know
07. Moritat (Mack The Knife)
08. When Your Lover Has Gone
09. In A Sentimental Mood
10. Mi Ideal
11. Blue 7
12. There's No Business Like Show Business

Total time: 01:14:21

Exact Audio Copy V1.0 beta 3 from 29. August 2011

Отчёт EAC об извлечении, выполненном 28. апреля 2013, 1:11

Sonny Rollins / Rollin' With Rollins

Дисковод: ASUS DRW-22B2ST Adapter: 2 ID: 1

Режим чтения : Достоверность
Использование точного потока : Да
Отключение кэша аудио : Да
Использование указателей C2 : Нет

Коррекция смещения при чтении : 6
Способность читать области Lead-in и Lead-out : Нет
Заполнение пропущенных сэмплов тишиной : Да
Удаление блоков с тишиной в начале и конце : Нет
При вычислениях CRC использовались нулевые сэмплы : Да
Интерфейс : Установленный внешний ASPI-интерфейс

Выходной формат : Внутренние WAV-операции
Формат сэмплов : 44.100 Гц; 16 бит; стерео


TOC извлечённого CD

Трек | Старт | Длительность | Начальный сектор | Конечный сектор
––––––––––––––––––––––––––––––––––-
1 | 0:00.00 | 5:14.17 | 0 | 23566
2 | 5:14.17 | 2:40.71 | 23567 | 35637
3 | 7:55.13 | 8:52.62 | 35638 | 75599
4 | 16:48.00 | 8:23.72 | 75600 | 113396
5 | 25:11.72 | 4:53.63 | 113397 | 135434
6 | 30:05.60 | 2:32.72 | 135435 | 146906
7 | 32:38.57 | 10:06.46 | 146907 | 192402
8 | 42:45.28 | 6:12.12 | 192403 | 220314
9 | 48:57.40 | 3:21.22 | 220315 | 235411
10 | 52:18.62 | 4:23.69 | 235412 | 255205
11 | 56:42.56 | 11:18.10 | 255206 | 306065
12 | 68:00.66 | 6:19.60 | 306066 | 334550


Характеристики диапазона извлечения и сообщения об ошибках

Выбранный диапазон

Имя файла E:\MP3Files\МУЗ РАБОЧИЙ\EAC\WAV\Sonny Rollins - Rollin' With Rollins.wav

Пиковый уровень 98.8 %
Скорость извлечения 6.8 X
Качество диапазона 100.0 %
CRC теста 0066226A
CRC копии 0066226A
Копирование… OK

Ошибок не произошло


AccurateRip: сводка

Трек 1 отсутствует в базе данных
Трек 2 отсутствует в базе данных
Трек 3 отсутствует в базе данных
Трек 4 отсутствует в базе данных
Трек 5 отсутствует в базе данных
Трек 6 отсутствует в базе данных
Трек 7 отсутствует в базе данных
Трек 8 отсутствует в базе данных
Трек 9 отсутствует в базе данных
Трек 10 отсутствует в базе данных
Трек 11 отсутствует в базе данных
Трек 12 отсутствует в базе данных

Ни одного трека нет в базе AccurateRip

Конец отчёта

==== Контрольная сумма отчёта 9628B834B69614A0875AC753EA8928DFA2957AC5B0CBB3B8DF806D4A85A77C05 ====

[CUETools log; Date: 30.09.2018 13:14:51; Version: 2.1.4]
[CTDB TOCID: l7xcM.AzxLdhNRDNN1v0NjCkp9o-] found.
Track | CTDB Status
1 | (5/5) Accurately ripped
2 | (5/5) Accurately ripped
3 | (5/5) Accurately ripped
4 | (5/5) Accurately ripped
5 | (5/5) Accurately ripped
6 | (5/5) Accurately ripped
7 | (5/5) Accurately ripped
8 | (5/5) Accurately ripped
9 | (5/5) Accurately ripped
10 | (5/5) Accurately ripped
11 | (5/5) Accurately ripped
12 | (5/5) Accurately ripped
[AccurateRip ID: 001fa781-012a9c81-96116c0c] found.
Track [ CRC | V2 ] Status
01 [a6e6ccfe|1146755b] (0+1/1) Accurately ripped
02 [c3a5b2f1|e9439c3b] (0+1/1) Accurately ripped
03 [e39c5798|f0166ca9] (0+1/1) Accurately ripped
04 [b25f6f80|c81a92b0] (0+1/1) Accurately ripped
05 [f5e2c181|7d025a11] (0+1/1) Accurately ripped
06 [371a7c42|b9412108] (0+1/1) Accurately ripped
07 [5ea6049c|664f69ea] (0+1/1) Accurately ripped
08 [74945e78|e214b621] (0+1/1) Accurately ripped
09 [f65d32f6|e958b008] (0+1/1) Accurately ripped
10 [8ade40b3|414b05a4] (0+1/1) Accurately ripped
11 [ec17afe4|37740d38] (0+1/1) Accurately ripped
12 [3f69cb4d|868baa1b] (0+1/1) Accurately ripped

Track Peak [ CRC32 ] [W/O NULL] [ LOG ]
– 98,8 [0066226A] [5987209F] CRC32
01 98,8 [996A9DBE] [9035DF30]
02 98,6 [CD77A5D5] [D7663DC0]
03 98,8 [0CBC1A36] [A7F44208]
04 98,8 [1FD9BFE1] [69298E03]
05 77,5 [0803843E] [D52476D3]
06 98,8 [0E9F94F6] [57C043F9]
07 95,2 [5ACD4BD1] [C79F2E40]
08 98,8 [50855213] [0E0705D7]
09 81,2 [6358E846] [5BA67A47]
10 98,8 [751D2180] [56153AE1]
11 98,8 [DD19C686] [653CC88D]
12 98,8 [877F9A0C] [D39AD0FB]

Thanks to the original releaser

See also:
Sonny Rollins - Moving Out (1956) [Reissue 1987]
Sonny Rollins - Sonny Rollins and The Contemporary Leaders (1958)
Sonny Rollins - Sonny Boy (1961) [Reissue 2006]
Sonny Rollins - Easy Living (1977) [Reissue 2006]
Sonny Rollins - Modern Jazz Archive [Recorded 1951-1954] (2004)