Subcategories

Sonny Rollins - The Sound Of Sonny (1957) [DCC 24 KT Gold CD, 1996]

Posted By: gribovar
Sonny Rollins - The Sound Of Sonny (1957) [DCC 24 KT Gold CD, 1996]

Sonny Rollins - The Sound Of Sonny (1957) [DCC 24 KT Gold CD, 1996]
EAC Rip | WavPack (image+.cue+log) - 183 MB | MP3 CBR 320 kbps (LAME 3.93) - 103 MB | Covers - 25 MB
Genre: Jazz | RAR 3% Rec. | Label: DCC Compact Classics (GZS-1092)

A new phase in Sonny Rollins' career began in 1957. He started what was at the time an almost blasphemous trend of recording for a number of different labels. His pioneering spirit yielded a few genre-defining albums, including this disc. His performances were also at a peak during 1957 as Down Beat magazine proclaimed him the Critics' Poll winner under the category of "New Star" of the tenor saxophone. This newfound freedom can be heard throughout the innovations on The Sound of Sonny. Not only are Rollins' fluid solos reaching newly obtained zeniths of melodic brilliance, but he has also begun experimenting with alterations in the personnel from tune to tune. Most evident on this platter is "The Last Time I Saw Paris" - which is piano-less - and most stunning of all is Rollins' unaccompanied tenor solo performance on "It Could Happen to You." Indeed, this rendering of the Jimmy Van Heusen standard is the highlight of the disc. That isn't to say that the interaction between Sonny Clark (piano), Roy Haynes (drums), and bassists Percy Heath and Paul Chambers - who is featured on "The Last Time I Saw Paris" and "What Is There to Say" - is not top-shelf. Arguably, it is Rollins and Heath - the latter, incidentally, makes his East Coast debut on this album - who set the ambience for The Sound of Sonny. There is an instinctually pervasive nature as they weave into and back out of each others' melody lines, only to emerge with a solo that liberates the structure of the mostly pop standards. This is a key component in understanding the multiplicities beginning to surface in Rollins' highly underappreciated smooth bop style.
Tracklist:
01. The Last Time I Saw Paris
02. Just in Time
03. Toot, Toot, Tootsie
04. What Is There to Say?
05. Dearly Beloved
06. Ev'ry Time We Say Goodbye
07. Cutie
08. It Could Happen to You
09. Mangos
10. Funky Hotel Blues (Bonus track)

Total time: 44:03

Exact Audio Copy V0.99 prebeta 4 from 23. January 2008

EAC extraction logfile from 7. March 2008, 1:35

Sonny Rollins / The Sound Of Sonny [DCC Gold Disc GZS-1092]

Used drive : PLEXTOR DVDR PX-755A Adapter: 3 ID: 0

Read mode : Secure
Utilize accurate stream : Yes
Defeat audio cache : Yes
Make use of C2 pointers : No

Read offset correction : 30
Overread into Lead-In and Lead-Out : Yes
Fill up missing offset samples with silence : Yes
Delete leading and trailing silent blocks : No
Null samples used in CRC calculations : Yes
Used interface : Installed external ASPI interface

Used output format : Internal WAV Routines
Sample format : 44.100 Hz; 16 Bit; Stereo


TOC of the extracted CD

Track | Start | Length | Start sector | End sector
––––––––––––––––––––––––––––-
1 | 0:00.32 | 2:57.45 | 32 | 13351
2 | 2:58.02 | 3:58.58 | 13352 | 31259
3 | 6:56.60 | 4:24.00 | 31260 | 51059
4 | 11:20.60 | 4:54.60 | 51060 | 73169
5 | 16:15.45 | 3:05.47 | 73170 | 87091
6 | 19:21.17 | 3:23.20 | 87092 | 102336
7 | 22:44.37 | 5:54.05 | 102337 | 128891
8 | 28:38.42 | 3:45.65 | 128892 | 145831
9 | 32:24.32 | 5:33.43 | 145832 | 170849
10 | 37:58.00 | 6:04.45 | 170850 | 198194


Range status and errors

Selected range

Filename C:\_NEW\Sonny Rollins - The Sound Of Sonny [DCC Gold Disc GZS-1092].wav

Peak level 98.2 %
Range quality 100.0 %
Test CRC A75443A3
Copy CRC A75443A3
Copy OK

No errors occurred


AccurateRip summary

Track 1 accurately ripped (confidence 2) [940550A2]
Track 2 accurately ripped (confidence 2) [543FC714]
Track 3 accurately ripped (confidence 2) [C8B10248]
Track 4 accurately ripped (confidence 2) [DBA65349]
Track 5 accurately ripped (confidence 2) [470F9F48]
Track 6 accurately ripped (confidence 2) [7018779A]
Track 7 accurately ripped (confidence 2) [F2CF5512]
Track 8 accurately ripped (confidence 2) [294C4175]
Track 9 accurately ripped (confidence 2) [E6341946]
Track 10 not present in database

9 track(s) accurately ripped
1 track(s) not present in the AccurateRip database

Some tracks could not be verified as accurate

End of status report

[CUETools log; Date: 13.03.2019 21:11:47; Version: 2.1.4]
Pregap length 00:00:32.
[CTDB TOCID: 3rBxCekmepUY9vbbxO.16uHh.dE-] found.
Track | CTDB Status
1 | (13/13) Accurately ripped
2 | (13/13) Accurately ripped
3 | (13/13) Accurately ripped
4 | (13/13) Accurately ripped
5 | (13/13) Accurately ripped
6 | (13/13) Accurately ripped
7 | (13/13) Accurately ripped
8 | (13/13) Accurately ripped
9 | (13/13) Accurately ripped
10 | (13/13) Accurately ripped
[AccurateRip ID: 000f4a58-007c89fa-840a520a] found.
Track [ CRC | V2 ] Status
01 [940550a2|6010f3a2] (08+16/24) Accurately ripped
02 [543fc714|1d19aa15] (08+16/24) Accurately ripped
03 [c8b10248|3860eeaa] (07+16/23) Accurately ripped
04 [dba65349|b30361f9] (07+16/23) Accurately ripped
05 [470f9f48|5789ef1e] (08+16/24) Accurately ripped
06 [7018779a|33096af0] (08+16/24) Accurately ripped
07 [f2cf5512|c45661f6] (08+16/24) Accurately ripped
08 [294c4175|fe124a7e] (08+16/24) Accurately ripped
09 [e6341946|d7f49942] (08+16/24) Accurately ripped
10 [3f15f598|b8031f40] (06+16/22) Accurately ripped

Track Peak [ CRC32 ] [W/O NULL] [ LOG ]
– 98,2 [A75443A3] [D04DE01C] CRC32
01 92,0 [C9631188] [1F8FBAA6]
02 97,8 [A5A83D12] [48CE703B]
03 98,2 [CD0FB4C9] [2C4F2519]
04 74,8 [DE464082] [8C453AC7]
05 80,0 [F03A3821] [F933C03E]
06 96,7 [0762B885] [7296F4A7]
07 82,7 [370DC1C5] [0E64B267]
08 62,7 [12CB8FE1] [EBB77A7C]
09 83,7 [E0C9F317] [3660BB26]
10 68,8 [7A8AB2B0] [538F446A]

Thanks to yury_usa

See also: