Subcategories

Space & Didier Marouani: Collection (1977 - 1987) [Vinyl Rip 16/44 & mp3-320]

Posted By: v3122
Space & Didier Marouani: Collection (1977 - 1987) [Vinyl Rip 16/44 & mp3-320]

Space & Didier Marouani: Collection (1977 - 1987)
8 x Vinyl Rip 16/44 | Flac(Image + Cue) > 2095 Mb
MP3 CBR 320Kbps > 793 Mb | Artwork > 857 Mb
Casablanca / Hansa / Disques Vogue
Pop, Electronic, Disco, Synth-pop

The French synth-pop band Space had international hits with their 1977 dance numbers "Carry on Turn Me On" and "Magic Fly," leading to a deal with Casablanca Records and gold records for the band's songwriter and leader Didier Marouani. The dance group was formed by keyboardist Marouani in 1977. The group's biggest international success came later that year with the previously mentioned singles, both appearing on charts in a number of countries. Space toured and recorded for the next few years and continued to make well-received records, although no singles duplicated the success of "Magic Fly." After several albums, a rift occurred in the band; 1980's Deeper Zone, recorded under the name of Space, was actually an album by band members Roland Romanelli and Jannick Top, who took over and kept the band name, but went relatively unnoticed (Romanelli, incidentally, went on to compose extensively for television movies). This was the last album by Space, but the project continued with Marouani, who had written Space's music (under the alias Ecama) anyway. And so Marouani continued to record and perform – as Didier Marouani & Space, then as Didier Marouani & Paris-France-Transit (PFT) – to much success. In the Summer of 1983, he toured the U.S.S.R., drawing huge crowds in cities including Kiev and Moscow. Four years later, Marouani recorded his opera for choirs and synthesizers, Space Opera. The recording session was an international effort, bringing together choirs from the U.S. (Harvard University Choir) and U.S.S.R. (Red Army Choir). Apparently, a copy of Space Opera was put in the MIR space station. In other space-related activities, Marouani performed in Cayenne (capitol of French Guiana) at the 1990 celebration of the 10th anniversary of the Ariane rocket launch. He returned to Russia for another successful tour the following year and again during the early '90s for a historic performance in Red Square that included an extensive laser light show. The late '90s brought a reissue of the Space albums and the Best Of by Virgin France.

by Joslyn Layne, allmusic
Space & Didier Marouani: Collection (1977 - 1987):

Space & Didier Marouani: Collection (1977 - 1987) [Vinyl Rip 16/44 & mp3-320]

Tracklist VNL01 - 1977- Magic Fly:
DE LP 1977 Hansa International • 66 687 5

A1. Magic Fly [04:24]
A2. Fasten Seat Belt [06:03]
A3. Velvet Rape [04:30]
A4. Flying Nightmare [03:33]
B1. Ballad For Space Lovers [02:21]
B2. Tango In Space [04:32]
B3. Carry On, Turn Me On [08:23]

foobar2000 1.2.9 / Dynamic Range Meter 1.1.1
log date: 2017-03-22 15:19:51

––––––––––––––––––––––––––––––––––––––––
Analyzed: SPACE / Magic Fly (1st Germany)
––––––––––––––––––––––––––––––––––––––––

DR Peak RMS Duration Track
––––––––––––––––––––––––––––––––––––––––
DR11 -2.67 dB -16.80 dB 4:24 01-Magic Fly
DR13 -2.92 dB -17.84 dB 6:04 02-Fasten Seat Belt
DR15 -3.13 dB -21.20 dB 4:30 03-Velvet Rape
DR12 -2.69 dB -17.03 dB 3:35 04-Flying Nightmare
DR12 -2.16 dB -17.40 dB 2:21 05-Ballad For Space Lovers
DR15 -2.92 dB -19.51 dB 4:33 06-Tango In Space
DR15 -1.71 dB -19.94 dB 8:25 07-Carry On, Turn Me On
––––––––––––––––––––––––––––––––––––––––

Number of tracks: 7
Official DR value: DR13

Samplerate: 44100 Hz
Channels: 2
Bits per sample: 16
Bitrate: 774 kbps
Codec: FLAC
================================================================================



Space & Didier Marouani: Collection (1977 - 1987) [Vinyl Rip 16/44 & mp3-320]

Tracklist VNL02 - 1978- Deliverance:
DE LP 1st Press Hansa International • 25 797 OT

A1. Prison [06:30]
A2. Let Me Know The Wonder [07:14]
A3. Running In The City [04:19]
B1. Air Force [04:32]
B2. Baby's Paradise [05:40]
B3. Deliverance [06:47]

foobar2000 1.2.9 / Dynamic Range Meter 1.1.1
log date: 2017-03-22 15:30:47

––––––––––––––––––––––––––––––––––––––––
Analyzed: SPACE / Deliverance (1st Germany)
––––––––––––––––––––––––––––––––––––––––

DR Peak RMS Duration Track
––––––––––––––––––––––––––––––––––––––––
DR14 -2.99 dB -18.57 dB 6:30 01-Prison
DR14 -2.66 dB -20.73 dB 7:14 02-Let Me Know The Wonder
DR13 -2.36 dB -17.33 dB 4:19 03-Running In The City
DR13 -3.91 dB -18.13 dB 4:33 04-Air Force
DR14 -3.26 dB -22.16 dB 5:40 05-Baby's Paradise
DR13 -2.80 dB -19.81 dB 6:48 06-Deliverance
––––––––––––––––––––––––––––––––––––––––

Number of tracks: 6
Official DR value: DR13

Samplerate: 44100 Hz
Channels: 2
Bits per sample: 16
Bitrate: 741 kbps
Codec: FLAC
================================================================================



Space & Didier Marouani: Collection (1977 - 1987) [Vinyl Rip 16/44 & mp3-320]

Tracklist VNL03 - 1978 - Just Blue (US promo):
US LP 1979 Casablanca Records • NBLP 7131 DJ

A1. Just Blue [04:33]
A2. Final Signal [04:25]
A3. Secret Dreams [04:32]
A4. Symphony [05:00]
B1. Save Your Love For Me [05:49]
B2. Blue Tears [05:41]
B3. My Love Is Music [06:16]

foobar2000 1.2.9 / Dynamic Range Meter 1.1.1
log date: 2017-03-22 15:30:58

––––––––––––––––––––––––––––––––––––––––
Analyzed: SPACE / Just Blue (US promo)
––––––––––––––––––––––––––––––––––––––––

DR Peak RMS Duration Track
––––––––––––––––––––––––––––––––––––––––
DR13 -0.74 dB -16.13 dB 4:33 01-Just Blue
DR12 -1.62 dB -15.95 dB 4:25 02-Final Signal
DR13 -1.33 dB -17.52 dB 4:32 03-Secret Dreams
DR13 -2.04 dB -17.78 dB 5:00 04-Symphony
DR12 -1.22 dB -15.56 dB 5:50 05-Save Your Love For Me
DR13 -0.50 dB -15.51 dB 5:41 06-Blue Tears
DR13 -1.20 dB -15.45 dB 6:16 07-My Love Is Music
––––––––––––––––––––––––––––––––––––––––

Number of tracks: 7
Official DR value: DR13

Samplerate: 44100 Hz
Channels: 2
Bits per sample: 16
Bitrate: 930 kbps
Codec: FLAC
================================================================================



Space & Didier Marouani: Collection (1977 - 1987) [Vinyl Rip 16/44 & mp3-320]

Tracklist VNL04 - 1980 - Deeper Zone :
FR LP 1st Press Disques Vogue • 508616

A1. Deeper Zone [07:14]
A2. Inner Voices [06:52]
A3. Space Media [03:30]
B1. Mixed Up [05:56]
B2. On The Air [05:24]
B3. Love Starring You And Me [05:39]

foobar2000 1.2.9 / Dynamic Range Meter 1.1.1
log date: 2017-03-22 15:31:12

––––––––––––––––––––––––––––––––––––––––
Analyzed: SPACE / Deeper Zone (1st France)
––––––––––––––––––––––––––––––––––––––––

DR Peak RMS Duration Track
––––––––––––––––––––––––––––––––––––––––
DR14 -1.23 dB -18.52 dB 7:14 01-Deeper Zone
DR13 -1.26 dB -16.83 dB 6:53 02-Inner Voices
DR12 -1.86 dB -19.18 dB 3:30 03-SPACE Media
DR15 -0.93 dB -17.55 dB 5:57 04-Mixed Up
DR13 -3.30 dB -18.27 dB 5:24 05-On The Air
DR12 -4.82 dB -19.08 dB 5:39 06-Love Starring You And Me
––––––––––––––––––––––––––––––––––––––––

Number of tracks: 6
Official DR value: DR13

Samplerate: 44100 Hz
Channels: 2
Bits per sample: 16
Bitrate: 822 kbps
Codec: FLAC
================================================================================



Space & Didier Marouani: Collection (1977 - 1987) [Vinyl Rip 16/44 & mp3-320]

Tracklist VNL05 - 1981- Le Meilleur De - The Best Of :
FR LP 1st Press Disques Vogue • 574023

A1. Magic Fly [03:32]
A2. Save Your Love For Me [03:35]
A3. Air Force [04:25]
A4. Inner Voices [03:30]
A5. Space Media [03:29]
B1. Tender Force [03:42]
B2. Robbots [03:36]
B3. My Love Is Music [03:40]
B4. Just Blue [03:54]
B5. On The Air [03:30]

foobar2000 1.2.9 / Dynamic Range Meter 1.1.1
log date: 2017-03-22 15:32:03

––––––––––––––––––––––––––––––––––––––––
Analyzed: SPACE / Le Meilleur De- The Best Of
––––––––––––––––––––––––––––––––––––––––

DR Peak RMS Duration Track
––––––––––––––––––––––––––––––––––––––––
DR13 -0.45 dB -16.52 dB 3:32 01-Magic Fly
DR12 -3.07 dB -19.05 dB 3:36 02-Save Your Love For Me
DR13 -0.80 dB -16.90 dB 4:25 03-Air Force
DR12 -1.51 dB -15.38 dB 3:31 04-Inner Voices
DR12 -0.58 dB -18.38 dB 3:29 05-SPACE Media
DR13 -0.91 dB -15.52 dB 3:42 06-Tender Force
DR12 -0.82 dB -15.82 dB 3:37 07-Robbots
DR13 -0.83 dB -15.94 dB 3:40 08-My Love Is Music
DR14 -0.79 dB -16.85 dB 3:54 09-Just Blue
DR13 -0.94 dB -16.55 dB 3:30 10-On The Air
––––––––––––––––––––––––––––––––––––––––

Number of tracks: 10
Official DR value: DR13

Samplerate: 44100 Hz
Channels: 2
Bits per sample: 16
Bitrate: 882 kbps
Codec: FLAC
================================================================================



Space & Didier Marouani: Collection (1977 - 1987) [Vinyl Rip 16/44 & mp3-320]

Tracklist VNL06 - 1982 - Paris-France-Transit:
FR LP 1st Press Disques Vogue • 540028

A1. Paris-France-Transit [05:17]
A2. A Crime in Your Town [04:43]
A3. Voices of Jupiter [04:23]
A4. Paintings [05:36]
B1. Souvenir from Rio [04:22]
B2. Ego [04:59]
B3. Child [04:50]
B4. Beyond Your Mind [06:13]

foobar2000 1.2.9 / Dynamic Range Meter 1.1.1
log date: 2017-03-22 15:32:45

––––––––––––––––––––––––––––––––––––––––
Analyzed: PARIS-FRANCE-TRANSIT / Paris-France-Transit
––––––––––––––––––––––––––––––––––––––––

DR Peak RMS Duration Track
––––––––––––––––––––––––––––––––––––––––
DR13 -0.78 dB -16.60 dB 5:17 01-Paris-France-Transit
DR13 -2.32 dB -17.13 dB 4:44 02-A Crime in Your Town
DR14 -0.53 dB -16.89 dB 4:24 03-Voices of Jupiter
DR12 -3.31 dB -19.26 dB 5:36 04-Paintings
DR13 -1.72 dB -17.11 dB 4:22 05-Souvenir from Rio
DR12 -1.77 dB -16.44 dB 5:00 06-Ego
DR13 -1.85 dB -17.88 dB 4:50 07-Child
DR12 -2.59 dB -18.77 dB 6:14 08-Beyond Your Mind
––––––––––––––––––––––––––––––––––––––––

Number of tracks: 8
Official DR value: DR13

Samplerate: 44100 Hz
Channels: 2
Bits per sample: 16
Bitrate: 850 kbps
Codec: FLAC
================================================================================



Space & Didier Marouani: Collection (1977 - 1987) [Vinyl Rip 16/44 & mp3-320]

Tracklist VNL07 - 1983 - Didier Marouani & PFT- Concerts En URSS:
FR 2 x LP 1st Press Disques Vogue • 406507

A1. Music From The Stars (Ouverture) [03:58]
A2. Paris France [05:37]
A3. Running In The City [04:28]
A4. Child [05:49]
B1. Magic Fly [04:09]
B2. Souvenir From Rio [03:38]
B3. Ballad For Space Lover [02:30]
B4. Prison [05:57]
B5. Paintings [06:10]
C1. Symphony [05:57]
C2. A Crime In Your Town [05:42]
C3. Let Me Know The Wonder [06:07]
C4. Just Blue [04:19]
D1. Voices Of Jupiter [03:59]
D2. Beyond Your Mind [06:10]
D3. Delivrance [06:29]
D4. The Very Last Song [04:01]

foobar2000 1.2.9 / Dynamic Range Meter 1.1.1
log date: 2017-03-22 15:33:41

––––––––––––––––––––––––––––––––––––––––
Analyzed: DIDIER MAROUANI & PFT / Concerts En URSS
––––––––––––––––––––––––––––––––––––––––

DR Peak RMS Duration Track
––––––––––––––––––––––––––––––––––––––––
DR12 -0.96 dB -16.73 dB 3:58 01-Music From The Stars (Ouverture)
DR12 -1.66 dB -16.16 dB 5:38 02-Paris France
DR12 -2.00 dB -15.56 dB 4:29 03-Running In The City
DR12 -2.11 dB -16.81 dB 5:50 04-Child
DR12 -3.05 dB -16.69 dB 4:10 05-Magic Fly
DR13 -1.80 dB -15.97 dB 3:39 06-Souvenir From Rio
DR11 -3.56 dB -16.42 dB 2:30 07-Ballad For Space Lover
DR12 -2.63 dB -17.94 dB 5:57 08-Prison
DR13 -4.03 dB -20.08 dB 6:10 09-Paintings
DR11 -1.59 dB -15.79 dB 5:57 10-Symphony
DR12 -1.69 dB -15.25 dB 5:43 11-A Crime In Your Town
DR12 -3.39 dB -19.63 dB 6:07 12-Let Me Know The Wonder
DR12 -2.94 dB -17.15 dB 4:20 13-Just Blue
DR12 -1.07 dB -15.21 dB 3:59 14-Voices Of Jupiter
DR13 -2.30 dB -18.31 dB 6:10 15-Beyond Your Mind
DR12 -2.16 dB -18.20 dB 6:29 16-Delivrance
DR12 -1.12 dB -16.00 dB 4:02 17-The Very Last Song
––––––––––––––––––––––––––––––––––––––––

Number of tracks: 17
Official DR value: DR12

Samplerate: 44100 Hz
Channels: 2
Bits per sample: 16
Bitrate: 865 kbps
Codec: FLAC
================================================================================



Space & Didier Marouani: Collection (1977 - 1987) [Vinyl Rip 16/44 & mp3-320]

Tracklist VNL08 - 1987 - Didier Marouani- Space Opera:
FR LP 1st Press Disques Trema • 310.248

A1. Part 1 [04:41]
A2. Part 2 [02:54]
A3. Part 3 [03:51]
A4. Part 4 (Save Our Soul) [04:42]
B1. Part 5 [03:38]
B2. Part 6 [04:30]
B3. Part 7 [04:08]
B4. Part 8 [05:13]

foobar2000 1.2.9 / Dynamic Range Meter 1.1.1
log date: 2017-03-22 15:34:18

––––––––––––––––––––––––––––––––––––––––
Analyzed: DIDIER MAROUANI / Space Opera
––––––––––––––––––––––––––––––––––––––––

DR Peak RMS Duration Track
––––––––––––––––––––––––––––––––––––––––
DR12 -0.88 dB -16.20 dB 4:41 01-Part 1
DR12 -0.42 dB -16.80 dB 2:55 02-Part 2
DR8 -3.53 dB -15.36 dB 3:51 03-Part 3
DR10 -1.68 dB -15.54 dB 4:43 04-Part 4 (Save Our Soul)
DR13 -3.10 dB -17.89 dB 3:39 05-Part 5
DR12 -3.19 dB -16.90 dB 4:30 06-Part 6
DR12 -4.24 dB -19.29 dB 4:08 07-Part 7
DR13 -3.67 dB -18.71 dB 5:14 08-Part 8
––––––––––––––––––––––––––––––––––––––––

Number of tracks: 8
Official DR value: DR11

Samplerate: 44100 Hz
Channels: 2
Bits per sample: 16
Bitrate: 876 kbps
Codec: FLAC
================================================================================



All thanks go to tbazar, nikon200 & Dymokust