Space Debris - Back to Universe (Archive Volume 4) (2017)

Posted By: gribovar
Space Debris - Back to Universe (Archive Volume 4) (2017)

Space Debris - Back to Universe (Archive Volume 4) (2017)
EAC Rip | FLAC (tracks+.cue+log) - 427 MB | MP3 CBR 320 kbps (LAME 3.93) - 156 MB | Covers - 32 MB
Genre: Progressive/Psychedelic/Space Rock | RAR 3% Rec. | Label: Green-Brain (SDBG0217CD)

The Drummer discovered 4 further studio longtracks from the original formation of 2004 which have not been released yet! Psychedelic hardrock Hammond tracks, which celebrate the late 60's and were recorded during the time when the album 'Kraut Lok' was recorded. The title track lives through Tom Kunkel's dominating heavy original 70's Hammond organ. Included is the track 'Second sight part II, whose first part was already released on the album 'Kraut-Lok'. The 8 minute track 'Schwachbach' is a homage to JS Bach. Furthermore the CD contains 2 further archive tracks with the new formation which shows Winnie-Rimbach Sator on Keyboards. And a monster version of 'Mountain' with a very experimental psychedelic middle part. This is the only track that was recorded live. Conclusion: 'Back To Universe - Archive Vol. 4' delivers uncompromising Krautrock with early Floyd and Purple memories far away from mainstream.

Tracklist:
01. Back to Universe
02. Second Sight Part II
03. Discordant Pompeij Mainstreamkiller
04. Kaleido Scoop
05. Psychomonstermountain
06. Schwachbach

Total time: 01:06:21

Exact Audio Copy V1.0 beta 3 from 29. August 2011

EAC extraction logfile from 18. October 2017, 23:20

Space Debris / Back to Universe - Archive vol.4

Used drive : _NEC DVD_RW ND-3540A Adapter: 1 ID: 0

Read mode : Secure
Utilize accurate stream : Yes
Defeat audio cache : Yes
Make use of C2 pointers : No

Read offset correction : 48
Overread into Lead-In and Lead-Out : No
Fill up missing offset samples with silence : Yes
Delete leading and trailing silent blocks : No
Null samples used in CRC calculations : Yes
Used interface : Native Win32 interface for Win NT & 2000
Gap handling : Appended to previous track

Used output format : User Defined Encoder
Selected bitrate : 1024 kBit/s
Quality : High
Add ID3 tag : Yes
Command line compressor : C:\Program Files (x86)\Exact Audio Copy\FLAC\FLAC.EXE
Additional command line options : -6 -V -T "ARTIST=%artist%" -T "TITLE=%title%" -T "ALBUM=%albumtitle%" -T "DATE=%year%" -T "TRACKNUMBER=%tracknr%" -T "GENRE=%genre%" -T "COMMENT=%comment%" %hascover%–picture="%coverfile%"%hascover% %source% -o %dest%


TOC of the extracted CD

Track | Start | Length | Start sector | End sector
––––––––––––––––––––––––––––-
1 | 0:00.00 | 19:42.00 | 0 | 88649
2 | 19:42.00 | 6:21.14 | 88650 | 117238
3 | 26:03.14 | 6:33.23 | 117239 | 146736
4 | 32:36.37 | 9:18.54 | 146737 | 188640
5 | 41:55.16 | 16:07.35 | 188641 | 261200
6 | 58:02.51 | 8:18.40 | 261201 | 298590


Track 1

Filename F:\Music\olaf_alien\Space Debris - Back to Universe - Archive vol.4 (2017, Green-Brain)\01 - Back to Universe.wav

Pre-gap length 0:00:02.00

Peak level 81.8 %
Extraction speed 5.6 X
Track quality 100.0 %
Test CRC 525B1D7E
Copy CRC 525B1D7E
Track not present in AccurateRip database
Copy OK

Track 2

Filename F:\Music\olaf_alien\Space Debris - Back to Universe - Archive vol.4 (2017, Green-Brain)\02 - Second Sight Part II.wav

Pre-gap length 0:00:02.00

Peak level 98.7 %
Extraction speed 6.4 X
Track quality 100.0 %
Test CRC 83A06676
Copy CRC 83A06676
Track not present in AccurateRip database
Copy OK

Track 3

Filename F:\Music\olaf_alien\Space Debris - Back to Universe - Archive vol.4 (2017, Green-Brain)\03 - Discordant Pompeij Mainstreamkiller.wav

Pre-gap length 0:00:02.00

Peak level 99.8 %
Extraction speed 6.9 X
Track quality 100.0 %
Test CRC 07EA4011
Copy CRC 07EA4011
Track not present in AccurateRip database
Copy OK

Track 4

Filename F:\Music\olaf_alien\Space Debris - Back to Universe - Archive vol.4 (2017, Green-Brain)\04 - Kaleido Scoop.wav

Pre-gap length 0:00:02.00

Peak level 99.8 %
Extraction speed 6.9 X
Track quality 99.9 %
Test CRC 68CB3024
Copy CRC 68CB3024
Track not present in AccurateRip database
Copy OK

Track 5

Filename F:\Music\olaf_alien\Space Debris - Back to Universe - Archive vol.4 (2017, Green-Brain)\05 - Psychomonstermountain.wav

Pre-gap length 0:00:02.00

Peak level 87.1 %
Extraction speed 8.1 X
Track quality 99.9 %
Test CRC 4E69180C
Copy CRC 4E69180C
Track not present in AccurateRip database
Copy OK

Track 6

Filename F:\Music\olaf_alien\Space Debris - Back to Universe - Archive vol.4 (2017, Green-Brain)\06 - Schwachbach.wav

Pre-gap length 0:00:02.00

Peak level 99.1 %
Extraction speed 8.7 X
Track quality 100.0 %
Test CRC 8D37005D
Copy CRC 8D37005D
Track not present in AccurateRip database
Copy OK


None of the tracks are present in the AccurateRip database

No errors occurred

End of status report

–– CUETools DB Plugin V2.1.4

[CTDB TOCID: NW.BBeS7NfmVUUbUfVFtHV2E5CM-] found
Submit result: NW.BBeS7NfmVUUbUfVFtHV2E5CM- has been confirmed
Track | CTDB Status
1 | (1/1) Accurately ripped
2 | (1/1) Accurately ripped
3 | (1/1) Accurately ripped
4 | (1/1) Accurately ripped
5 | (1/1) Accurately ripped
6 | (1/1) Accurately ripped


==== Log checksum AACB068A034BF4DB6A3BB37F5D6C63213DADAA26B156DB40B19DF92330546B57 ====

[CUETools log; Date: 19.10.2017 19:29:39; Version: 2.1.4]
[CTDB TOCID: NW.BBeS7NfmVUUbUfVFtHV2E5CM-] found.
Track | CTDB Status
1 | (2/2) Accurately ripped
2 | (2/2) Accurately ripped
3 | (2/2) Accurately ripped
4 | (2/2) Accurately ripped
5 | (2/2) Accurately ripped
6 | (2/2) Accurately ripped
[AccurateRip ID: 0010cd03-00573a22-5a0f8d06] disk not present in database.

Track Peak [ CRC32 ] [W/O NULL] [ LOG ]
– 99,8 [8CCFA111] [AD285C36]
01 81,8 [525B1D7E] [FD7F29A0] CRC32
02 98,7 [83A06676] [96B9C1D0] CRC32
03 99,8 [07EA4011] [611704D1] CRC32
04 99,8 [68CB3024] [2FF38B10] CRC32
05 87,1 [4E69180C] [6A13C905] CRC32
06 99,1 [8D37005D] [3DBEF197] CRC32

Thanks to olaf_alien

See also:
Space Debris - 6 Studio Albums (2002-2014)
Space Debris - Into the Sun: Live at Burg Herzberg Festival 2006 (2007)
Space Debris - 3 Live Albums (2009-2015)
Space Debris - 2 Albums (2011)
Space Debris - Behind the Gate (2017)