Tags
Language
Tags

Space - Just Blue (1978) [Reissue 1996]

Posted By: gribovar
Space - Just Blue (1978) [Reissue 1996]

Space - Just Blue (1978) [Reissue 1996]
EAC Rip | FLAC (image+.cue+log) - 251 MB | MP3 CBR 320 kbps (LAME 3.93) - 85 MB | Covers - 178 MB
Genre: Synth-pop, Space Disco | RAR 3% Rec. | Label: PolyGram (534107-2)

The synthesized love child of fellow French musicians Cerrone and Jean-Michel Jarre, Space made their mark in 1977 with "Magic Fly" not long after Jarre blasted to worldwide acclaim with his own "Oxygene." With their classic combination of lush instrumentation and electro-tweak, Space looked set to dominate the Euro-disco wave. Two years on, however, the band was still trying to recapture that glory with the release of Just Blue, and occasionally coming very close. Star-crossed with moments that touch on the sounds of both Giorgio Moroder and Meco, Space managed to churn out some eminently enjoyable if not brilliant electro-pop. Cohesively stronger on the first side (but just as enjoyable on the flip), Just Blue opens powerfully with the title track, a light disco foray complete with vocal orchestration. The beginning of "Secret Dreams," meanwhile, wouldn't have been at all out of place on an early-'70s prog album. Of course the song takes its turn back onto the path of disco synth, but the twist is delicious nonetheless. And while the moody "Blue Tears" could be the late '70s equivalent of the modern raver's chillout music, Space refuses to let that pendulum still, ending the ride with the up-tempo, epochal groover "My Love Is Music." Space serves up a consistent platter, and while it may not be the best disco to hit the dancefloors, it still captures the essence of an all-night party.
Tracklist:
01. Just Blue
02. Final Signal
03. Secret Dreams
04. Symphony
05. Save Your Love For Me
06. Blue Tears
07. My Love Is Music

Total time: 36:12

Exact Audio Copy V0.99 prebeta 4 from 23. January 2008

Отчёт EAC об извлечении, выполненном 11. февраля 2010, 21:44

Space / Just Blue

Дисковод: PIONEER DVD-RW DVR-215 Adapter: 2 ID: 0

Режим чтения : Достоверность
Использование точного потока : Да
Отключение кэша аудио : Да
Использование указателей C2 : Нет

Коррекция смещения при чтении : 48
Способность читать области Lead-in и Lead-out : Нет
Заполнение пропущенных сэмплов тишиной : Да
Удаление блоков с тишиной в начале и конце : Нет
При вычислениях CRC использовались нулевые сэмплы : Да
Интерфейс : Встроенный Win32-интерфейс для Win NT/2000

Выходной формат : Пользовательский кодировщик
Выбранный битрейт : 1024 kBit/s
Качество : Высокий
Добавление ID3-тэга : Нет
Утилита сжатия : C:\Program Files\Exact Audio Copy\FLAC\FLAC.EXE
Дополнительные параметры : -8 -V -T "ARTIST=%a" -T "TITLE=%t" -T "ALBUM=%g" -T "DATE=%y" -T "TRACKNUMBER=%n" -T "GENRE=%m" -T "COMMENT=%e" %s -o %d


TOC извлечённого CD

Трек | Старт | Длительность | Начальный сектор | Конечный сектор
––––––––––––––––––––––––––––––––––-
1 | 0:00.55 | 4:30.53 | 55 | 20357
2 | 4:31.33 | 4:22.26 | 20358 | 40033
3 | 8:53.59 | 4:30.60 | 40034 | 60343
4 | 13:24.44 | 4:57.65 | 60344 | 82683
5 | 18:22.34 | 6:38.12 | 82684 | 112545
6 | 25:00.46 | 5:26.63 | 112546 | 137058
7 | 30:27.34 | 5:45.02 | 137059 | 162935


Характеристики диапазона извлечения и сообщения об ошибках

Выбранный диапазон

Имя файла G:\РАЗДАЧИ!!!!\Space - Just Blue - 1996\Space - Just Blue.wav

Пиковый уровень 99.8 %
Качество диапазона 100.0 %
CRC теста A2E1E4C6
CRC копии A2E1E4C6
Копирование… OK

Ошибок не произошло


AccurateRip: сводка

Трек 1 нет в базе данных
Трек 2 нет в базе данных
Трек 3 нет в базе данных
Трек 4 нет в базе данных
Трек 5 нет в базе данных
Трек 6 нет в базе данных
Трек 7 нет в базе данных

Ни одного трека нет в базе AccurateRip

Конец отчёта

[CUETools log; Date: 20.11.2021 20:44:43; Version: 2.1.4]
Pregap length 00:00:55.
[CTDB TOCID: umKqCulQjnFXFif8o5wCoj2lDgM-] found.
Track | CTDB Status
1 | (19/22) Accurately ripped
2 | (20/22) Accurately ripped
3 | (19/22) Accurately ripped
4 | (20/22) Accurately ripped
5 | (19/22) Accurately ripped
6 | (20/22) Accurately ripped
7 | (20/22) Accurately ripped
[AccurateRip ID: 00096650-00394776-4b087c07] found.
Track [ CRC | V2 ] Status
01 [e9945722|10147aa3] (00+10/14) Accurately ripped
02 [2543a0e5|02c17ed4] (00+10/13) Accurately ripped
03 [e2f3b316|86743746] (00+10/14) Accurately ripped
04 [8989d08b|2713685f] (00+10/14) Accurately ripped
05 [f8f44def|5fe003a4] (00+10/13) Accurately ripped
06 [39db247a|f587f2e6] (00+10/13) Accurately ripped
07 [a62beedf|188ba353] (00+10/13) Accurately ripped
Offsetted by -42:
01 [828e64b6] (00/14) No match (V2 was not tested)
02 [12e6cfed] (00/13) No match (V2 was not tested)
03 [1a3f4c3a] (00/14) No match (V2 was not tested)
04 [abf9603d] (00/14) No match (V2 was not tested)
05 [83c8e473] (00/13) No match (V2 was not tested)
06 [8763300a] (00/13) No match (V2 was not tested)
07 [90a933bd] (00/13) No match (V2 was not tested)

Track Peak [ CRC32 ] [W/O NULL] [ LOG ]
– 99,8 [A2E1E4C6] [038BBA04] CRC32
01 93,2 [CB03B225] [356F1343]
02 91,9 [6E928B14] [0AA38C32]
03 93,8 [91F8914C] [7184A9B3]
04 93,8 [51A6AA67] [79222BA0]
05 95,5 [7C48C3CD] [8033809D]
06 99,8 [4E23184F] [9F3AB01A]
07 98,9 [42CBF1FF] [3B58009F]

Thanks to SergeyJD

See also:
Space - Magic Fly (1977) [Reissue 2010]
Space - Deliverance (1977) [Reissue 1996]