Tags
Language
Tags

Spandau Ballet - Parade (1984) [2008, EMI Music Japan TOCP-70578]

Posted By: v3122
Spandau Ballet - Parade (1984) [2008, EMI Music Japan TOCP-70578]

Spandau Ballet - Parade (1984)
EAC | Flac(Image) + Cue + Log & MP3 CBR 320Kbps
EMI Music Japan TOCP-70578 | ~ 252 or 104 Mb | Scans(600dpi, jpg) -> 83 Mb
Synthpop / New Wave

Parade was Spandau Ballet's follow-up to their most successful LP, 1983's True. "Only When You Leave" reached number three on the U.K. charts. The three other singles that were released do successively worse: "I'll Fly for You" (number nine), "Highly Strung" (number 15), and "Round and Round" (number 19). (These charting songs are all marginal at best.) The band was still riding high in the U.K. and sold out seven consecutive dates at Webley Arena. Fans of the band, and the "new romanticism" of other acts like Simple Minds, Adam Ant, and Wham may like Parade because it comes close to recapturing the stylish, white soul sound of the True LP. But nothing on the album comes close to the song "True." Spandau Ballet disappeared from American charts after canceling U.S. tour dates in 1984 due to injury.

by JT Griffith, AMG
Spandau Ballet - Parade (1984) [2008, EMI Music Japan TOCP-70578]


Spandau Ballet - Parade (1984):

Spandau Ballet - Parade (1984) [2008, EMI Music Japan TOCP-70578]

Tracklist:

01. Only When You Leave 5:12
02. Highly Strung 4:12
03. I'll Fly For You 5:37
04. Nature Of The Beast 5:16
05. Revenge For Love 4:24
06. Always In The Back Of My Mind 4:31
07. With The Pride 5:32
08. Round And Round 5:30

Exact Audio Copy V1.1 from 23. June 2015

EAC extraction logfile from 8. July 2015, 18:31

Spandau Ballet / Parade (TOCP-70578)

Used drive : PLEXTOR DVDR PX-891SA Adapter: 1 ID: 0

Read mode : Secure
Utilize accurate stream : Yes
Defeat audio cache : Yes
Make use of C2 pointers : No

Read offset correction : 6
Overread into Lead-In and Lead-Out : No
Fill up missing offset samples with silence : Yes
Delete leading and trailing silent blocks : No
Null samples used in CRC calculations : Yes
Used interface : Native Win32 interface for Win NT & 2000

Used output format : User Defined Encoder
Selected bitrate : 1024 kBit/s
Quality : High
Add ID3 tag : No
Command line compressor : C:\Program Files\Exact Audio Copy\Flac\flac.exe
Additional command line options : -V -8 -T "Genre=%genre%" -T "Artist=%artist%" -T "Title=%title%" -T "Album=%albumtitle%" -T "Date=%year%" -T "Tracknumber=%tracknr%" -T "Comment=%comment%" %source%


TOC of the extracted CD

Track | Start | Length | Start sector | End sector
––––––––––––––––––––––––––––-
1 | 0:00.00 | 5:12.23 | 0 | 23422
2 | 5:12.23 | 4:11.65 | 23423 | 42312
3 | 9:24.13 | 5:37.02 | 42313 | 67589
4 | 15:01.15 | 5:15.55 | 67590 | 91269
5 | 20:16.70 | 4:23.60 | 91270 | 111054
6 | 24:40.55 | 4:30.63 | 111055 | 131367
7 | 29:11.43 | 5:32.37 | 131368 | 156304
8 | 34:44.05 | 5:30.08 | 156305 | 181062


Range status and errors

Selected range

Filename H:\dafnaplus\Spandau Ballet\1984 Parade\Spandau Ballet - Parade (TOCP-70578).wav

Peak level 99.4 %
Extraction speed 7.7 X
Range quality 100.0 %
Test CRC E94C1187
Copy CRC E94C1187
Copy OK

No errors occurred


AccurateRip summary

Track 1 cannot be verified as accurate (confidence 2) [549D64F0], AccurateRip returned [80BB718C] (AR v2)
Track 2 cannot be verified as accurate (confidence 2) [90A4F54D], AccurateRip returned [27153106] (AR v2)
Track 3 cannot be verified as accurate (confidence 2) [B3E8A5E3], AccurateRip returned [0238F003] (AR v2)
Track 4 cannot be verified as accurate (confidence 2) [D9F06B08], AccurateRip returned [C2F6B51C] (AR v2)
Track 5 cannot be verified as accurate (confidence 2) [D03D375C], AccurateRip returned [B3CFEB31] (AR v2)
Track 6 cannot be verified as accurate (confidence 2) [D6005D4F], AccurateRip returned [870D9D66] (AR v2)
Track 7 cannot be verified as accurate (confidence 2) [3707FCD5], AccurateRip returned [572B46A9] (AR v2)
Track 8 cannot be verified as accurate (confidence 2) [B4FF4DDC], AccurateRip returned [29EE8036] (AR v2)

No tracks could be verified as accurate
You may have a different pressing from the one(s) in the database

End of status report

–– CUETools DB Plugin V2.1.6

[CTDB TOCID: yEfdgvO7jEOwMhsfGDLWXvIHgeI-] found
Submit result: already submitted
Track | CTDB Status
1 | (20/21) Accurately ripped
2 | (21/21) Accurately ripped
3 | (21/21) Accurately ripped
4 | (21/21) Accurately ripped
5 | (21/21) Accurately ripped
6 | (20/21) Accurately ripped
7 | (21/21) Accurately ripped
8 | (21/21) Accurately ripped


==== Log checksum A7436B9012ABADACF32D05E51A6F993BD32E488ABB787CA8BD5487235F00FC62 ====

foobar2000 1.2.9 / Dynamic Range Meter 1.1.1
log date: 2015-07-16 17:57:53

––––––––––––––––––––––––––––––––––––––––
Analyzed: Spandau Ballet / Parade (TOCP-70578)
––––––––––––––––––––––––––––––––––––––––

DR Peak RMS Duration Track
––––––––––––––––––––––––––––––––––––––––
DR13 -0.86 dB -17.45 dB 5:12 01-Only When You Leave
DR14 -0.71 dB -16.97 dB 4:12 02-Highly Strung
DR16 -0.77 dB -20.06 dB 5:37 03-I'll Fly For You
DR14 -1.53 dB -18.48 dB 5:16 04-Nature Of The Beast
DR15 -0.50 dB -18.03 dB 4:24 05-Revenge For Love
DR14 -1.24 dB -18.05 dB 4:31 06-Always In The Back Of My Mind
DR14 -0.04 dB -17.07 dB 5:32 07-With The Pride
DR15 -0.42 dB -18.85 dB 5:30 08-Round And Round
––––––––––––––––––––––––––––––––––––––––

Number of tracks: 8
Official DR value: DR14

Samplerate: 44100 Hz
Channels: 2
Bits per sample: 16
Bitrate: 791 kbps
Codec: FLAC

[CUETools log; Date: 16.07.2015 17:54:05; Version: 2.1.4]
[CTDB TOCID: yEfdgvO7jEOwMhsfGDLWXvIHgeI-] found.
Track | CTDB Status
1 | (21/22) Accurately ripped
2 | (22/22) Accurately ripped
3 | (22/22) Accurately ripped
4 | (22/22) Accurately ripped
5 | (22/22) Accurately ripped
6 | (21/22) Accurately ripped
7 | (22/22) Accurately ripped
8 | (22/22) Accurately ripped
[AccurateRip ID: 000c4623-0051e289-62096e08] found.
Track [ CRC | V2 ] Status
01 [c686c84b|549d64f0] (0+0/2) No match
02 [247a00ac|90a4f54d] (0+0/2) No match
03 [f82ed83e|b3e8a5e3] (0+0/2) No match
04 [68641069|d9f06b08] (0+0/2) No match
05 [66ffe72a|d03d375c] (0+0/2) No match
06 [50603162|d6005d4f] (0+0/2) No match
07 [5be33bb0|3707fcd5] (0+0/2) No match
08 [8fc8b085|b4ff4ddc] (0+0/2) No match
Offsetted by -259:
01 [fa5fe6d5] (0/2) No match (V2 was not tested)
02 [ce293097] (0/2) No match (V2 was not tested)
03 [5430ead1] (0/2) No match (V2 was not tested)
04 [67351b5b] (0/2) No match (V2 was not tested)
05 [6241ff25] (0/2) No match (V2 was not tested)
06 [02bb87bd] (0/2) No match (V2 was not tested)
07 [88d61c61] (0/2) No match (V2 was not tested)
08 [17a15e08] (0/2) No match (V2 was not tested)

Track Peak [ CRC32 ] [W/O NULL] [ LOG ]
– 99,4 [E94C1187] [D49CFFBF] CRC32
01 90,5 [CAD3C714] [C8DD62ED]
02 92,1 [EED4FBC1] [C9C88901]
03 91,5 [32587265] [2FBBF048]
04 83,8 [9D72A2FF] [F329D951]
05 94,4 [D9E5B816] [A637B180]
06 86,6 [5FEF65A1] [1ABE724B]
07 99,4 [C8DB3F8B] [72724680]
08 95,3 [6447FB99] [5D05FA43]

Spandau Ballet - Parade (1984) [2008, EMI Music Japan TOCP-70578]

All thanks go to dafnaplus

Spandau Ballet in my Blog

Download Spandau Ballet - Parade (1984):