Tags
Language
Tags

Special EFX - Mystique (1987) {GRP}

Posted By: tiburon
Special EFX - Mystique (1987) {GRP}

Special EFX - Mystique (1987) {GRP}
EAC 1.1 | FLAC tracks level 8 | Cue+Log+M3U | Full Scans 600dpi | 291MB + 5% Recovery
MP3 CBR 320 Kbps | 143MB + 5% Recovery
Genre: Smooth Jazz, Fusion
Special EFX - Mystique (1987) {GRP}

Combining Latin and African rhythms with the light textures of MOR jazz, Special EFX emerged as one of the most prominent world fusion groups of their era. Formed in New York in 1982, Special EFX was essentially a duo comprised of guitarist Chieli Minucci and Hungarian-born drummer/percussionist George Jinda; debuting in 1985 with the album Modern Manners, they often recruited other musicians to help flesh out their state-of-the-art sound, among them Dave Grusin, Omar Hakim, and McCoy Tyner. Long favoring an accessible and slick jazz-pop sound, the duo significantly altered their identity with 1990's Just Like Magic, adopting a more acoustic texture and exchanging Jinda's electronic percussion for what he dubbed "wooden world music."
Track List
01. Hands Of The Healer - 5:31
02. Rainy Sunday - 6:08
03. Udu Voodoo - 4:47
04. Plésance - 3:59
05. Dreamer Of Dreams - 5:08
06. Noel - 4:53
07. Islands - 3:36
08. A Sidestreet In Paradise - 4:55
09. When The Earth Was Flat - 4:59
10. Ritual - 0:35
11. The Sleeping Tiger - 4:19

musicians
Chieli Minucci - Electric And Acoustic Guitars, Tape Loop, Octave Bass, Voice
George Jinda - Percussion, Talking Drum, Shakers, Chimes, Cymbals, Rain Efx, Udu drum, Crotales, Sound Discs, Triangle, Tambourines, Bells, etc.
Szakcsi - Acoustic Piano
Robbie Kondor - Synthesizers, Synth-vibes Solo
Robert Aries - Synthesizer
Jeff Andrews - Bass
Victor Bailey - Bass
Dave Weckl - Drums
Dennis Chambers - Drums

Produced by Chieli Minucci


Exact Audio Copy V1.1 from 23. June 2015

EAC extraction logfile from 9. June 2017, 1:41

Special EFX / Mystique

Used drive : HL-DT-STDVD-RAM GH22NS30 Adapter: 1 ID: 0

Read mode : Secure
Utilize accurate stream : Yes
Defeat audio cache : Yes
Make use of C2 pointers : No

Read offset correction : 102
Overread into Lead-In and Lead-Out : Yes
Fill up missing offset samples with silence : Yes
Delete leading and trailing silent blocks : No
Null samples used in CRC calculations : Yes
Used interface : Native Win32 interface for Win NT & 2000
Gap handling : Appended to previous track

Used output format : User Defined Encoder
Selected bitrate : 896 kBit/s
Quality : High
Add ID3 tag : No
Command line compressor : C:\Program Files\Exact Audio Copy\Flac\flac.exe
Additional command line options : -V -8 -T "Genre=%genre%" -T "Artist=%artist%" -T "Title=%title%" -T "Album=%albumtitle%" -T "Date=%year%" -T "Tracknumber=%tracknr%" -T "Comment=EAC1.1 FLAC -8" %source%


TOC of the extracted CD

Track | Start | Length | Start sector | End sector
––––––––––––––––––––––––––––-
1 | 0:00.00 | 5:30.63 | 0 | 24812
2 | 5:30.63 | 6:07.57 | 24813 | 52394
3 | 11:38.45 | 4:46.65 | 52395 | 73909
4 | 16:25.35 | 3:58.50 | 73910 | 91809
5 | 20:24.10 | 5:08.18 | 91810 | 114927
6 | 25:32.28 | 4:53.20 | 114928 | 136922
7 | 30:25.48 | 3:36.00 | 136923 | 153122
8 | 34:01.48 | 4:54.62 | 153123 | 175234
9 | 38:56.35 | 4:58.65 | 175235 | 197649
10 | 43:55.25 | 0:35.35 | 197650 | 200309
11 | 44:30.60 | 4:19.28 | 200310 | 219762


Track 1

Filename E:\WAV\01 - Hands Of The Healer.wav

Pre-gap length 0:00:02.00

Peak level 72.7 %
Extraction speed 1.9 X
Track quality 100.0 %
Test CRC DF479A77
Copy CRC DF479A77
Accurately ripped (confidence 3) [39E9D4BD] (AR v2)
Copy OK

Track 2

Filename E:\WAV\02 - Rainy Sunday.wav

Peak level 38.1 %
Extraction speed 2.2 X
Track quality 100.0 %
Test CRC 1F04DDA6
Copy CRC 1F04DDA6
Accurately ripped (confidence 3) [71A7D0D8] (AR v2)
Copy OK

Track 3

Filename E:\WAV\03 - Udu Voodoo.wav

Peak level 64.6 %
Extraction speed 2.3 X
Track quality 100.0 %
Test CRC 72AC5B34
Copy CRC 72AC5B34
Accurately ripped (confidence 3) [CACBD819] (AR v2)
Copy OK

Track 4

Filename E:\WAV\04 - Plesance.wav

Pre-gap length 0:00:01.20

Peak level 43.7 %
Extraction speed 2.4 X
Track quality 100.0 %
Test CRC 33867F2A
Copy CRC 33867F2A
Accurately ripped (confidence 3) [1FC01E1D] (AR v2)
Copy OK

Track 5

Filename E:\WAV\05 - Dreamer Of Dreams.wav

Peak level 52.1 %
Extraction speed 2.6 X
Track quality 100.0 %
Test CRC 89C12393
Copy CRC 89C12393
Accurately ripped (confidence 3) [5C347A13] (AR v2)
Copy OK

Track 6

Filename E:\WAV\06 - Noel.wav

Peak level 55.7 %
Extraction speed 2.7 X
Track quality 100.0 %
Test CRC 886EB13C
Copy CRC 886EB13C
Accurately ripped (confidence 3) [289AAE9B] (AR v2)
Copy OK

Track 7

Filename E:\WAV\07 - Islands.wav

Peak level 53.6 %
Extraction speed 2.7 X
Track quality 100.0 %
Test CRC BFBBCD65
Copy CRC BFBBCD65
Accurately ripped (confidence 3) [54D7FAB4] (AR v2)
Copy OK

Track 8

Filename E:\WAV\08 - A Sidestreet In Paradise.wav

Peak level 64.3 %
Extraction speed 2.6 X
Track quality 99.9 %
Test CRC 28CF3D52
Copy CRC 28CF3D52
Accurately ripped (confidence 3) [C30F004C] (AR v2)
Copy OK

Track 9

Filename E:\WAV\09 - When The Earth Was Flat.wav

Peak level 78.3 %
Extraction speed 3.1 X
Track quality 100.0 %
Test CRC 092E08AD
Copy CRC 092E08AD
Accurately ripped (confidence 3) [C8EB3716] (AR v2)
Copy OK

Track 10

Filename E:\WAV\10 - Ritual.wav

Peak level 100.0 %
Extraction speed 1.6 X
Track quality 100.0 %
Test CRC 9C8673B1
Copy CRC 9C8673B1
Accurately ripped (confidence 3) [91D3B6A4] (AR v2)
Copy OK

Track 11

Filename E:\WAV\11 - The Sleeping Tiger.wav

Peak level 38.1 %
Extraction speed 3.5 X
Track quality 100.0 %
Test CRC C118E36A
Copy CRC C118E36A
Accurately ripped (confidence 3) [3285F658] (AR v2)
Copy OK


All tracks accurately ripped

No errors occurred

End of status report

==== Log checksum 6B62A653D3526D4BBEBA00EFA4DD466E54D733A09334AE466E8BC46BB228C482 ====


––––––––––––––––––––––––––––––––––––––––
Analyzed: Special EFX / Mystique
––––––––––––––––––––––––––––––––––––––––

DR Peak RMS Duration Track
––––––––––––––––––––––––––––––––––––––––
DR15 -2.77 dB -21.57 dB 5:31 01-Hands Of The Healer
DR11 -8.38 dB -23.64 dB 6:08 02-Rainy Sunday
DR15 -3.79 dB -22.00 dB 4:47 03-Udu Voodoo
DR13 -7.18 dB -22.66 dB 3:59 04-Plésance
DR13 -5.66 dB -22.42 dB 5:08 05-Dreamer Of Dreams
DR14 -5.08 dB -21.64 dB 4:53 06-Noel
DR15 -5.40 dB -22.21 dB 3:36 07-Islands
DR14 -3.83 dB -23.57 dB 4:55 08-A Sidestreet In Paradise
DR13 -2.12 dB -19.96 dB 4:59 09-When The Earth Was Flat
DR18 0.00 dB -25.35 dB 0:35 10-Ritual
DR12 -8.37 dB -24.76 dB 4:19 11-The Sleeping Tiger
––––––––––––––––––––––––––––––––––––––––

Number of tracks: 11
Official DR value: DR14

Samplerate: 44100 Hz
Channels: 2
Bits per sample: 16
Bitrate: 630 kbps
Codec: FLAC
================================================================================

Special EFX - Mystique (1987) {GRP}
Special EFX - Mystique (1987) {GRP}
Special EFX - Mystique (1987) {GRP}


Thanks to the original ripper