Tags
Language
Tags

Spirit - It Shall Be: Ode & Epic Recordings 1968-1972 (2018) [5CD Box Set] Re-up

Posted By: v3122
Spirit - It Shall Be: Ode & Epic Recordings 1968-1972 (2018) [5CD Box Set] Re-up

Spirit - It Shall Be: Ode & Epic Recordings 1968-1972 (2018)
EAC | Flac(Image) + Cue + Log & MP3 CBR 320Kbps
Esoteric Recordings, ECLEC52619 | ~ 2061 or 933 Mb | Scans(png) -> 468 Mb
Psychedelic Rock / Progressive Rock / Hard Rock / Blues Rock / Jazz Rock

2018 five CD clamshell box set by the legendary American band Spirit. Formed in Los Angeles in 1967 from the remnants of The Red Roosters, Spirit was one of the great bands to emerge on the US West Coast in the psychedelic era. Featuring the talents of 16 year old guitarist Randy California (who had played guitar with Jimi Hendrix in New York the previous year), his step-father drummer Ed Cassidy along with Jay Ferguson (vocals, percussion), John Locke (keyboards) and Mark Andes (bass), Spirit signed to producer Lou Adler's newly established Ode Records label in late 1967. Their self-titled debut album appeared some months later and demonstrated the breadth and diversity of the band covering psychedelic, rock and jazz influences and featuring such legendary cuts as 'Fresh Garbage', 'Uncle Jack', 'Topanga Windows', 'Mechanical World', 'Elijah' and 'Taurus' (the subject of a court case decades later when it was alleged Led Zeppelin had taken the musical structure of the piece as a basis for 'Stairway to Heaven'). The band's follow-up album, The Family That Plays Together, spawned the hit single 'I've Got a Line on You' and was one of their finest works thanks to material such as It 'Shall Be', 'Aren't You Glad', 'Silky Sam' and 'Darlin' If'. Leading up to the recording of 1969's Clear album Spirit recorded the soundtrack to Jaques Demy's film The Model Shop. In 1970 Spirit recorded the classic The Twelve Dreams of Doctor Sardonicus for Epic Records, from which the single 'Animal Zoo' was taken and included excellent material such as 'Nature's Way', 'Mr Skin', 'Space Child', 'Morning Will Come' and 'Soldier'. Sadly, the original line- up of Spirit fell apart some months later leaving just Ed Cassidy and John Locke to assemble a new incarnation of Spirit for 1972's Feedback, which saw brothers Al and John Staehely join the band on bass and drums respectively. Spirit went on hiatus soon after, although California and Cassidy would continue to tour and record as Spirit on and off until California's untimely death in 1997.
Spirit - It Shall Be: Ode & Epic Recordings 1968-1972 (2018):

Spirit - It Shall Be: Ode & Epic Recordings 1968-1972 (2018) [5CD Box Set] Re-up

Tracklist CD1:

Taken From The Stereo Album 'Spirit'
Released In 1968
01 Fresh Garbage
02 Uncle Jack
03 Mechanical World
04 Taurus
05 Girl In Your Eye
06 Straight Arrow
07 Topanga Windows
08 Gramophone Man
09 Water Woman
10 The Great Canyon Fire In General
11 Elijah
Taken From The Album 'The Family That Plays Together'
Released In 1968 / Original 1968 Stereo Mix
12 I Got A Line On You
13 It Shall Be
14 Poor Richard
15 Silky Sam
16 The Drunkard
17 Darlin' If
18 All The Same
19 Jewish
20 Dream Within A Dream
21 She Smiled
22 Aren't You Glad

Exact Audio Copy V1.3 from 2. September 2016

EAC extraction logfile from 2. May 2018, 14:30

Sprit / It Shall Be CD1

Used drive : PLEXTOR BD-R PX-B950SA Adapter: 1 ID: 1

Read mode : Secure
Utilize accurate stream : Yes
Defeat audio cache : Yes
Make use of C2 pointers : No

Read offset correction : 6
Overread into Lead-In and Lead-Out : No
Fill up missing offset samples with silence : Yes
Delete leading and trailing silent blocks : No
Null samples used in CRC calculations : Yes
Used interface : Native Win32 interface for Win NT & 2000

Used output format : Internal WAV Routines
Sample format : 44.100 Hz; 16 Bit; Stereo


TOC of the extracted CD

Track | Start | Length | Start sector | End sector
––––––––––––––––––––––––––––-
1 | 0:00.00 | 3:11.69 | 0 | 14393
2 | 3:11.69 | 2:43.38 | 14394 | 26656
3 | 5:55.32 | 5:15.01 | 26657 | 50282
4 | 11:10.33 | 2:37.07 | 50283 | 62064
5 | 13:47.40 | 3:15.37 | 62065 | 76726
6 | 17:03.02 | 2:51.28 | 76727 | 89579
7 | 19:54.30 | 3:36.43 | 89580 | 105822
8 | 23:30.73 | 3:49.49 | 105823 | 123046
9 | 27:20.47 | 2:11.28 | 123047 | 132899
10 | 29:32.00 | 2:46.73 | 132900 | 145422
11 | 32:18.73 | 10:46.04 | 145423 | 193876
12 | 43:05.02 | 2:36.01 | 193877 | 205577
13 | 45:41.03 | 3:02.50 | 205578 | 219277
14 | 48:43.53 | 2:28.32 | 219278 | 230409
15 | 51:12.10 | 3:48.00 | 230410 | 247509
16 | 55:00.10 | 2:27.51 | 247510 | 258585
17 | 57:27.61 | 3:39.64 | 258586 | 275074
18 | 61:07.50 | 4:47.36 | 275075 | 296635
19 | 65:55.11 | 2:48.01 | 296636 | 309236
20 | 68:43.12 | 3:02.33 | 309237 | 322919
21 | 71:45.45 | 2:24.23 | 322920 | 333742
22 | 74:09.68 | 5:34.30 | 333743 | 358822


Range status and errors

Selected range

Filename C:\Users\Alex\Desktop\ALLexxess\Spirit\2018 It Shall Be (5CD Box Set Esoteric Records)\CD1\Sprit - It Shall Be CD1.wav

Peak level 99.4 %
Extraction speed 8.5 X
Range quality 100.0 %
Test CRC 924A79FE
Copy CRC 924A79FE
Copy OK

No errors occurred


AccurateRip summary

Track 1 accurately ripped (confidence 2) [407D2666] (AR v2)
Track 2 accurately ripped (confidence 2) [171F0FEA] (AR v2)
Track 3 accurately ripped (confidence 2) [77AA5BB2] (AR v2)
Track 4 accurately ripped (confidence 2) [54944DC6] (AR v2)
Track 5 accurately ripped (confidence 2) [CF99DC86] (AR v2)
Track 6 accurately ripped (confidence 2) [5004C067] (AR v2)
Track 7 accurately ripped (confidence 2) [DA047E00] (AR v2)
Track 8 accurately ripped (confidence 2) [F06B24D5] (AR v2)
Track 9 accurately ripped (confidence 2) [457177AB] (AR v2)
Track 10 accurately ripped (confidence 2) [79635F4B] (AR v2)
Track 11 accurately ripped (confidence 2) [D5D7EF31] (AR v2)
Track 12 accurately ripped (confidence 2) [D6907726] (AR v2)
Track 13 accurately ripped (confidence 2) [92981A1F] (AR v2)
Track 14 accurately ripped (confidence 2) [378E0AF4] (AR v2)
Track 15 accurately ripped (confidence 2) [EE455EFA] (AR v2)
Track 16 accurately ripped (confidence 2) [E3183108] (AR v2)
Track 17 accurately ripped (confidence 2) [93060D42] (AR v2)
Track 18 accurately ripped (confidence 2) [AA3096A3] (AR v2)
Track 19 accurately ripped (confidence 2) [4E735DAB] (AR v2)
Track 20 accurately ripped (confidence 2) [409101EA] (AR v2)
Track 21 accurately ripped (confidence 2) [0F386BBD] (AR v2)
Track 22 accurately ripped (confidence 2) [DFE72740] (AR v2)

All tracks accurately ripped

End of status report

–– CUETools DB Plugin V2.1.6

[CTDB TOCID: 4nRGZHzO6u4ECqfHNn.2tuuw388-] found
Submit result: 4nRGZHzO6u4ECqfHNn.2tuuw388- has been confirmed
Track | CTDB Status
1 | (8/8) Accurately ripped
2 | (8/8) Accurately ripped
3 | (8/8) Accurately ripped
4 | (8/8) Accurately ripped
5 | (8/8) Accurately ripped
6 | (8/8) Accurately ripped
7 | (8/8) Accurately ripped
8 | (8/8) Accurately ripped
9 | (8/8) Accurately ripped
10 | (8/8) Accurately ripped
11 | (8/8) Accurately ripped
12 | (8/8) Accurately ripped
13 | (8/8) Accurately ripped
14 | (8/8) Accurately ripped
15 | (8/8) Accurately ripped
16 | (8/8) Accurately ripped
17 | (8/8) Accurately ripped
18 | (8/8) Accurately ripped
19 | (8/8) Accurately ripped
20 | (8/8) Accurately ripped
21 | (8/8) Accurately ripped
22 | (8/8) Accurately ripped


==== Log checksum 6E81CEAF8072A5A3077788F76197E198B1B0B15835AE2A21F58B189200E8DDAD ====


[CUETools log; Date: 13.07.2018 2:07:16; Version: 2.1.5]
[CTDB TOCID: 4nRGZHzO6u4ECqfHNn.2tuuw388-] found.
Track | CTDB Status
1 | (12/12) Accurately ripped
2 | (12/12) Accurately ripped
3 | (12/12) Accurately ripped
4 | (12/12) Accurately ripped
5 | (12/12) Accurately ripped
6 | (12/12) Accurately ripped
7 | (12/12) Accurately ripped
8 | (12/12) Accurately ripped
9 | (12/12) Accurately ripped
10 | (12/12) Accurately ripped
11 | (12/12) Accurately ripped
12 | (12/12) Accurately ripped
13 | (12/12) Accurately ripped
14 | (12/12) Accurately ripped
15 | (12/12) Accurately ripped
16 | (12/12) Accurately ripped
17 | (12/12) Accurately ripped
18 | (12/12) Accurately ripped
19 | (12/12) Accurately ripped
20 | (12/12) Accurately ripped
21 | (12/12) Accurately ripped
22 | (12/12) Accurately ripped
[AccurateRip ID: 003e3bec-03e9492e-4a12b016] found.
Track [ CRC | V2 ] Status
01 [41cedbcf|407d2666] (00+14/14) Accurately ripped
02 [f9dc789c|171f0fea] (00+14/14) Accurately ripped
03 [b9aba55a|77aa5bb2] (00+14/14) Accurately ripped
04 [7037c259|54944dc6] (00+14/14) Accurately ripped
05 [06102e4a|cf99dc86] (00+14/14) Accurately ripped
06 [87068fd7|5004c067] (00+14/14) Accurately ripped
07 [97b25fc3|da047e00] (00+14/14) Accurately ripped
08 [4a00d254|f06b24d5] (00+14/14) Accurately ripped
09 [b59e8a6e|457177ab] (00+14/14) Accurately ripped
10 [66a85d40|79635f4b] (00+14/14) Accurately ripped
11 [f52998af|d5d7ef31] (00+14/14) Accurately ripped
12 [2e4228de|d6907726] (00+14/14) Accurately ripped
13 [95e2f3f8|92981a1f] (00+14/14) Accurately ripped
14 [3c96b165|378e0af4] (00+14/14) Accurately ripped
15 [309f4d44|ee455efa] (00+14/14) Accurately ripped
16 [e00b8dc0|e3183108] (00+14/14) Accurately ripped
17 [7775b65c|93060d42] (00+14/14) Accurately ripped
18 [964d6b10|aa3096a3] (00+14/14) Accurately ripped
19 [140dd68e|4e735dab] (00+14/14) Accurately ripped
20 [350aeef8|409101ea] (00+14/14) Accurately ripped
21 [790abd55|0f386bbd] (00+14/14) Accurately ripped
22 [dd89ce99|dfe72740] (00+14/14) Accurately ripped

Track Peak [ CRC32 ] [W/O NULL] [ LOG ]
– 99,4 [924A79FE] [DA801570] CRC32
01 99,4 [1EB6A78D] [F08F6797]
02 99,4 [0E98442E] [02261076]
03 99,4 [871359E5] [0DB5AFE5]
04 99,4 [37159B1F] [6E3DA78E]
05 97,5 [CB8EC40F] [985F7EE1]
06 99,4 [C3AA592D] [390DAF62]
07 99,4 [9CBF6BE0] [C959AB20]
08 99,4 [3BA8149E] [E0C90507]
09 81,0 [4AEE6562] [AA4F138D]
10 99,4 [539A7DD6] [C1726E33]
11 99,1 [166A0AC6] [ABC6B67F]
12 99,4 [EBD0CC5B] [869849DD]
13 99,4 [764FF0A9] [1764A5C2]
14 99,4 [D9902355] [50BFFF1E]
15 99,4 [ED26E765] [7FBB09A5]
16 99,4 [419BF1DF] [D7A96398]
17 99,4 [F66D52C8] [5C21F5F0]
18 99,4 [8554E303] [48AB0897]
19 99,4 [E68E0498] [834FAD58]
20 99,4 [9294E4ED] [ACD0922A]
21 86,9 [1E33980A] [17E433C3]
22 99,4 [CE7CAFDC] [6DD98878]


Spirit - It Shall Be: Ode & Epic Recordings 1968-1972 (2018) [5CD Box Set] Re-up

Tracklist CD2:

Taken From The Film Soundtrack
'The Model Shop' / Recorded In 1968
01 The Moving Van
02 Mellow Fellow
03 Now Or Anywhere
04 Fog
05 Green Gorilla
06 Model Shop I
07 Model Shop II (Clear)
08 The Rehearsal Theme
09 Song For Lola
10 Eventide
11 Coral
12 Aren't You Glad (Demo)
Taken From The Album 'Clear'
Released In 1969
13 Dark Eyed Woman
14 Apple Orchard
15 So Little Time To Fly
16 Ground Hog
17 Cold Wind
18 Policeman's Ball
19 Ice
20 Give A Life, Take A Life
21 I'm Truckin'
22 Clear
23 Caught
24 New Dope In Town

Exact Audio Copy V1.3 from 2. September 2016

EAC extraction logfile from 2. May 2018, 9:46

Sprit / It Shall Be CD2

Used drive : PLEXTOR BD-R PX-B950SA Adapter: 1 ID: 1

Read mode : Secure
Utilize accurate stream : Yes
Defeat audio cache : Yes
Make use of C2 pointers : No

Read offset correction : 6
Overread into Lead-In and Lead-Out : No
Fill up missing offset samples with silence : Yes
Delete leading and trailing silent blocks : No
Null samples used in CRC calculations : Yes
Used interface : Native Win32 interface for Win NT & 2000

Used output format : Internal WAV Routines
Sample format : 44.100 Hz; 16 Bit; Stereo


TOC of the extracted CD

Track | Start | Length | Start sector | End sector
––––––––––––––––––––––––––––-
1 | 0:00.00 | 1:56.68 | 0 | 8767
2 | 1:56.68 | 2:50.09 | 8768 | 21526
3 | 4:47.02 | 4:39.72 | 21527 | 42523
4 | 9:26.74 | 2:25.35 | 42524 | 53433
5 | 11:52.34 | 2:13.31 | 53434 | 63439
6 | 14:05.65 | 2:02.06 | 63440 | 72595
7 | 16:07.71 | 4:09.19 | 72596 | 91289
8 | 20:17.15 | 1:11.40 | 91290 | 96654
9 | 21:28.55 | 5:47.14 | 96655 | 122693
10 | 27:15.69 | 3:56.64 | 122694 | 140457
11 | 31:12.58 | 4:22.40 | 140458 | 160147
12 | 35:35.23 | 5:28.12 | 160148 | 184759
13 | 41:03.35 | 3:08.05 | 184760 | 198864
14 | 44:11.40 | 4:05.01 | 198865 | 217240
15 | 48:16.41 | 2:49.20 | 217241 | 229935
16 | 51:05.61 | 3:03.50 | 229936 | 243710
17 | 54:09.36 | 3:24.01 | 243711 | 259011
18 | 57:33.37 | 2:21.21 | 259012 | 269607
19 | 59:54.58 | 5:49.72 | 269608 | 295854
20 | 65:44.55 | 3:21.51 | 295855 | 310980
21 | 69:06.31 | 2:26.44 | 310981 | 321974
22 | 71:33.00 | 4:09.17 | 321975 | 340666
23 | 75:42.17 | 3:12.67 | 340667 | 355133
24 | 78:55.09 | 4:23.69 | 355134 | 374927


Range status and errors

Selected range

Filename C:\Users\Alex\Desktop\ALLexxess\Spirit\2018 It Shall Be (5CD Box Set Esoteric Records)\CD2\Sprit - It Shall Be CD2.wav

Peak level 99.4 %
Extraction speed 8.5 X
Range quality 100.0 %
Test CRC 799EF46A
Copy CRC 799EF46A
Copy OK

No errors occurred


AccurateRip summary

Track 1 accurately ripped (confidence 2) [866629D9] (AR v2)
Track 2 accurately ripped (confidence 2) [954BA0AA] (AR v2)
Track 3 accurately ripped (confidence 2) [42CBD0F3] (AR v2)
Track 4 accurately ripped (confidence 2) [90F9AA4C] (AR v2)
Track 5 accurately ripped (confidence 2) [2EC30C4C] (AR v2)
Track 6 accurately ripped (confidence 2) [E8EBDC38] (AR v2)
Track 7 accurately ripped (confidence 2) [05B4FA89] (AR v2)
Track 8 accurately ripped (confidence 2) [F7E313EB] (AR v2)
Track 9 accurately ripped (confidence 2) [96C6EB28] (AR v2)
Track 10 accurately ripped (confidence 2) [92AC1162] (AR v2)
Track 11 accurately ripped (confidence 2) [F86B0B42] (AR v2)
Track 12 accurately ripped (confidence 2) [EA4CB7C5] (AR v2)
Track 13 accurately ripped (confidence 2) [D6BADE33] (AR v2)
Track 14 accurately ripped (confidence 2) [4BDA0230] (AR v2)
Track 15 accurately ripped (confidence 2) [EFF3BEA6] (AR v2)
Track 16 accurately ripped (confidence 2) [93FF208C] (AR v2)
Track 17 accurately ripped (confidence 2) [2D24E23B] (AR v2)
Track 18 accurately ripped (confidence 2) [16777A5F] (AR v2)
Track 19 accurately ripped (confidence 2) [77F4650E] (AR v2)
Track 20 accurately ripped (confidence 2) [A49E5F4C] (AR v2)
Track 21 accurately ripped (confidence 2) [5A83A5D5] (AR v2)
Track 22 accurately ripped (confidence 2) [5FDBD969] (AR v2)
Track 23 accurately ripped (confidence 2) [B030273F] (AR v2)
Track 24 accurately ripped (confidence 2) [535498DE] (AR v2)

All tracks accurately ripped

End of status report

–– CUETools DB Plugin V2.1.6

[CTDB TOCID: rbYS8DJslZtNxX2tmJJXWtrlRAY-] found
Submit result: rbYS8DJslZtNxX2tmJJXWtrlRAY- has been confirmed
Track | CTDB Status
1 | (9/9) Accurately ripped
2 | (9/9) Accurately ripped
3 | (9/9) Accurately ripped
4 | (9/9) Accurately ripped
5 | (9/9) Accurately ripped
6 | (9/9) Accurately ripped
7 | (9/9) Accurately ripped
8 | (9/9) Accurately ripped
9 | (9/9) Accurately ripped
10 | (9/9) Accurately ripped
11 | (9/9) Accurately ripped
12 | (9/9) Accurately ripped
13 | (9/9) Accurately ripped
14 | (9/9) Accurately ripped
15 | (9/9) Accurately ripped
16 | (9/9) Accurately ripped
17 | (9/9) Accurately ripped
18 | (9/9) Accurately ripped
19 | (9/9) Accurately ripped
20 | (9/9) Accurately ripped
21 | (9/9) Accurately ripped
22 | (9/9) Accurately ripped
23 | (9/9) Accurately ripped
24 | (9/9) Accurately ripped


==== Log checksum AA0742E2C95C649E9D6183F5FDA280B9EFD2C595BA93FE497636FBDA8A90A355 ====


[CUETools log; Date: 13.07.2018 2:07:54; Version: 2.1.5]
[CTDB TOCID: rbYS8DJslZtNxX2tmJJXWtrlRAY-] found.
Track | CTDB Status
1 | (13/13) Accurately ripped
2 | (13/13) Accurately ripped
3 | (13/13) Accurately ripped
4 | (13/13) Accurately ripped
5 | (13/13) Accurately ripped
6 | (13/13) Accurately ripped
7 | (13/13) Accurately ripped
8 | (13/13) Accurately ripped
9 | (13/13) Accurately ripped
10 | (13/13) Accurately ripped
11 | (13/13) Accurately ripped
12 | (13/13) Accurately ripped
13 | (13/13) Accurately ripped
14 | (13/13) Accurately ripped
15 | (13/13) Accurately ripped
16 | (13/13) Accurately ripped
17 | (13/13) Accurately ripped
18 | (13/13) Accurately ripped
19 | (13/13) Accurately ripped
20 | (13/13) Accurately ripped
21 | (13/13) Accurately ripped
22 | (13/13) Accurately ripped
23 | (13/13) Accurately ripped
24 | (13/13) Accurately ripped
[AccurateRip ID: 00444d2f-04b5b23d-95138718] found.
Track [ CRC | V2 ] Status
01 [e385212f|866629d9] (00+13/13) Accurately ripped
02 [c7689b19|954ba0aa] (00+13/13) Accurately ripped
03 [0502d734|42cbd0f3] (00+13/13) Accurately ripped
04 [3faa5156|90f9aa4c] (00+13/13) Accurately ripped
05 [911a979d|2ec30c4c] (00+13/13) Accurately ripped
06 [ae7cdc51|e8ebdc38] (00+13/13) Accurately ripped
07 [c424c9a2|05b4fa89] (00+13/13) Accurately ripped
08 [33ffa794|f7e313eb] (00+13/13) Accurately ripped
09 [35e41388|96c6eb28] (00+13/13) Accurately ripped
10 [cfca09bd|92ac1162] (00+13/13) Accurately ripped
11 [94e15aed|f86b0b42] (00+13/13) Accurately ripped
12 [90d82995|ea4cb7c5] (00+13/13) Accurately ripped
13 [f697b54b|d6bade33] (00+13/13) Accurately ripped
14 [945e7d48|4bda0230] (00+13/13) Accurately ripped
15 [372e9001|eff3bea6] (00+13/13) Accurately ripped
16 [2a5cdbf2|93ff208c] (00+13/13) Accurately ripped
17 [5164be3b|2d24e23b] (00+13/13) Accurately ripped
18 [2fedf3be|16777a5f] (00+13/13) Accurately ripped
19 [3559b008|77f4650e] (00+13/13) Accurately ripped
20 [673fe141|a49e5f4c] (00+13/13) Accurately ripped
21 [7d624dc7|5a83a5d5] (00+13/13) Accurately ripped
22 [11827d0a|5fdbd969] (00+13/13) Accurately ripped
23 [6f01165c|b030273f] (00+12/12) Accurately ripped
24 [db379199|535498de] (00+12/12) Accurately ripped

Track Peak [ CRC32 ] [W/O NULL] [ LOG ]
– 99,4 [799EF46A] [28870488] CRC32
01 85,9 [10E5529D] [5D567411]
02 99,4 [877B88CF] [803F82FE]
03 96,3 [BDE7D650] [FC4504B7]
04 99,4 [065D848A] [CB8562C9]
05 91,1 [8EA5FDA5] [5E1FCCC6]
06 92,4 [796F12EC] [BC52A772]
07 80,3 [E20AE69F] [DFA60B8C]
08 92,3 [206FDA08] [E566A3F2]
09 99,4 [26E4FEEE] [3A4008F4]
10 99,4 [01167F21] [79374478]
11 99,4 [51051754] [1E0656B4]
12 99,4 [D0952D85] [B1CD64E3]
13 97,1 [F7CF44CF] [F8CD1891]
14 97,1 [567CE89B] [20C660DD]
15 97,1 [85CB6C39] [9D5D9AC0]
16 97,1 [3BE80A65] [553F4796]
17 81,1 [77A5E32D] [0693C9CA]
18 97,1 [64691EC5] [8F6F5C61]
19 97,1 [DF3A4486] [08710D5C]
20 97,1 [51526656] [A1F536A2]
21 97,1 [FAC98742] [1AE01C15]
22 70,2 [E488B5EE] [59D34804]
23 97,1 [1F348985] [A8D581EE]
24 97,1 [9841AB48] [02844B10]


Spirit - It Shall Be: Ode & Epic Recordings 1968-1972 (2018) [5CD Box Set] Re-up

Tracklist CD3:

Taken From The Album 'The Twelve Dreams
Of Doctor Sardonicus' Released In 1970
01 Prelude - Nothing To Hide
02 Nature's Way
03 Animal Zoo
04 Love Has Found A Way
05 Why Can't I Be Free?
06 Mr Skin
07 Space Child
08 When I Touch You
09 Street Worm
10 Life Has Just Begun
11 Morning Will Come
12 Soldier
Recorded In 1970 During Sessions For
'The Twelve Dreams Of Doctor Sardonicus'
13 Rougher Road
Taken From The Album 'Feedback'
Released In 1972
14 Chelsea Girls
15 Cadillac Cowboys
16 Puesta Del Scam
17 Ripe And Ready
18 Darkness
19 Earth Shaker
20 Mellow Morning
21 Right On Time
22 Trancas Fog-Out
23 Witch

Exact Audio Copy V1.3 from 2. September 2016

EAC extraction logfile from 1. May 2018, 15:27

Spirit / It Shall Be CD3

Used drive : PLEXTOR BD-R PX-B950SA Adapter: 1 ID: 1

Read mode : Secure
Utilize accurate stream : Yes
Defeat audio cache : Yes
Make use of C2 pointers : No

Read offset correction : 6
Overread into Lead-In and Lead-Out : No
Fill up missing offset samples with silence : Yes
Delete leading and trailing silent blocks : No
Null samples used in CRC calculations : Yes
Used interface : Native Win32 interface for Win NT & 2000

Used output format : Internal WAV Routines
Sample format : 44.100 Hz; 16 Bit; Stereo


TOC of the extracted CD

Track | Start | Length | Start sector | End sector
––––––––––––––––––––––––––––-
1 | 0:00.00 | 3:43.71 | 0 | 16795
2 | 3:43.71 | 2:40.14 | 16796 | 28809
3 | 6:24.10 | 3:10.59 | 28810 | 43118
4 | 9:34.69 | 2:42.09 | 43119 | 55277
5 | 12:17.03 | 1:05.28 | 55278 | 60180
6 | 13:22.31 | 4:01.14 | 60181 | 78269
7 | 17:23.45 | 3:25.26 | 78270 | 93670
8 | 20:48.71 | 5:37.22 | 93671 | 118967
9 | 26:26.18 | 3:43.26 | 118968 | 135718
10 | 30:09.44 | 3:29.63 | 135719 | 151456
11 | 33:39.32 | 2:50.69 | 151457 | 164275
12 | 36:30.26 | 2:47.30 | 164276 | 176830
13 | 39:17.56 | 3:21.06 | 176831 | 191911
14 | 42:38.62 | 3:29.08 | 191912 | 207594
15 | 46:07.70 | 3:37.71 | 207595 | 223940
16 | 49:45.66 | 2:01.74 | 223941 | 233089
17 | 51:47.65 | 3:52.49 | 233090 | 250538
18 | 55:40.39 | 4:47.61 | 250539 | 272124
19 | 60:28.25 | 3:54.48 | 272125 | 289722
20 | 64:22.73 | 2:22.19 | 289723 | 300391
21 | 66:45.17 | 2:47.41 | 300392 | 312957
22 | 69:32.58 | 2:37.08 | 312958 | 324740
23 | 72:09.66 | 5:21.03 | 324741 | 348818


Range status and errors

Selected range

Filename C:\Users\Alex\Desktop\Lossless Galaxy ALLexxess\Spirit\2018 It Shall Be (5CD Box Set Esoteric Records)\CD3\Spirit - It Shall Be CD3.wav

Peak level 99.4 %
Extraction speed 8.3 X
Range quality 100.0 %
Test CRC A8460AC7
Copy CRC A8460AC7
Copy OK

No errors occurred


AccurateRip summary

Track 1 accurately ripped (confidence 2) [72B91B0D] (AR v2)
Track 2 accurately ripped (confidence 2) [0235FEC3] (AR v2)
Track 3 accurately ripped (confidence 2) [813A7B87] (AR v2)
Track 4 accurately ripped (confidence 2) [CDB0F05D] (AR v2)
Track 5 accurately ripped (confidence 2) [F19509C3] (AR v2)
Track 6 accurately ripped (confidence 2) [D41CA099] (AR v2)
Track 7 accurately ripped (confidence 2) [76EB24EF] (AR v2)
Track 8 accurately ripped (confidence 2) [4C201F70] (AR v2)
Track 9 accurately ripped (confidence 2) [90B94623] (AR v2)
Track 10 accurately ripped (confidence 2) [6C56C876] (AR v2)
Track 11 accurately ripped (confidence 2) [A15C964F] (AR v2)
Track 12 accurately ripped (confidence 2) [E83030CA] (AR v2)
Track 13 accurately ripped (confidence 2) [95AE5CCD] (AR v2)
Track 14 accurately ripped (confidence 2) [CF952AD8] (AR v2)
Track 15 accurately ripped (confidence 2) [D8A60BAE] (AR v2)
Track 16 accurately ripped (confidence 2) [59560E6C] (AR v2)
Track 17 accurately ripped (confidence 2) [1634D3FB] (AR v2)
Track 18 accurately ripped (confidence 2) [1DC8882E] (AR v2)
Track 19 accurately ripped (confidence 2) [D4CB33EB] (AR v2)
Track 20 accurately ripped (confidence 2) [EF6923F8] (AR v2)
Track 21 accurately ripped (confidence 2) [59AB3DA9] (AR v2)
Track 22 accurately ripped (confidence 2) [FDCBAC14] (AR v2)
Track 23 accurately ripped (confidence 2) [A6227ABF] (AR v2)

All tracks accurately ripped

End of status report

–– CUETools DB Plugin V2.1.6

[CTDB TOCID: St6NbfqOgf1W04JMavSKCudakJw-] found
Submit result: St6NbfqOgf1W04JMavSKCudakJw- has been confirmed
Track | CTDB Status
1 | (8/8) Accurately ripped
2 | (8/8) Accurately ripped
3 | (8/8) Accurately ripped
4 | (8/8) Accurately ripped
5 | (8/8) Accurately ripped
6 | (8/8) Accurately ripped
7 | (8/8) Accurately ripped
8 | (8/8) Accurately ripped
9 | (8/8) Accurately ripped
10 | (8/8) Accurately ripped
11 | (8/8) Accurately ripped
12 | (8/8) Accurately ripped
13 | (8/8) Accurately ripped
14 | (8/8) Accurately ripped
15 | (8/8) Accurately ripped
16 | (8/8) Accurately ripped
17 | (8/8) Accurately ripped
18 | (8/8) Accurately ripped
19 | (8/8) Accurately ripped
20 | (8/8) Accurately ripped
21 | (8/8) Accurately ripped
22 | (8/8) Accurately ripped
23 | (8/8) Accurately ripped


==== Log checksum C22A291A4A45852C212E9BC23E29FA66F06E24BD37488964A628EA48DE576C92 ====


[CUETools log; Date: 13.07.2018 2:08:28; Version: 2.1.5]
[CTDB TOCID: St6NbfqOgf1W04JMavSKCudakJw-] found.
Track | CTDB Status
1 | (13/13) Accurately ripped
2 | (13/13) Accurately ripped
3 | (13/13) Accurately ripped
4 | (13/13) Accurately ripped
5 | (13/13) Accurately ripped
6 | (13/13) Accurately ripped
7 | (13/13) Accurately ripped
8 | (13/13) Accurately ripped
9 | (13/13) Accurately ripped
10 | (13/13) Accurately ripped
11 | (13/13) Accurately ripped
12 | (13/13) Accurately ripped
13 | (13/13) Accurately ripped
14 | (13/13) Accurately ripped
15 | (13/13) Accurately ripped
16 | (13/13) Accurately ripped
17 | (13/13) Accurately ripped
18 | (13/13) Accurately ripped
19 | (13/13) Accurately ripped
20 | (13/13) Accurately ripped
21 | (13/13) Accurately ripped
22 | (13/13) Accurately ripped
23 | (13/13) Accurately ripped
[AccurateRip ID: 003e3e6b-04146794-46122a17] found.
Track [ CRC | V2 ] Status
01 [af39d724|72b91b0d] (00+12/12) Accurately ripped
02 [67047727|0235fec3] (00+12/12) Accurately ripped
03 [7c6858eb|813a7b87] (00+12/12) Accurately ripped
04 [66bd6f54|cdb0f05d] (00+12/12) Accurately ripped
05 [a855058a|f19509c3] (00+12/12) Accurately ripped
06 [5726ba4e|d41ca099] (00+12/12) Accurately ripped
07 [8886aa12|76eb24ef] (00+12/12) Accurately ripped
08 [dfaff181|4c201f70] (00+12/12) Accurately ripped
09 [b7c02a7c|90b94623] (00+12/12) Accurately ripped
10 [eff1d7fe|6c56c876] (00+12/12) Accurately ripped
11 [9e00c95f|a15c964f] (00+12/12) Accurately ripped
12 [ecc19afd|e83030ca] (00+12/12) Accurately ripped
13 [e85770e8|95ae5ccd] (00+12/12) Accurately ripped
14 [54c988f2|cf952ad8] (00+12/12) Accurately ripped
15 [3ac737ca|d8a60bae] (00+12/12) Accurately ripped
16 [da935d68|59560e6c] (00+12/12) Accurately ripped
17 [eb7415b7|1634d3fb] (00+12/12) Accurately ripped
18 [ac5ad370|1dc8882e] (00+12/12) Accurately ripped
19 [8ad1e3ed|d4cb33eb] (00+12/12) Accurately ripped
20 [7f9e6a04|ef6923f8] (00+12/12) Accurately ripped
21 [11e41770|59ab3da9] (00+12/12) Accurately ripped
22 [e9e6e2f9|fdcbac14] (00+12/12) Accurately ripped
23 [349d0b80|a6227abf] (00+12/12) Accurately ripped

Track Peak [ CRC32 ] [W/O NULL] [ LOG ]
– 99,4 [A8460AC7] [3335C2F2] CRC32
01 99,4 [B9758F99] [B074482C]
02 99,4 [278A79BE] [7E9D9C00]
03 99,4 [D9FAE8FD] [B95E848E]
04 99,4 [11B35C72] [F7541000]
05 99,2 [4B953D4E] [CD8127EA]
06 99,4 [5B1C5FCE] [0F94D6D1]
07 99,4 [EEB4E0AB] [C133436C]
08 99,3 [D2D13FA3] [7A224094]
09 99,4 [65D7FF12] [C71B2556]
10 99,4 [4627D2A2] [733A8820]
11 98,7 [9F5BB3B8] [69482354]
12 99,4 [C69FA59D] [70DDD809]
13 93,7 [A488ACAB] [78A73C03]
14 99,4 [745A5080] [54A23B92]
15 99,4 [E6B624EB] [18E384D7]
16 99,4 [A5E819CA] [ABE54C53]
17 99,4 [0174D20E] [6B5D93B8]
18 99,4 [4BBE2AE2] [20EEBE41]
19 99,4 [9754D2C8] [27993627]
20 87,2 [F90BAE4D] [C4AAD117]
21 99,4 [89949191] [66328E2F]
22 99,2 [205086DE] [D2AD1E35]
23 99,4 [CD682D43] [891C7A70]


Spirit - It Shall Be: Ode & Epic Recordings 1968-1972 (2018) [5CD Box Set] Re-up

Tracklist CD4:

Taken From The Mono Album 'Spirit'
Released In 1968 Previously Unreleased On CD
01 Fresh Garbage
02 Uncle Jack
03 Mechanical World
04 Taurus
05 Girl In Your Eye
06 Straight Arrow
07 Topanga Windows
08 Gramophone Man
09 Water Woman
10 The Great Canyon Fire In General
11 Elijah
Recorded In 1968 During Sessions For 'Spirit'
12 Veruska
13 Free Spirit
14 If I Had A Woman
15 Elijah (Alternate Take 2)
Taken The 1991 Compilation From 'Time Circle'
16 I Got A Line On You
17 It Shall Be
18 Poor Richard
19 Silky Sam

Exact Audio Copy V1.3 from 2. September 2016

EAC extraction logfile from 1. May 2018, 14:49

Spirit / It Shall Be CD4

Used drive : PLEXTOR BD-R PX-B950SA Adapter: 1 ID: 1

Read mode : Secure
Utilize accurate stream : Yes
Defeat audio cache : Yes
Make use of C2 pointers : No

Read offset correction : 6
Overread into Lead-In and Lead-Out : No
Fill up missing offset samples with silence : Yes
Delete leading and trailing silent blocks : No
Null samples used in CRC calculations : Yes
Used interface : Native Win32 interface for Win NT & 2000

Used output format : Internal WAV Routines
Sample format : 44.100 Hz; 16 Bit; Stereo


TOC of the extracted CD

Track | Start | Length | Start sector | End sector
––––––––––––––––––––––––––––-
1 | 0:00.00 | 3:12.34 | 0 | 14433
2 | 3:12.34 | 2:44.73 | 14434 | 26806
3 | 5:57.32 | 5:13.19 | 26807 | 50300
4 | 11:10.51 | 2:35.46 | 50301 | 61971
5 | 13:46.22 | 3:06.64 | 61972 | 75985
6 | 16:53.11 | 2:49.43 | 75986 | 88703
7 | 19:42.54 | 3:32.01 | 88704 | 104604
8 | 23:14.55 | 3:51.71 | 104605 | 122000
9 | 27:06.51 | 2:08.71 | 122001 | 131671
10 | 29:15.47 | 2:47.21 | 131672 | 144217
11 | 32:02.68 | 10:44.51 | 144218 | 192568
12 | 42:47.44 | 2:51.29 | 192569 | 205422
13 | 45:38.73 | 4:27.57 | 205423 | 225504
14 | 50:06.55 | 3:12.73 | 225505 | 239977
15 | 53:19.53 | 9:42.73 | 239978 | 283700
16 | 63:02.51 | 2:48.44 | 283701 | 296344
17 | 65:51.20 | 3:28.47 | 296345 | 311991
18 | 69:19.67 | 2:29.11 | 311992 | 323177
19 | 71:49.03 | 4:12.10 | 323178 | 342087


Range status and errors

Selected range

Filename C:\Users\Alex\Desktop\ALLexxess\Spirit\2018 It Shall Be (5CD Box Set Esoteric Records)\CD4\Spirit - It Shall Be CD4.wav

Peak level 99.4 %
Extraction speed 8.3 X
Range quality 100.0 %
Test CRC 6CC3752C
Copy CRC 6CC3752C
Copy OK

No errors occurred


AccurateRip summary

Track 1 accurately ripped (confidence 2) [6DCBF216] (AR v2)
Track 2 accurately ripped (confidence 2) [40A2B006] (AR v2)
Track 3 accurately ripped (confidence 2) [827C86A0] (AR v2)
Track 4 accurately ripped (confidence 2) [D0E26A8A] (AR v2)
Track 5 accurately ripped (confidence 2) [454252DD] (AR v2)
Track 6 accurately ripped (confidence 2) [5ED6330A] (AR v2)
Track 7 accurately ripped (confidence 2) [10FFB0CD] (AR v2)
Track 8 accurately ripped (confidence 2) [76622A5E] (AR v2)
Track 9 accurately ripped (confidence 2) [03BA970D] (AR v2)
Track 10 accurately ripped (confidence 2) [17CEF28E] (AR v2)
Track 11 accurately ripped (confidence 2) [CCFCEDA8] (AR v2)
Track 12 accurately ripped (confidence 2) [68706A64] (AR v2)
Track 13 accurately ripped (confidence 2) [5E18C852] (AR v2)
Track 14 accurately ripped (confidence 2) [E5CBEB73] (AR v2)
Track 15 accurately ripped (confidence 2) [216E07CA] (AR v2)
Track 16 accurately ripped (confidence 2) [2AAB7C15] (AR v2)
Track 17 accurately ripped (confidence 2) [8B64107B] (AR v2)
Track 18 accurately ripped (confidence 2) [DC9A6336] (AR v2)
Track 19 accurately ripped (confidence 2) [1444548C] (AR v2)

All tracks accurately ripped

End of status report

–– CUETools DB Plugin V2.1.6

[CTDB TOCID: 5UrWC7rcBVJCHO8ZHkmvp1OsApk-] found
Submit result: 5UrWC7rcBVJCHO8ZHkmvp1OsApk- has been confirmed
Track | CTDB Status
1 | (7/7) Accurately ripped
2 | (7/7) Accurately ripped
3 | (7/7) Accurately ripped
4 | (7/7) Accurately ripped
5 | (7/7) Accurately ripped
6 | (7/7) Accurately ripped
7 | (7/7) Accurately ripped
8 | (7/7) Accurately ripped
9 | (7/7) Accurately ripped
10 | (7/7) Accurately ripped
11 | (7/7) Accurately ripped
12 | (7/7) Accurately ripped
13 | (7/7) Accurately ripped
14 | (7/7) Accurately ripped
15 | (7/7) Accurately ripped
16 | (7/7) Accurately ripped
17 | (7/7) Accurately ripped
18 | (7/7) Accurately ripped
19 | (7/7) Accurately ripped


==== Log checksum 1F5116B484FFE03232E351F37C3089419E2D9686F53863F81635E748CE194149 ====


[CUETools log; Date: 13.07.2018 2:08:47; Version: 2.1.5]
[CTDB TOCID: 5UrWC7rcBVJCHO8ZHkmvp1OsApk-] found.
Track | CTDB Status
1 | (11/11) Accurately ripped
2 | (11/11) Accurately ripped
3 | (11/11) Accurately ripped
4 | (11/11) Accurately ripped
5 | (11/11) Accurately ripped
6 | (11/11) Accurately ripped
7 | (11/11) Accurately ripped
8 | (11/11) Accurately ripped
9 | (11/11) Accurately ripped
10 | (11/11) Accurately ripped
11 | (11/11) Accurately ripped
12 | (11/11) Accurately ripped
13 | (11/11) Accurately ripped
14 | (11/11) Accurately ripped
15 | (11/11) Accurately ripped
16 | (11/11) Accurately ripped
17 | (11/11) Accurately ripped
18 | (11/11) Accurately ripped
19 | (11/11) Accurately ripped
[AccurateRip ID: 00317607-02c4beb7-1311d113] found.
Track [ CRC | V2 ] Status
01 [55747e75|6dcbf216] (00+11/11) Accurately ripped
02 [3c506b9c|40a2b006] (00+11/11) Accurately ripped
03 [420c2eec|827c86a0] (00+11/11) Accurately ripped
04 [9ea8db10|d0e26a8a] (00+11/11) Accurately ripped
05 [d95f3028|454252dd] (00+11/11) Accurately ripped
06 [25ae0a5d|5ed6330a] (00+11/11) Accurately ripped
07 [6bb3f7f1|10ffb0cd] (00+11/11) Accurately ripped
08 [c62fbd1a|76622a5e] (00+11/11) Accurately ripped
09 [7527219c|03ba970d] (00+11/11) Accurately ripped
10 [5d8f78c5|17cef28e] (00+11/11) Accurately ripped
11 [1a8b17a1|ccfceda8] (00+11/11) Accurately ripped
12 [b30e5919|68706a64] (00+11/11) Accurately ripped
13 [7e03105f|5e18c852] (00+11/11) Accurately ripped
14 [f3d865d7|e5cbeb73] (00+11/11) Accurately ripped
15 [5ad6ac0c|216e07ca] (00+11/11) Accurately ripped
16 [5af3de1c|2aab7c15] (00+11/11) Accurately ripped
17 [a0cde701|8b64107b] (00+11/11) Accurately ripped
18 [db3407a6|dc9a6336] (00+11/11) Accurately ripped
19 [3982de73|1444548c] (00+11/11) Accurately ripped

Track Peak [ CRC32 ] [W/O NULL] [ LOG ]
– 99,4 [6CC3752C] [A56EBD48] CRC32
01 99,4 [CCA7995D] [5D799F86]
02 98,5 [12090511] [B04C2838]
03 98,9 [A5BAA845] [85F38C00]
04 79,7 [FA4A9AC2] [F14147B0]
05 95,0 [14509ECF] [3F526813]
06 99,0 [CE2D64EA] [8B105AB9]
07 98,5 [DB50AB8E] [D62AAF48]
08 98,6 [01047BB2] [6BB595D3]
09 96,0 [F6EB8D7A] [E021EA8D]
10 98,9 [962C0538] [D2683FFE]
11 99,4 [7156C26F] [34A8A10F]
12 99,4 [17843406] [86CE869E]
13 99,4 [F1BBB24F] [AD90F71C]
14 99,4 [DC2EE1F4] [A9BB1A8B]
15 99,4 [6EAC8C18] [901703B6]
16 99,4 [868B2B3D] [92EEA2A0]
17 84,5 [441DA2E4] [DB9D75C5]
18 99,4 [2CB029DA] [B52C8658]
19 99,4 [65685D85] [6E113184]


Spirit - It Shall Be: Ode & Epic Recordings 1968-1972 (2018) [5CD Box Set] Re-up

Tracklist CD5:

Taken The 1991 Compilation From 'Time Circle'
01 Scherozode
02 All The Same
03 A Dream Within A Dream
04 Aren't You Glad
05 Eventide
06 Model Shop Theme
07 Green Gorilla
08 Rehearsal Theme
Recorded In 1968 During Sessions For
'The Family That Plays Together'
09 Fog
10 So Little To Say
11 Mellow Fellow
12 Now Or Anywhere
13 Space Chile
Recorded In 1969 During Sessions For 'Clear'
14 Fuller Brush Man
15 Coral
A & B-Sides Of Singles / Released 1970
16 1984
17 Sweet Stella Baby
18 Animal Zoo (Mono Single Version)
19 Red Light Roll On
Recorded And Mixed 1970
20 Morning Will Come (Mono Mix)

Exact Audio Copy V1.3 from 2. September 2016

EAC extraction logfile from 1. May 2018, 9:35

Spirit / It Shall Be CD5

Used drive : PLEXTOR BD-R PX-B950SA Adapter: 1 ID: 1

Read mode : Secure
Utilize accurate stream : Yes
Defeat audio cache : Yes
Make use of C2 pointers : No

Read offset correction : 6
Overread into Lead-In and Lead-Out : No
Fill up missing offset samples with silence : Yes
Delete leading and trailing silent blocks : No
Null samples used in CRC calculations : Yes
Used interface : Native Win32 interface for Win NT & 2000

Used output format : Internal WAV Routines
Sample format : 44.100 Hz; 16 Bit; Stereo


TOC of the extracted CD

Track | Start | Length | Start sector | End sector
––––––––––––––––––––––––––––-
1 | 0:00.00 | 2:13.36 | 0 | 10010
2 | 2:13.36 | 4:41.23 | 10011 | 31108
3 | 6:54.59 | 3:01.57 | 31109 | 44740
4 | 9:56.41 | 5:35.46 | 44741 | 69911
5 | 15:32.12 | 4:22.25 | 69912 | 89586
6 | 19:54.37 | 2:58.29 | 89587 | 102965
7 | 22:52.66 | 2:19.28 | 102966 | 113418
8 | 25:12.19 | 1:14.68 | 113419 | 119036
9 | 26:27.12 | 2:26.50 | 119037 | 130036
10 | 28:53.62 | 3:01.15 | 130037 | 143626
11 | 31:55.02 | 3:49.63 | 143627 | 160864
12 | 35:44.65 | 4:23.32 | 160865 | 180621
13 | 40:08.22 | 6:26.03 | 180622 | 209574
14 | 46:34.25 | 3:21.03 | 209575 | 224652
15 | 49:55.28 | 2:04.60 | 224653 | 234012
16 | 52:00.13 | 3:39.28 | 234013 | 250465
17 | 55:39.41 | 2:58.63 | 250466 | 263878
18 | 58:38.29 | 3:05.51 | 263879 | 277804
19 | 61:44.05 | 5:44.45 | 277805 | 303649
20 | 67:28.50 | 2:50.51 | 303650 | 316450


Range status and errors

Selected range

Filename C:\Users\Alex\Desktop\ALLexxess\Spirit\2018 It Shall Be (5CD Box Set Esoteric Records)\CD5\Spirit - It Shall Be CD5.wav

Peak level 99.4 %
Extraction speed 6.1 X
Range quality 99.9 %
Test CRC BF43B406
Copy CRC BF43B406
Copy OK

No errors occurred


AccurateRip summary

Track 1 accurately ripped (confidence 2) [5CE77496] (AR v2)
Track 2 accurately ripped (confidence 2) [0EAAD8AF] (AR v2)
Track 3 accurately ripped (confidence 2) [0C8FCAAB] (AR v2)
Track 4 accurately ripped (confidence 2) [4EEDED37] (AR v2)
Track 5 accurately ripped (confidence 2) [9FF7D5E0] (AR v2)
Track 6 accurately ripped (confidence 2) [28B31493] (AR v2)
Track 7 accurately ripped (confidence 2) [0F34C0DF] (AR v2)
Track 8 accurately ripped (confidence 2) [C4FB25FA] (AR v2)
Track 9 accurately ripped (confidence 2) [A8C0A50A] (AR v2)
Track 10 accurately ripped (confidence 2) [70E8E2AB] (AR v2)
Track 11 accurately ripped (confidence 2) [67C40F23] (AR v2)
Track 12 accurately ripped (confidence 2) [E789CDE3] (AR v2)
Track 13 accurately ripped (confidence 2) [38E3FDEC] (AR v2)
Track 14 accurately ripped (confidence 2) [27732E25] (AR v2)
Track 15 accurately ripped (confidence 2) [9F8B971A] (AR v2)
Track 16 accurately ripped (confidence 2) [45D5A084] (AR v2)
Track 17 accurately ripped (confidence 2) [BB50FC70] (AR v2)
Track 18 accurately ripped (confidence 2) [3DD0E316] (AR v2)
Track 19 accurately ripped (confidence 2) [FE88D943] (AR v2)
Track 20 accurately ripped (confidence 2) [4AD501AA] (AR v2)

All tracks accurately ripped

End of status report

–– CUETools DB Plugin V2.1.6

[CTDB TOCID: M2M8mcX_coKMynTCh2dKZO9TE2A-] found
Submit result: M2M8mcX_coKMynTCh2dKZO9TE2A- has been confirmed
Track | CTDB Status
1 | (8/8) Accurately ripped
2 | (8/8) Accurately ripped
3 | (8/8) Accurately ripped
4 | (8/8) Accurately ripped
5 | (8/8) Accurately ripped
6 | (8/8) Accurately ripped
7 | (8/8) Accurately ripped
8 | (8/8) Accurately ripped
9 | (8/8) Accurately ripped
10 | (8/8) Accurately ripped
11 | (8/8) Accurately ripped
12 | (8/8) Accurately ripped
13 | (8/8) Accurately ripped
14 | (8/8) Accurately ripped
15 | (8/8) Accurately ripped
16 | (8/8) Accurately ripped
17 | (8/8) Accurately ripped
18 | (8/8) Accurately ripped
19 | (8/8) Accurately ripped
20 | (8/8) Accurately ripped


==== Log checksum 3C634B47D6C37BD9554C3588FAD987F8F9683C6A99CFD924109838D98F59B93A ====


[CUETools log; Date: 13.07.2018 2:09:18; Version: 2.1.5]
[CTDB TOCID: M2M8mcX_coKMynTCh2dKZO9TE2A-] found.
Track | CTDB Status
1 | (12/12) Accurately ripped
2 | (12/12) Accurately ripped
3 | (12/12) Accurately ripped
4 | (12/12) Accurately ripped
5 | (12/12) Accurately ripped
6 | (12/12) Accurately ripped
7 | (12/12) Accurately ripped
8 | (12/12) Accurately ripped
9 | (12/12) Accurately ripped
10 | (12/12) Accurately ripped
11 | (12/12) Accurately ripped
12 | (12/12) Accurately ripped
13 | (12/12) Accurately ripped
14 | (12/12) Accurately ripped
15 | (12/12) Accurately ripped
16 | (12/12) Accurately ripped
17 | (12/12) Accurately ripped
18 | (12/12) Accurately ripped
19 | (12/12) Accurately ripped
20 | (12/12) Accurately ripped
[AccurateRip ID: 0031fe89-02ddcc1b-1e107b14] found.
Track [ CRC | V2 ] Status
01 [846723d6|5ce77496] (00+11/11) Accurately ripped
02 [40b0ba57|0eaad8af] (00+11/11) Accurately ripped
03 [cd36b8ad|0c8fcaab] (00+11/11) Accurately ripped
04 [8d47167e|4eeded37] (00+11/11) Accurately ripped
05 [c1f7d45e|9ff7d5e0] (00+11/11) Accurately ripped
06 [eb73e82e|28b31493] (00+11/11) Accurately ripped
07 [e4887806|0f34c0df] (00+11/11) Accurately ripped
08 [dc248b9b|c4fb25fa] (00+11/11) Accurately ripped
09 [d383d0cf|a8c0a50a] (00+11/11) Accurately ripped
10 [ad964712|70e8e2ab] (00+11/11) Accurately ripped
11 [f5d4295f|67c40f23] (00+11/11) Accurately ripped
12 [57ee3c0e|e789cde3] (00+11/11) Accurately ripped
13 [00b2f09c|38e3fdec] (00+11/11) Accurately ripped
14 [4d23b0c9|27732e25] (00+11/11) Accurately ripped
15 [6119e496|9f8b971a] (00+11/11) Accurately ripped
16 [436f4065|45d5a084] (00+11/11) Accurately ripped
17 [a57daff9|bb50fc70] (00+11/11) Accurately ripped
18 [957b6725|3dd0e316] (00+11/11) Accurately ripped
19 [d0ba4198|fe88d943] (00+11/11) Accurately ripped
20 [2c3478b2|4ad501aa] (00+11/11) Accurately ripped

Track Peak [ CRC32 ] [W/O NULL] [ LOG ]
– 99,4 [BF43B406] [56E2BA2A] CRC32
01 99,4 [77A6861B] [BE183417]
02 99,4 [0A441C86] [FA95B915]
03 99,4 [76DAD64E] [36D6F2AA]
04 99,4 [893A3D58] [B15EEA20]
05 99,4 [0CFC3A2E] [479F0622]
06 99,4 [8DA663D7] [33C9F217]
07 87,6 [9F628BD4] [7FED378A]
08 89,8 [DA9E422F] [0D68F61C]
09 99,4 [947C091F] [70C04576]
10 99,4 [AADF7BE2] [7F853A06]
11 99,4 [7117B1E0] [EB01BA75]
12 87,7 [0C3DF3FD] [9B01E339]
13 99,4 [86F0A929] [B3AE9E1F]
14 88,6 [B4B7F0C6] [10B32CEC]
15 88,6 [A54DD19D] [92F06E55]
16 88,6 [897DF773] [5CDC788C]
17 88,6 [CFD1D917] [1DE95C59]
18 89,7 [793AE129] [19525C3C]
19 90,6 [EB707663] [6CC74519]
20 86,9 [1A5E488D] [0B89696D]


Spirit - It Shall Be: Ode & Epic Recordings 1968-1972 (2018) [5CD Box Set] Re-up

All thanks go to ALLexxess

Spirit in my Blog

Download Spirit - It Shall Be: Ode & Epic Recordings 1968-1972 (2018):