Tags
Language
Tags
February 2023
Su Mo Tu We Th Fr Sa
29 30 31 1 2 3 4
5 6 7 8 9 10 11
12 13 14 15 16 17 18
19 20 21 22 23 24 25
26 27 28 1 2 3 4

Spirogyra - 3 Studio Albums (1971-1973) [Reissue 2013] (Re-up)

Posted By: gribovar
Spirogyra - 3 Studio Albums (1971-1973) [Reissue 2013] (Re-up)

Spirogyra - 3 Studio Albums (1971-1973) [Reissue 2013]
EAC Rip | FLAC (image+.cue+log) - 828 MB | MP3 CBR 320 kbps (LAME 3.93) - 339 MB | Covers - 551 MB
Genre: Progressive Folk Rock | RAR 3% Rec. | Label: Esoteric Recordings

Spirogyra - St. Radigunds (1971). Esoteric Recordings are pleased to announce the release of a newly remastered edition of the classic album "St. Radigunds” by Spirogyra. Initially formed by duo Martin Cockerham and Mark Francis in Bolton in 1968, the band expanded when Cockerham was a student in Canterbury at the end of 1969. The expanded line-up featured Martin Cockerham (guitar, vocals), Barbara Gaskin (lead vocals), Steve Borrill (bass) and Julian Cusack (violin, keyboards) and secured a contract with B&C Records in 1970. The band’s debut album, "St. Radigunds” was issued in 1971 and featured guest drummer Dave Mattacks and Tony Cox on VCS 3 Synthesiser. "St. Radigunds” is rightly hailed as a classic of the era and this Esoteric Recordings newly remastered edition celebrates this legendary album, featuring a booklet with new essay.

Spirogyra - Old Boot Wine (1972). Esoteric Recordings are pleased to announce the release of a newly remastered edition of the classic second album by Spirogyra, "Old Boot Wine”. In 1972 the band’s second album was released on the Pegasus label, featuring a line-up of Martin Cockerham (guitar, vocals), Barbara Gaskin (lead vocals), Mark Francis (Vocals, Guitar, Keyboards) and Steve Borrill (bass), with guest musicians Dave Mattacks (drums), Julian Cusack (violin, keyboards), Rick Biddulph (mandolin), Alan Laing (cello).
"Old Boot Wine” is a highly sought after and regarded album of the era. This Esoteric Recordings newly remastered edition celebrates this legendary album, adding four bonus tracks and featuring a booklet with new essay.

Spirogyra - Bells, Boots And Shambles (1973). Esoteric Recordings are pleased to announce the release of a newly remastered edition of the classic third album by Spirogyra, "Bells, Boots And Shambles”. In 1973 the band recorded their third album, released on Polydor Records. By this time Spirogyra had become a core of Martin Cockerham (guitar, vocals) and Barbara Gaskin (lead vocals) with Steve Borrill (bass) and guest musicians Dave Mattacks (drums), Julian Cusack (violin, keyboards), Henry Lowther (trumpet), John Boyce (cello), Stan Sulzman (flute) and Steve Ashley (whistle).
"Bells, Boots And Shambles” is a highly sought after and regarded album of the era. This Esoteric Recordings newly remastered edition celebrates this legendary album, adding a rare bonus track and featuring a booklet with new essay.

Spirogyra - 3 Studio Albums (1971-1973) [Reissue 2013] (Re-up)

Spirogyra - St. Radigunds (1971) [Reissue 2013]
EAC Rip | FLAC (image+.cue+log) - 268 MB | MP3 CBR 320 kbps (LAME 3.93) - 110 MB | Covers - 223 MB
Genre: Progressive Folk Rock | RAR 3% Rec. | Label: Esoteric Recordings (ECLEC2410)

Tracklist:
01. The Future Won’t Be Long
02. Island
03. Magical Mary
04. Captain’s Log
05. At Home In The World
06. Cogwheels, Crutches And Cyanide
07. Time Will Tell
08. We Were A Happy Crew
09. Love Is A Funny Thing
10. The Duke Of Beaufoot

Total time: 47:01

Exact Audio Copy V1.0 beta 3 from 29. August 2011

Отчёт EAC об извлечении, выполненном 1. ноября 2013, 12:09

SPIROGYRA / St. Radigunds

Дисковод: TSSTcorpCDDVDW SH-224DB Adapter: 4 ID: 1

Режим чтения : Достоверность
Использование точного потока : Да
Отключение кэша аудио : Да
Использование указателей C2 : Нет

Коррекция смещения при чтении : 6
Способность читать области Lead-in и Lead-out : Нет
Заполнение пропущенных сэмплов тишиной : Да
Удаление блоков с тишиной в начале и конце : Нет
При вычислениях CRC использовались нулевые сэмплы : Да
Интерфейс : Встроенный Win32-интерфейс для Win NT/2000

Выходной формат : Внутренние WAV-операции
Формат сэмплов : 44.100 Гц; 16 бит; стерео


TOC извлечённого CD

Трек | Старт | Длительность | Начальный сектор | Конечный сектор
––––––––––––––––––––––––––––––––––-
1 | 0:00.00 | 4:20.02 | 0 | 19501
2 | 4:20.02 | 3:42.65 | 19502 | 36216
3 | 8:02.67 | 6:20.28 | 36217 | 64744
4 | 14:23.20 | 2:08.69 | 64745 | 74413
5 | 16:32.14 | 3:06.34 | 74414 | 88397
6 | 19:38.48 | 5:55.44 | 88398 | 115066
7 | 25:34.17 | 5:38.13 | 115067 | 140429
8 | 31:12.30 | 5:32.08 | 140430 | 165337
9 | 36:44.38 | 2:10.67 | 165338 | 175154
10 | 38:55.30 | 8:05.58 | 175155 | 211587


Характеристики диапазона извлечения и сообщения об ошибках

Выбранный диапазон

Имя файла D:\TEMP\SPIROGYRA - 1971 - St. Radigunds [2013 remastered edition, Esoteric ECLEC2410].wav

Пиковый уровень 98.8 %
Скорость извлечения 2.9 X
Качество диапазона 100.0 %
CRC теста 3785271C
CRC копии 3785271C
Копирование… OK

Ошибок не произошло


AccurateRip: сводка

Трек 1 отсутствует в базе данных
Трек 2 отсутствует в базе данных
Трек 3 отсутствует в базе данных
Трек 4 отсутствует в базе данных
Трек 5 отсутствует в базе данных
Трек 6 отсутствует в базе данных
Трек 7 отсутствует в базе данных
Трек 8 отсутствует в базе данных
Трек 9 отсутствует в базе данных
Трек 10 отсутствует в базе данных

Ни одного трека нет в базе AccurateRip

Конец отчёта

[CUETools log; Date: 10.09.2020 15:37:51; Version: 2.1.4]
[CTDB TOCID: c4Bc.ZCy8o1htvUUmcAdAkuJbFY-] found.
Track | CTDB Status
1 | (9/9) Accurately ripped
2 | (9/9) Accurately ripped
3 | (9/9) Accurately ripped
4 | (9/9) Accurately ripped
5 | (9/9) Accurately ripped
6 | (9/9) Accurately ripped
7 | (9/9) Accurately ripped
8 | (9/9) Accurately ripped
9 | (9/9) Accurately ripped
10 | (9/9) Accurately ripped
[AccurateRip ID: 0010a526-00865ac7-8b0b050a] found.
Track [ CRC | V2 ] Status
01 [f49c014a|2927c85f] (0+8/8) Accurately ripped
02 [95a56fef|a7e8bc9a] (0+8/8) Accurately ripped
03 [cbf4fc8f|11e91fc6] (0+8/8) Accurately ripped
04 [48c7b759|4c210a2c] (0+8/8) Accurately ripped
05 [718c7888|8f2c1c79] (0+8/8) Accurately ripped
06 [ef33f336|b0e0b70e] (0+8/8) Accurately ripped
07 [d9028da4|d0c8ca7a] (0+8/8) Accurately ripped
08 [e2ccc7d0|1539f98e] (0+8/8) Accurately ripped
09 [d3b925bd|ef874ff0] (0+8/8) Accurately ripped
10 [b353c47a|3e52ddc4] (0+8/8) Accurately ripped

Track Peak [ CRC32 ] [W/O NULL] [ LOG ]
– 98,8 [3785271C] [A62CAD88] CRC32
01 98,8 [F6FA1EB3] [E51F10F5]
02 98,8 [A02CA416] [9A92AA6C]
03 98,8 [BA616154] [F49D080F]
04 85,9 [5683D36B] [1EB4FDCB]
05 98,8 [FAD74BB0] [6476BAB0]
06 98,8 [5A2741D4] [63522C6F]
07 98,8 [10C4BCA7] [559E9955]
08 98,8 [4A98A3AD] [74F59D0C]
09 70,8 [9EAAFE19] [D0F1D6FA]
10 98,8 [F51E9058] [E9F33B56]

Spirogyra - 3 Studio Albums (1971-1973) [Reissue 2013] (Re-up)

Spirogyra - Old Boot Wine (1972) [Reissue 2013]
EAC Rip | FLAC (image+.cue+log) - 326 MB | MP3 CBR 320 kbps (LAME 3.93) - 129 MB | Covers - 154 MB
Genre: Progressive Folk Rock | RAR 3% Rec. | Label: Esoteric Recordings (ECLEC2411)

Tracklist:
01. Dangerous Dave
02. Van Allen’s Belt
03. Runaway
04. Grandad
05. Wings Of Thunder
06. World’s Eyes
07. Don’t Let It Get You
08. Disraeli’s Problem
09. A Canterbury Tale
10. Counting The Cars (Bonus track)
11. Window (Bonus track)
12. Turn Again Lane (Bonus track)
13. Melody Maker Man (Bonus track)

Total time: 55:02

Exact Audio Copy V1.0 beta 3 from 29. August 2011

Отчёт EAC об извлечении, выполненном 1. ноября 2013, 12:54

SPIROGYRA / Old Boot Wine

Дисковод: TSSTcorpCDDVDW SH-224DB Adapter: 4 ID: 1

Режим чтения : Достоверность
Использование точного потока : Да
Отключение кэша аудио : Да
Использование указателей C2 : Нет

Коррекция смещения при чтении : 6
Способность читать области Lead-in и Lead-out : Нет
Заполнение пропущенных сэмплов тишиной : Да
Удаление блоков с тишиной в начале и конце : Нет
При вычислениях CRC использовались нулевые сэмплы : Да
Интерфейс : Встроенный Win32-интерфейс для Win NT/2000

Выходной формат : Внутренние WAV-операции
Формат сэмплов : 44.100 Гц; 16 бит; стерео


TOC извлечённого CD

Трек | Старт | Длительность | Начальный сектор | Конечный сектор
––––––––––––––––––––––––––––––––––-
1 | 0:00.00 | 4:18.06 | 0 | 19355
2 | 4:18.06 | 2:51.03 | 19356 | 32183
3 | 7:09.09 | 4:59.21 | 32184 | 54629
4 | 12:08.30 | 3:27.00 | 54630 | 70154
5 | 15:35.30 | 3:13.42 | 70155 | 84671
6 | 18:48.72 | 7:36.49 | 84672 | 118920
7 | 26:25.46 | 4:30.28 | 118921 | 139198
8 | 30:55.74 | 4:20.36 | 139199 | 158734
9 | 35:16.35 | 4:12.43 | 158735 | 177677
10 | 39:29.03 | 3:06.48 | 177678 | 191675
11 | 42:35.51 | 2:11.15 | 191676 | 201515
12 | 44:46.66 | 7:35.73 | 201516 | 235713
13 | 52:22.64 | 2:39.30 | 235714 | 247668


Характеристики диапазона извлечения и сообщения об ошибках

Выбранный диапазон

Имя файла D:\TEMP\SPIROGYRA - 1972 - Old Boot Wine [2013 remastered & expanded edition, Esoteric ECLEC2411].wav

Пиковый уровень 98.8 %
Скорость извлечения 3.1 X
Качество диапазона 100.0 %
CRC теста 8A36691C
CRC копии 8A36691C
Копирование… OK

Ошибок не произошло


AccurateRip: сводка

Трек 1 отсутствует в базе данных
Трек 2 отсутствует в базе данных
Трек 3 отсутствует в базе данных
Трек 4 отсутствует в базе данных
Трек 5 отсутствует в базе данных
Трек 6 отсутствует в базе данных
Трек 7 отсутствует в базе данных
Трек 8 отсутствует в базе данных
Трек 9 отсутствует в базе данных
Трек 10 отсутствует в базе данных
Трек 11 отсутствует в базе данных
Трек 12 отсутствует в базе данных
Трек 13 отсутствует в базе данных

Ни одного трека нет в базе AccurateRip

Конец отчёта

[CUETools log; Date: 10.09.2020 15:39:12; Version: 2.1.4]
[CTDB TOCID: SykQ82rrb0XUBx.FVQJJjvKTFiw-] found.
Track | CTDB Status
1 | (5/5) Accurately ripped
2 | (5/5) Accurately ripped
3 | (5/5) Accurately ripped
4 | (5/5) Accurately ripped
5 | (5/5) Accurately ripped
6 | (5/5) Accurately ripped
7 | (5/5) Accurately ripped
8 | (5/5) Accurately ripped
9 | (5/5) Accurately ripped
10 | (5/5) Accurately ripped
11 | (5/5) Accurately ripped
12 | (5/5) Accurately ripped
13 | (5/5) Accurately ripped
[AccurateRip ID: 001a6e09-0109d7de-ae0ce60d] found.
Track [ CRC | V2 ] Status
01 [bcaa1c56|c1777739] (0+5/5) Accurately ripped
02 [be7641cc|fe920e7d] (0+5/5) Accurately ripped
03 [bdc1f281|adec7869] (0+5/5) Accurately ripped
04 [d2d6eed8|30c6bc36] (0+5/5) Accurately ripped
05 [cc4b059c|41062dff] (0+5/5) Accurately ripped
06 [0bfb481e|12470a0f] (0+5/5) Accurately ripped
07 [7d0ee132|87fee524] (0+5/5) Accurately ripped
08 [4e0a5ce1|1cca7528] (0+5/5) Accurately ripped
09 [d2cfcabd|1c42fdbd] (0+5/5) Accurately ripped
10 [454936db|05f62230] (0+5/5) Accurately ripped
11 [f6a68ac5|3da1f172] (0+5/5) Accurately ripped
12 [bc071eb5|934925ed] (0+5/5) Accurately ripped
13 [01cd5eec|3aba2d7e] (0+5/5) Accurately ripped

Track Peak [ CRC32 ] [W/O NULL] [ LOG ]
– 98,8 [8A36691C] [DA8268FC] CRC32
01 98,8 [4012F157] [11C4B18E]
02 70,8 [2CDA44F0] [F8F593EE]
03 92,2 [54254D32] [85645205]
04 75,4 [B65516BA] [F3FD3A52]
05 95,7 [0203B177] [5A2B799E]
06 98,8 [17D91CC6] [BE571563]
07 98,8 [93D7E806] [A82C39B5]
08 98,8 [8CAFC357] [D5A71B16]
09 59,3 [2B2C0CF7] [631B6690]
10 55,0 [FE1E184E] [92AA9566]
11 61,4 [94B7050F] [F559DC38]
12 73,0 [D12C4592] [01B5BEE2]
13 70,1 [0FE769DE] [1931E189]

Spirogyra - 3 Studio Albums (1971-1973) [Reissue 2013] (Re-up)

Spirogyra - Bells, Boots And Shambles (1973) [Reissue 2013]
EAC Rip | FLAC (image+.cue+log) - 234 MB | MP3 CBR 320 kbps (LAME 3.93) - 100 MB | Covers - 174 MB
Genre: Progressive Folk Rock | RAR 3% Rec. | Label: Esoteric Recordings (ECLEC2412)

Tracklist:
01. The Furthest Point
02. Old Boot Wine
03. Parallel Lines Never Separate
04. Spiggly
05. An Everyday Consumption Song
06. The Sergeant Says
07. In The Western World
a. In The Western World
b. Jungle Lore
c. Coming Back
d Western World (reprise)
08. I Hear You’re Going Somewhere (Joe Really) (Single A-side, Bonus track)

Total time: 42:28

Exact Audio Copy V1.0 beta 3 from 29. August 2011

Отчёт EAC об извлечении, выполненном 1. ноября 2013, 13:15

SPIROGYRA / Bells, Boots And Shambles

Дисковод: TSSTcorpCDDVDW SH-224DB Adapter: 4 ID: 1

Режим чтения : Достоверность
Использование точного потока : Да
Отключение кэша аудио : Да
Использование указателей C2 : Нет

Коррекция смещения при чтении : 6
Способность читать области Lead-in и Lead-out : Нет
Заполнение пропущенных сэмплов тишиной : Да
Удаление блоков с тишиной в начале и конце : Нет
При вычислениях CRC использовались нулевые сэмплы : Да
Интерфейс : Встроенный Win32-интерфейс для Win NT/2000

Выходной формат : Внутренние WAV-операции
Формат сэмплов : 44.100 Гц; 16 бит; стерео


TOC извлечённого CD

Трек | Старт | Длительность | Начальный сектор | Конечный сектор
––––––––––––––––––––––––––––––––––-
1 | 0:00.00 | 8:16.66 | 0 | 37265
2 | 8:16.66 | 4:18.23 | 37266 | 56638
3 | 12:35.14 | 5:05.08 | 56639 | 79521
4 | 17:40.22 | 1:12.62 | 79522 | 84983
5 | 18:53.09 | 4:28.66 | 84984 | 105149
6 | 23:22.00 | 3:41.28 | 105150 | 121752
7 | 27:03.28 | 12:58.52 | 121753 | 180154
8 | 40:02.05 | 2:25.40 | 180155 | 191069


Характеристики диапазона извлечения и сообщения об ошибках

Выбранный диапазон

Имя файла D:\TEMP\SPIROGYRA - 1973 - Bells, Boots And Shambles [2013 remastered & expanded edition, Esoteric ECLEC2412].wav

Пиковый уровень 98.8 %
Скорость извлечения 7.1 X
Качество диапазона 100.0 %
CRC теста 638CE5A9
CRC копии 638CE5A9
Копирование… OK

Ошибок не произошло


AccurateRip: сводка

Трек 1 отсутствует в базе данных
Трек 2 отсутствует в базе данных
Трек 3 отсутствует в базе данных
Трек 4 отсутствует в базе данных
Трек 5 отсутствует в базе данных
Трек 6 отсутствует в базе данных
Трек 7 отсутствует в базе данных
Трек 8 отсутствует в базе данных

Ни одного трека нет в базе AccurateRip

Конец отчёта

[CUETools log; Date: 10.09.2020 15:39:41; Version: 2.1.4]
[CTDB TOCID: 4gEImM7ZeqEmFKLC.xqVsW8.uZk-] found.
Track | CTDB Status
1 | (13/13) Accurately ripped
2 | (13/13) Accurately ripped
3 | (13/13) Accurately ripped
4 | (13/13) Accurately ripped
5 | (13/13) Accurately ripped
6 | (13/13) Accurately ripped
7 | (13/13) Accurately ripped
8 | (13/13) Accurately ripped
[AccurateRip ID: 000d11db-0055ee0b-5e09f308] found.
Track [ CRC | V2 ] Status
01 [dddd6dda|0440a78b] (0+7/7) Accurately ripped
02 [d409b31e|aed77104] (0+7/7) Accurately ripped
03 [69db4da6|36186b0d] (0+7/7) Accurately ripped
04 [2fac581d|a53f4f8b] (0+7/7) Accurately ripped
05 [7ceacc62|882e9ac2] (0+7/7) Accurately ripped
06 [ac0445d5|ad52bbaa] (0+7/7) Accurately ripped
07 [7260c035|75f25378] (0+7/7) Accurately ripped
08 [01d3568a|1ab3dd32] (0+7/7) Accurately ripped

Track Peak [ CRC32 ] [W/O NULL] [ LOG ]
– 98,8 [638CE5A9] [7E5E176A] CRC32
01 98,6 [31FF201A] [6ABE8D74]
02 60,6 [8D371429] [75654C01]
03 98,8 [CB1A2B63] [8DBB22FA]
04 40,3 [467B3038] [2143AAB1]
05 67,5 [E91EA039] [9F0F6915]
06 98,8 [BB68EBC4] [F1BCC7E1]
07 98,8 [041D0D07] [C0CAFC66]
08 98,8 [0E8AE453] [FE20765A]

Thanks to spAceLover