Subcategories

Stage Dolls - Dig (1997)

Posted By: Andi_Deris
Stage Dolls - Dig (1997)

Stage Dolls - DIG (1997)
EAC Rip | FLAC: Image+Cue+Log | 347 Mb | MP3 CBR 320 kbps | 121 Mb | Scans | Time: 48:11
Genre: Hard Rock, AOR | Label: PolyGram A/S, Norway/Mercury | Cat.№: 532 796-2

In 1997, Stage Dolls released their fifth album, "Dig". "Dig" was fantastic, but a little more laid back. It is one album that can be listened to over and over. The band went on tour all through 1997 and decided to take a break in 1998.



Stage Dolls - Dig (1997)


Track Listing

01. Run When It's Over (4:29)
02. It's Only Love (4:18)
03. Dig (3:59)
04. Good Times (4:49)
05. Talkin' To Me (3:36)
06. Cold Air Breezin' (5:29)
07. A Little R&R (3:21)
08. Like It (5:04)
09. Ain't Seen You (4:11)
10. Queens (4:11)
11. Do You Love Me (4:44)

Produced by Torstein Flakne

The Band

• Torstein Flakne: Vocals, guitars
• Terje Storli: Bass
• Morten Skogstad: Drums

Additional Musicians

• Trond Hustad: Keyboards
• Aslak Johnsen, Dag Ingebrigtsen: Background vocals

Notes

Recorded at Brygga Studios and Nidaros Studios, Trondheim 1996/1997
Engineer at Brygga Studios: Lars Lien
Engineer at Nidaros Studios: Rune Nordal

Stage Dolls - Dig (1997)


Exact Audio Copy V0.99 prebeta 5 from 4. May 2009

EAC extraction logfile from 25. October 2010, 12:51

Stage Dolls / DIG

Used drive : Optiarc DVD RW AD-7191S Adapter: 2 ID: 0

Read mode : Secure
Utilize accurate stream : Yes
Defeat audio cache : Yes
Make use of C2 pointers : No

Read offset correction : 6
Overread into Lead-In and Lead-Out : No
Fill up missing offset samples with silence : Yes
Delete leading and trailing silent blocks : No
Null samples used in CRC calculations : Yes
Used interface : Native Win32 interface for Win NT & 2000

Used output format : User Defined Encoder
Selected bitrate : 768 kBit/s
Quality : High
Add ID3 tag : No
Command line compressor : C:\Program Files\Exact Audio Copy\Flac\flac.exe
Additional command line options : -8 -V %s


TOC of the extracted CD

Track | Start | Length | Start sector | End sector
––––––––––––––––––––––––––––-
1 | 0:00.00 | 4:29.42 | 0 | 20216
2 | 4:29.42 | 4:18.10 | 20217 | 39576
3 | 8:47.52 | 3:59.00 | 39577 | 57501
4 | 12:46.52 | 4:49.15 | 57502 | 79191
5 | 17:35.67 | 3:36.55 | 79192 | 95446
6 | 21:12.47 | 5:29.30 | 95447 | 120151
7 | 26:42.02 | 3:21.38 | 120152 | 135264
8 | 30:03.40 | 5:04.67 | 135265 | 158131
9 | 35:08.32 | 4:11.35 | 158132 | 176991
10 | 39:19.67 | 4:11.20 | 176992 | 195836
11 | 43:31.12 | 4:44.33 | 195837 | 217169


Range status and errors

Selected range

Filename D:\Stage Dolls - DIG - 1997\Stage Dolls - DIG.wav

Peak level 98.8 %
Range quality 99.9 %
Test CRC 04BD4E17
Copy CRC 04BD4E17
Copy OK

No errors occurred


AccurateRip summary

Track 1 accurately ripped (confidence 2) [5401EF7D]
Track 2 accurately ripped (confidence 2) [9E3E4FB0]
Track 3 accurately ripped (confidence 2) [52B40477]
Track 4 accurately ripped (confidence 2) [CF17D83A]
Track 5 accurately ripped (confidence 2) [9593EBCD]
Track 6 accurately ripped (confidence 2) [EDEF7B63]
Track 7 accurately ripped (confidence 2) [3778E4F6]
Track 8 accurately ripped (confidence 2) [ADCE1B83]
Track 9 accurately ripped (confidence 2) [11980A0D]
Track 10 accurately ripped (confidence 2) [F06315A8]
Track 11 accurately ripped (confidence 2) [06587530]

All tracks accurately ripped

End of status report


Many thanks to the original uploader: hafanana