Subcategories

Stage Dolls - Soldier's Gun (1985)

Posted By: Andi_Deris
Stage Dolls - Soldier's Gun (1985)

Stage Dolls - Soldier's Gun (1985)
EAC Rip | FLAC: Image+Cue+Log | 227 Mb | MP3 CBR 320 kbps | 83 Mb | Scans | Time: 33:59
Genre: Hard Rock, AOR | Label: PolyGram Records A/S, Oslo/Mercury | Cat.№: 824 553-2

Soldier's Gun is the first studio album by the Norwegian hard rock band Stage Dolls. The album was recorded in the fall of 1984 at Nidaros Studios in Trondheim, Norway with the same producer, Bjørn Nessjø, and engineer, Rune Nordahl, as fellow Trondheim hard-rockers TNT. The album was released in the early winter of 1985 after a successful nationwide tour in Norway supporting the same TNT. Soldier's Gun barely made it onto the Norwegian album chart (VG) for one week as number 20. The album sold in excess of 20,000 copies in Norway.



Stage Dolls - Soldier's Gun (1985)


Track Listing

01. Queen Of Hearts (3:09)
02. Soldier's Gun (4:04)
03. Ten Tons (3:36)
04. While The Bombs Are Falling (2:28)
05. Tonight (4:03)
06. Left Foot Boogie (3:26)
07. Way Of The World (2:32)
08. Red Rose (2:21)
09. Photograph (4:38)
10. Shout (3:42)

Produced by Bjørn Nessjø

The Band

• Torstein Flakne: Vocal, Guitars
• Terje Storli: Bass
• Erlend Antonsen: Drums

Additional Musicians

• Gunnar Berg: Guitar solo on Ten Tons
• Baard Svendsen: Keyboards
• Sidsel Endresen: Lead vocal on Photograph
• Jon Pal Inderberg: Saxophone solo on Photograph

Stage Dolls - Soldier's Gun (1985)


Exact Audio Copy V0.99 prebeta 5 from 4. May 2009

EAC extraction logfile from 26. October 2010, 12:07

Stage Dolls / Soldier`s Gun

Used drive : Optiarc DVD RW AD-7191S Adapter: 2 ID: 0

Read mode : Secure
Utilize accurate stream : Yes
Defeat audio cache : Yes
Make use of C2 pointers : No

Read offset correction : 6
Overread into Lead-In and Lead-Out : No
Fill up missing offset samples with silence : Yes
Delete leading and trailing silent blocks : No
Null samples used in CRC calculations : Yes
Used interface : Native Win32 interface for Win NT & 2000

Used output format : User Defined Encoder
Selected bitrate : 768 kBit/s
Quality : High
Add ID3 tag : No
Command line compressor : C:\Program Files\Exact Audio Copy\Flac\flac.exe
Additional command line options : -8 -V %s


TOC of the extracted CD

Track | Start | Length | Start sector | End sector
––––––––––––––––––––––––––––-
1 | 0:00.32 | 3:09.18 | 32 | 14224
2 | 3:09.50 | 4:04.12 | 14225 | 32536
3 | 7:13.62 | 3:36.23 | 32537 | 48759
4 | 10:50.10 | 2:28.17 | 48760 | 59876
5 | 13:18.27 | 4:03.68 | 59877 | 78169
6 | 17:22.20 | 3:26.07 | 78170 | 93626
7 | 20:48.27 | 2:32.63 | 93627 | 105089
8 | 23:21.15 | 2:21.17 | 105090 | 115681
9 | 25:42.32 | 4:38.68 | 115682 | 136599
10 | 30:21.25 | 3:42.32 | 136600 | 153281


Range status and errors

Selected range

Filename D:\Stage Dolls - Soldier's Gun - 1985\Stage Dolls - Soldier`s Gun.wav

Peak level 77.0 %
Range quality 100.0 %
Test CRC BBA177E0
Copy CRC BBA177E0
Copy OK

No errors occurred


AccurateRip summary

Track 1 accurately ripped (confidence 2) [BCBF84B4]
Track 2 accurately ripped (confidence 2) [8B28A429]
Track 3 accurately ripped (confidence 2) [11F3E1D0]
Track 4 accurately ripped (confidence 2) [FC96AEB6]
Track 5 accurately ripped (confidence 2) [BF3FACA7]
Track 6 accurately ripped (confidence 2) [B31F4D27]
Track 7 accurately ripped (confidence 2) [77E79ABB]
Track 8 accurately ripped (confidence 2) [F43C0C3A]
Track 9 accurately ripped (confidence 2) [7BA66C67]
Track 10 accurately ripped (confidence 2) [5B26F8E7]

All tracks accurately ripped

End of status report


Many thanks to the original uploader: hafanana