Subcategories

Stan Getz - Getz Plays Jobim: The Girl From Ipanema [Recorded 1962-1964] (2006) (Repost)

Posted By: gribovar
Stan Getz - Getz Plays Jobim: The Girl From Ipanema [Recorded 1962-1964] (2006) (Repost)

Stan Getz - Getz Plays Jobim: The Girl From Ipanema [Recorded 1962-1964] (2006)
EAC Rip | APE (image+.cue+log) - 394 MB | MP3 CBR 320 kbps (LAME 3.93) - 168 MB | Covers (15 MB) included
Genre: Jazz, Bossa Nova | RAR 3% Rec. | Label: Verve (589 414-2)

Simply put, here are the most successful 14 cuts covering two years in the collaboration between Stan Getz and Antonio Carlos Jobim, during which both men became accustomed to having hit singles. Unfortunately, only one of them got to ride that horse for the rest of the decade - in the United States, anyway. Nonetheless, this material marks the Americans obsession with the bossa nova and was the music that made Getz and Jobim household names for a while - after all, we were just climbing out of the "swinging bachelor pad" music era and still had all those weird hi fi records to explore. Seriously though, the great sensitivity shown by Getz for this material, and the adventurousness of Jobim were a match made in heaven and would change the faces of jazz and Brazilian pop forever. This is a fine collection for anyone interested in bossa, and Getz in this period as well.
Tracklist:
01. Corcovado (Quiet Nights Of Quiet Stars)
02. Desafinado - instrumental version
03. Chega De Saudade (No More Blues)
04. The Girl From Ipanema
05. O Morro Nao Tem Vez
06. Vivo Sonhando (Dreamer)
07. One Note Samba - instrumental version
08. Eu E Voce (Me And You)
09. Desafinado - vocal version
10. Once Again (Outra Vez)
11. O Grande Amor
12. So Danco Samba
13. How Insensitive
14. One Note Samba - vocal version

Total time: 01:04:45

Exact Audio Copy V0.99 prebeta 5 from 4. May 2009

EAC extraction logfile from 12. July 2010, 0:23

Stan Getz / Getz Plays Jobim: The Girl From Ipanema

Used drive : TEAC CD-W552GB Adapter: 1 ID: 0

Read mode : Secure
Utilize accurate stream : Yes
Defeat audio cache : Yes
Make use of C2 pointers : No

Read offset correction : 6
Overread into Lead-In and Lead-Out : No
Fill up missing offset samples with silence : Yes
Delete leading and trailing silent blocks : No
Null samples used in CRC calculations : Yes
Used interface : Installed external ASPI interface

Used output format : Internal WAV Routines
Sample format : 44.100 Hz; 16 Bit; Stereo


TOC of the extracted CD

Track | Start | Length | Start sector | End sector
––––––––––––––––––––––––––––-
1 | 0:00.00 | 4:14.30 | 0 | 19079
2 | 4:14.30 | 5:50.70 | 19080 | 45399
3 | 10:05.25 | 4:15.05 | 45400 | 64529
4 | 14:20.30 | 5:22.27 | 64530 | 88706
5 | 19:42.57 | 6:53.63 | 88707 | 119744
6 | 26:36.45 | 2:53.67 | 119745 | 132786
7 | 29:30.37 | 6:11.73 | 132787 | 160684
8 | 35:42.35 | 2:29.35 | 160685 | 171894
9 | 38:11.70 | 4:12.30 | 171895 | 190824
10 | 42:24.25 | 6:41.27 | 190825 | 220926
11 | 49:05.52 | 5:25.55 | 220927 | 245356
12 | 54:31.32 | 3:44.18 | 245357 | 262174
13 | 58:15.50 | 3:21.57 | 262175 | 277306
14 | 61:37.32 | 3:07.25 | 277307 | 291356


Range status and errors

Selected range

Filename Stan Getz - 2006 - Getz Plays Jobim (ape)\Stan Getz - Getz Plays Jobim The Girl From Ipanema.wav

Peak level 97.6 %
Range quality 100.0 %
Test CRC F0B47665
Copy CRC F0B47665
Copy OK

No errors occurred


AccurateRip summary

Track 1 accurately ripped (confidence 4) [DF3310E2]
Track 2 accurately ripped (confidence 3) [FC569770]
Track 3 accurately ripped (confidence 2) [7665CED3]
Track 4 accurately ripped (confidence 3) [4955EFCE]
Track 5 accurately ripped (confidence 3) [BB7FF1A6]
Track 6 accurately ripped (confidence 3) [DBCE7AED]
Track 7 accurately ripped (confidence 2) [236DA8B4]
Track 8 accurately ripped (confidence 2) [4823B5B0]
Track 9 accurately ripped (confidence 2) [D6C7F801]
Track 10 accurately ripped (confidence 2) [612A044D]
Track 11 accurately ripped (confidence 3) [5D6FDFC9]
Track 12 accurately ripped (confidence 3) [16CDBA32]
Track 13 accurately ripped (confidence 3) [AE53FA8D]
Track 14 accurately ripped (confidence 3) [4B12FD2F]

All tracks accurately ripped

End of status report

[CUETools log; Date: 24.07.2018 1:04:22; Version: 2.1.4]
[CTDB TOCID: yG9nCIYWDripBLF7JYnkeAS3pmg-] found.
Track | CTDB Status
1 | (91/97) Accurately ripped
2 | (72/97) Accurately ripped
3 | (75/97) Accurately ripped
4 | (72/97) Accurately ripped
5 | (71/97) Accurately ripped
6 | (72/97) Accurately ripped
7 | (72/97) Accurately ripped
8 | (71/97) Accurately ripped
9 | (73/97) Accurately ripped
10 | (74/97) Accurately ripped
11 | (73/97) Accurately ripped
12 | (73/97) Accurately ripped
13 | (71/97) Accurately ripped
14 | (72/97) Accurately ripped
[AccurateRip ID: 0022f459-0172ca9d-e50f2c0e] found.
Track [ CRC | V2 ] Status
01 [df3310e2|4c2ba1e3] (005+000/124) Accurately ripped
02 [fc569770|f5b79d5e] (004+000/124) Accurately ripped
03 [7665ced3|4545cd15] (003+000/124) Accurately ripped
04 [4955efce|375dfb33] (004+000/121) Accurately ripped
05 [bb7ff1a6|a0f03ea2] (004+000/120) Accurately ripped
06 [dbce7aed|c0d01c23] (004+000/122) Accurately ripped
07 [236da8b4|c0c39397] (003+000/121) Accurately ripped
08 [4823b5b0|0c758f3a] (003+000/120) Accurately ripped
09 [d6c7f801|d4190ec7] (003+000/121) Accurately ripped
10 [612a044d|9106ef92] (003+000/119) Accurately ripped
11 [5d6fdfc9|25c9eafa] (004+000/116) Accurately ripped
12 [16cdba32|5afe69a2] (004+000/120) Accurately ripped
13 [ae53fa8d|f44c4b50] (004+000/116) Accurately ripped
14 [4b12fd2f|00779a80] (004+000/118) Accurately ripped
Offsetted by 664:
01 [21e6c892] (006/124) Accurately ripped
02 [48e39818] (006/124) Accurately ripped
03 [63af7f8b] (006/124) Accurately ripped
04 [d080fa1e] (006/121) Accurately ripped
05 [ae1d24be] (006/120) Accurately ripped
06 [a086d755] (006/122) Accurately ripped
07 [67404364] (006/121) Accurately ripped
08 [3d217248] (006/120) Accurately ripped
09 [f2179549] (006/121) Accurately ripped
10 [d24bcd9d] (006/119) Accurately ripped
11 [e7943689] (006/116) Accurately ripped
12 [a8a83652] (006/120) Accurately ripped
13 [b4dcd8dd] (006/116) Accurately ripped
14 [6d48bb3f] (006/118) Accurately ripped
Offsetted by 1414:
01 [4cdb6a8e] (022/124) Accurately ripped
02 [a4c08bba] (021/124) Accurately ripped
03 [e8c44661] (021/124) Accurately ripped
04 [5a872ea2] (019/121) Accurately ripped
05 [d5bdbd4c] (016/120) Accurately ripped
06 [788e9927] (020/122) Accurately ripped
07 [43479720] (019/121) Accurately ripped
08 [580571b6] (019/120) Accurately ripped
09 [86252bf3] (019/121) Accurately ripped
10 [480e7ee1] (018/119) Accurately ripped
11 [95590479] (019/116) Accurately ripped
12 [498bb7ba] (019/120) Accurately ripped
13 [8894be61] (018/116) Accurately ripped
14 [a41e1bf3] (018/118) Accurately ripped
Offsetted by 293:
01 [e1a5115c] (004/124) Accurately ripped
02 [77f2e223] (000/124) No match (V2 was not tested)
03 [995246d4] (000/124) No match (V2 was not tested)
04 [a3704114] (000/121) No match (V2 was not tested)
05 [8de1d73b] (000/120) No match (V2 was not tested)
06 [02ce18e8] (000/122) No match (V2 was not tested)
07 [38dfcbce] (000/121) No match (V2 was not tested)
08 [e40d8195] (000/120) No match (V2 was not tested)
09 [ef2b7c40] (000/121) No match (V2 was not tested)
10 [356608b3] (000/119) No match (V2 was not tested)
11 [53d70ab1] (000/116) No match (V2 was not tested)
12 [2948bd4e] (000/120) No match (V2 was not tested)
13 [b0d37553] (000/116) No match (V2 was not tested)
14 [67a9eebd] (000/118) No match (V2 was not tested)
Offsetted by 720:
01 [caff3182] (014/124) Accurately ripped
02 [5ec44e20] (000/124) No match (V2 was not tested)
03 [f627d563] (000/124) No match (V2 was not tested)
04 [1fc24b2e] (000/121) No match (V2 was not tested)
05 [00431376] (000/120) No match (V2 was not tested)
06 [e8a2ba1d] (000/122) No match (V2 was not tested)
07 [e22d0354] (000/121) No match (V2 was not tested)
08 [1a464480] (000/120) No match (V2 was not tested)
09 [d58d5571] (000/121) No match (V2 was not tested)
10 [760de1ad] (000/119) No match (V2 was not tested)
11 [939d7249] (000/116) No match (V2 was not tested)
12 [17a821f2] (000/120) No match (V2 was not tested)
13 [4660aded] (000/116) No match (V2 was not tested)
14 [9e6f310f] (000/118) No match (V2 was not tested)
Offsetted by 1328:
01 [649a8042] (000/124) No match (V2 was not tested)
02 [957098c0] (000/124) No match (V2 was not tested)
03 [50f93043] (000/124) No match (V2 was not tested)
04 [57ac046e] (000/121) No match (V2 was not tested)
05 [a0ba57d6] (000/120) No match (V2 was not tested)
06 [653f33bd] (000/122) No match (V2 was not tested)
07 [ab12de14] (000/121) No match (V2 was not tested)
08 [321f2ee0] (000/120) No match (V2 was not tested)
09 [0d673291] (000/121) No match (V2 was not tested)
10 [436d96ed] (000/119) No match (V2 was not tested)
11 [71b88d49] (000/116) No match (V2 was not tested)
12 [3a82b272] (000/120) No match (V2 was not tested)
13 [bb65b72d] (000/116) No match (V2 was not tested)
14 [8f7e794f] (000/118) No match (V2 was not tested)
Offsetted by 1420:
01 [8cb0513a] (000/124) No match (V2 was not tested)
02 [703d3184] (000/124) No match (V2 was not tested)
03 [1d08066f] (000/124) No match (V2 was not tested)
04 [7e72c076] (000/121) No match (V2 was not tested)
05 [031d3b72] (000/120) No match (V2 was not tested)
06 [6dff4ce1] (000/122) No match (V2 was not tested)
07 [e2bc628c] (000/121) No match (V2 was not tested)
08 [6692883c] (000/120) No match (V2 was not tested)
09 [70cd3765] (000/121) No match (V2 was not tested)
10 [f507dc75] (000/119) No match (V2 was not tested)
11 [7a10dd29] (000/116) No match (V2 was not tested)
12 [03272342] (000/120) No match (V2 was not tested)
13 [61509535] (000/116) No match (V2 was not tested)
14 [04cff1b7] (000/118) No match (V2 was not tested)

Track Peak [ CRC32 ] [W/O NULL] [ LOG ]
– 97,6 [F0B47665] [9496219B] CRC32
01 93,7 [7D9736C3] [36E74F24]
02 84,5 [B419AFE4] [AF749A53]
03 80,7 [F2758EDB] [641C302E]
04 93,7 [44A31816] [CA9FBB02]
05 84,3 [814BA903] [91E02D40]
06 94,3 [347668F8] [7EE9219C]
07 93,1 [6266B295] [BBFE86DD]
08 94,5 [5AC2B49E] [71573A8B]
09 87,8 [A9E81CD2] [6F950606]
10 75,0 [FA9219B4] [BF47FEE0]
11 76,9 [2231F715] [62D42748]
12 91,7 [E10278DB] [D46F679E]
13 74,8 [4F488EA7] [8A86DEC4]
14 97,6 [A6917D52] [8652480F]

Thanks to znn62

See also: