Subcategories

Stan Getz & Joao Gilberto - Getz/Gilberto (1964) [Reissue 2008]

Posted By: gribovar
Stan Getz & Joao Gilberto - Getz/Gilberto (1964) [Reissue 2008]

Stan Getz & Joao Gilberto - Getz/Gilberto (1964) [Reissue 2008]
EAC Rip | FLAC (image+.cue+log) - 208 MB | MP3 CBR 320 kbps (LAME 3.93) - 91 MB | Covers (11 MB) included
Genre: Jazz, Bossa Nova | RAR 3% Rec. | Label: Verve Records (0602517679221)

One of the biggest-selling jazz albums of all time, not to mention bossa nova's finest moment, Getz/Gilberto trumped Jazz Samba by bringing two of bossa nova's greatest innovators - guitarist/singer João Gilberto and composer/pianist Antonio Carlos Jobim - to New York to record with Stan Getz. The results were magic. Ever since Jazz Samba, the jazz marketplace had been flooded with bossa nova albums, and the overexposure was beginning to make the music seem like a fad. Getz/Gilberto made bossa nova a permanent part of the jazz landscape not just with its unassailable beauty, but with one of the biggest smash hit singles in jazz history - "The Girl From Ipanema," a Jobim classic sung by João's wife, Astrud Gilberto, who had never performed outside of her own home prior to the recording session. Beyond that, most of the Jobim songs recorded here also became standards of the genre - "Corcovado" (which featured another vocal by Astrud), "So Danço Samba," "O Grande Amor," a new version of "Desafinado." With such uniformly brilliant material, it's no wonder the album was such a success but, even apart from that, the musicians all play with an effortless grace that's arguably the fullest expression of bossa nova's dreamy romanticism ever brought to American listeners. Getz himself has never been more lyrical, and Gilberto and Jobim pull off the harmonic and rhythmic sophistication of the songs with a warm, relaxed charm. This music has nearly universal appeal; it's one of those rare jazz records about which the purist elite and the buying public are in total agreement. Beyond essential.
Tracklist:
01. The Girl From Ipanema
02. Doralice
03. P'ra Machucar Meu Coracao
04. Desafinado
05. Corcovado
06. Sу Danco Samba
07. O Grande Amor
08. Vivo Sohando

Total time: 33:43

Exact Audio Copy V1.0 beta 3 from 29. August 2011

EAC extraction logfile from 13. January 2013, 21:37

Stan Getz & João Gilberto feat. Antônio Carlos Jobim / Getz/Gilberto

Used drive : HL-DT-STBDDVDRW GBC-H20N Adapter: 1 ID: 0

Read mode : Secure
Utilize accurate stream : Yes
Defeat audio cache : Yes
Make use of C2 pointers : No

Read offset correction : 667
Overread into Lead-In and Lead-Out : No
Fill up missing offset samples with silence : Yes
Delete leading and trailing silent blocks : No
Null samples used in CRC calculations : Yes
Used interface : Native Win32 interface for Win NT & 2000

Used output format : User Defined Encoder
Selected bitrate : 1024 kBit/s
Quality : High
Add ID3 tag : No
Command line compressor : C:\Program Files\Exact Audio Copy\wavpack.exe
Additional command line options : -hm %source% %dest%


TOC of the extracted CD

Track | Start | Length | Start sector | End sector
––––––––––––––––––––––––––––-
1 | 0:00.00 | 5:17.74 | 0 | 23848
2 | 5:17.74 | 2:48.06 | 23849 | 36454
3 | 8:06.05 | 5:09.61 | 36455 | 59690
4 | 13:15.66 | 4:09.29 | 59691 | 78394
5 | 17:25.20 | 4:18.42 | 78395 | 97786
6 | 21:43.62 | 3:34.55 | 97787 | 113891
7 | 25:18.42 | 5:30.33 | 113892 | 138674
8 | 30:49.00 | 2:54.11 | 138675 | 151735


Range status and errors

Selected range

Filename C:\Users\ProgDog\Music\ZALIVKI\Stan Getz\The Bossa Nova Albums\4. Getz - Gilberto (1963)\Stan Getz & João Gilberto feat. Antônio Carlos Jobim - Getz,Gilberto.wav

Peak level 99.7 %
Extraction speed 5.4 X
Range quality 100.0 %
Test CRC FA50F8E6
Copy CRC FA50F8E6
Copy OK

No errors occurred


AccurateRip summary

Track 1 accurately ripped (confidence 3) [F6FA0651] (AR v2)
Track 2 accurately ripped (confidence 3) [B8715E94] (AR v2)
Track 3 accurately ripped (confidence 3) [70C70CC8] (AR v2)
Track 4 accurately ripped (confidence 3) [03623CFF] (AR v2)
Track 5 accurately ripped (confidence 3) [769A822F] (AR v2)
Track 6 accurately ripped (confidence 3) [8935DD0F] (AR v2)
Track 7 accurately ripped (confidence 3) [267CE5AD] (AR v2)
Track 8 accurately ripped (confidence 3) [7A0A3741] (AR v2)

All tracks accurately ripped

End of status report

–– CUETools DB Plugin V2.1.3

[CTDB TOCID: TTfwyMgA_sbzZwEtGaUTQ8jiT20-] found, Submit result: TTfwyMgA_sbzZwEtGaUTQ8jiT20- has been confirmed
[d7d72ffc] (23/23) Accurately ripped


==== Log checksum 2B1137826C8766AA89AC587A72C55E0A74255D3EFA9E3AB8F95C31C7DAB6B9CA ====

[CUETools log; Date: 14.01.2018 15:29:34; Version: 2.1.4]
[CTDB TOCID: TTfwyMgA_sbzZwEtGaUTQ8jiT20-] found.
Track | CTDB Status
1 | (37/39) Accurately ripped
2 | (38/39) Accurately ripped
3 | (38/39) Accurately ripped
4 | (38/39) Accurately ripped
5 | (38/39) Accurately ripped
6 | (38/39) Accurately ripped
7 | (37/39) Accurately ripped
8 | (37/39) Accurately ripped
[AccurateRip ID: 000ab040-0046e789-6607e708] found.
Track [ CRC | V2 ] Status
01 [9a9c87ac|f6fa0651] (21+20/41) Accurately ripped
02 [eea42577|b8715e94] (21+21/42) Accurately ripped
03 [14b934e1|70c70cc8] (21+20/41) Accurately ripped
04 [f6752e3a|03623cff] (21+20/41) Accurately ripped
05 [8dadd394|769a822f] (21+20/41) Accurately ripped
06 [56b43ab0|8935dd0f] (21+20/41) Accurately ripped
07 [9fb302be|267ce5ad] (21+20/41) Accurately ripped
08 [1751a496|7a0a3741] (21+19/40) Accurately ripped

Track Peak [ CRC32 ] [W/O NULL] [ LOG ]
– 99,7 [FA50F8E6] [2E32D335] CRC32
01 99,4 [9679060F] [CC0C41BD]
02 99,7 [22347BCB] [301F7AE3]
03 94,4 [7B6F095A] [5A07BB14]
04 99,3 [8A6B1D8A] [2761C1B7]
05 88,6 [A3D1211C] [C9325A04]
06 99,6 [9B442C96] [75C09218]
07 99,5 [E51110A1] [C2A0F1DC]
08 95,4 [E969FBF4] [40790A40]

Thanks to arizonadream

See also: