Tags
Language
Tags

Stanley Clarke - The Complete 1970s Epic Albums Collection (2012) [7CD Box Set]

Posted By: v3122
Stanley Clarke - The Complete 1970s Epic Albums Collection (2012) [7CD Box Set]

Stanley Clarke - The Complete 1970s Epic Albums Collection (2012)
EAC | Flac(Image) + Cue + Log & MP3 CBR 320Kbps
Epic / Legacy / Sony Music, 88697931222 | ~ 1819 or 790 Mb | Artwork(jpg) -> 148 Mb
Jazz Fusion, Funk, Rock, Pop

The seven-disc Stanley Clarke anthology, The Complete 1970s Epic Albums Collection, brings together all six of the influential jazz bassist's original albums for Epic. Included here: 1974's Stanley Clarke, 1975's Journey to Love, 1976's School Days, 1978's Modern Man, 1979's I Wanna Play for You, as well as the 1991 concert compilation Live (1976-1977). These are highly recommended jazz, funk, and fusion releases and must-haves for any Clarke fan.

by Matt Collar, allmusic
Stanley Clarke - The Complete 1970s Epic Albums Collection (2012):

Stanley Clarke - The Complete 1970s Epic Albums Collection (2012) [7CD Box Set]

Tracklist CD1 - Stanley Clarke (1974):

01. Vulcan Princess (4:01)
02. Yesterday Princess (1:41)
03. Lopsy Lu (7:04)
04. Power (7:21)
05. Spanish Phases for Strings and Brass (6:32)
06. Life Suite - Part 1 (1:47)
07. Life Suite - Part 2 (4:16)
08. Life Suite - Part 3 (1:03)
09. Life Suite - Part 4 (6:43)

Exact Audio Copy V1.0 beta 3 from 29. August 2011

EAC extraction logfile from 31. August 2012, 5:15

Stanley Clarke / Stanley Clarke

Used drive : HL-DT-STCD-RW GCE-8483B Adapter: 0 ID: 1

Read mode : Secure
Utilize accurate stream : Yes
Defeat audio cache : Yes
Make use of C2 pointers : No

Read offset correction : 6
Overread into Lead-In and Lead-Out : No
Fill up missing offset samples with silence : Yes
Delete leading and trailing silent blocks : No
Null samples used in CRC calculations : Yes
Used interface : Native Win32 interface for Win NT & 2000
Gap handling : Appended to previous track

Used output format : User Defined Encoder
Selected bitrate : 1024 kBit/s
Quality : High
Add ID3 tag : No
Command line compressor : C:\Program Files\Exact Audio Copy\FLAC\FLAC.EXE
Additional command line options : -V -8 -T "artist=%artist%" -T "title=%title%" -T "album=%albumtitle%" -T "date=%year%" -T "tracknumber=%tracknr%" -T "genre=%genre%" %source%


TOC of the extracted CD

Track | Start | Length | Start sector | End sector
––––––––––––––––––––––––––––-
1 | 0:00.00 | 4:00.47 | 0 | 18046
2 | 4:00.47 | 1:41.21 | 18047 | 25642
3 | 5:41.68 | 7:04.27 | 25643 | 57469
4 | 12:46.20 | 7:20.67 | 57470 | 90536
5 | 20:07.12 | 6:32.27 | 90537 | 119963
6 | 26:39.39 | 1:47.21 | 119964 | 128009
7 | 28:26.60 | 4:15.65 | 128010 | 147199
8 | 32:42.50 | 1:02.67 | 147200 | 151916
9 | 33:45.42 | 6:43.04 | 151917 | 182145


Track 1

Filename C:\Program Files\Exact Audio Copy\RIPS\Stanley Clarke\1974 - Stanley Clarke\01 - Vulcan Princess.wav

Pre-gap length 0:00:02.00

Peak level 97.6 %
Extraction speed 4.0 X
Track quality 100.0 %
Test CRC D3CE8E2E
Copy CRC D3CE8E2E
Track not present in AccurateRip database
Copy OK

Track 2

Filename C:\Program Files\Exact Audio Copy\RIPS\Stanley Clarke\1974 - Stanley Clarke\02 - Yesterday Princess.wav

Peak level 89.5 %
Extraction speed 3.5 X
Track quality 100.0 %
Test CRC B5FC6FCD
Copy CRC B5FC6FCD
Track not present in AccurateRip database
Copy OK

Track 3

Filename C:\Program Files\Exact Audio Copy\RIPS\Stanley Clarke\1974 - Stanley Clarke\03 - Lopsy Lu.wav

Peak level 97.5 %
Extraction speed 4.8 X
Track quality 100.0 %
Test CRC 5AA60525
Copy CRC 5AA60525
Track not present in AccurateRip database
Copy OK

Track 4

Filename C:\Program Files\Exact Audio Copy\RIPS\Stanley Clarke\1974 - Stanley Clarke\04 - Power.wav

Peak level 98.3 %
Extraction speed 4.8 X
Track quality 99.9 %
Test CRC DF60F274
Copy CRC DF60F274
Track not present in AccurateRip database
Copy OK

Track 5

Filename C:\Program Files\Exact Audio Copy\RIPS\Stanley Clarke\1974 - Stanley Clarke\05 - Spanish Phases for Strings and Brass.wav

Peak level 95.4 %
Extraction speed 5.8 X
Track quality 100.0 %
Test CRC 6C820566
Copy CRC 6C820566
Track not present in AccurateRip database
Copy OK

Track 6

Filename C:\Program Files\Exact Audio Copy\RIPS\Stanley Clarke\1974 - Stanley Clarke\06 - Life Suite - Part 1.wav

Peak level 96.6 %
Extraction speed 5.0 X
Track quality 100.0 %
Test CRC 1EE46016
Copy CRC 1EE46016
Track not present in AccurateRip database
Copy OK

Track 7

Filename C:\Program Files\Exact Audio Copy\RIPS\Stanley Clarke\1974 - Stanley Clarke\07 - Life Suite - Part 2.wav

Peak level 96.6 %
Extraction speed 6.0 X
Track quality 100.0 %
Test CRC A2423860
Copy CRC A2423860
Track not present in AccurateRip database
Copy OK

Track 8

Filename C:\Program Files\Exact Audio Copy\RIPS\Stanley Clarke\1974 - Stanley Clarke\08 - Life Suite - Part 3.wav

Peak level 87.7 %
Extraction speed 4.5 X
Track quality 100.0 %
Test CRC 418D9744
Copy CRC 418D9744
Track not present in AccurateRip database
Copy OK

Track 9

Filename C:\Program Files\Exact Audio Copy\RIPS\Stanley Clarke\1974 - Stanley Clarke\09 - Life Suite - Part 4.wav

Peak level 97.6 %
Extraction speed 5.8 X
Track quality 99.9 %
Test CRC 6299FF20
Copy CRC 6299FF20
Track not present in AccurateRip database
Copy OK


None of the tracks are present in the AccurateRip database

No errors occurred

End of status report

–– CUETools DB Plugin V2.1.3

[CTDB TOCID: MCfAQ4HxsJHuPayvcbBGoYTJRLM-] found, Submit result: already submitted
[461afe44] (2/2) Accurately ripped


==== Log checksum EECA99B46557D525DA2DDD9C670AF444078E0A2676E37E9C176E0DBFB67B1EE1 ====


[CUETools log; Date: 01.12.2018 14:22:32; Version: 2.1.4]
[AccurateRip ID: 000e0d66-00676b9c-6c097c09] found.
Track [ CRC | V2 ] Status
01 [17f81cd5|b26f2d0a] (00+12/28) Accurately ripped
02 [4022b555|d21bdc4a] (00+12/28) Accurately ripped
03 [4b6f3e67|629eacd3] (00+12/28) Accurately ripped
04 [3b5397a9|b5e9d2de] (00+12/28) Accurately ripped
05 [54d69618|5cf2e91e] (00+12/28) Accurately ripped
06 [218e404c|86216b52] (00+12/28) Accurately ripped
07 [e6093c1a|b7f197c4] (00+12/28) Accurately ripped
08 [d678bf3b|555aad9b] (00+12/28) Accurately ripped
09 [2e5b329b|6057eaff] (00+12/28) Accurately ripped
Offsetted by -12:
01 [a19a3949] (00/28) No match (V2 was not tested)
02 [4750563f] (00/28) No match (V2 was not tested)
03 [697d6bd8] (00/28) No match (V2 was not tested)
04 [9320ebae] (00/28) No match (V2 was not tested)
05 [61252d8c] (00/28) No match (V2 was not tested)
06 [6a3080a6] (00/28) No match (V2 was not tested)
07 [3f25d3e2] (00/28) No match (V2 was not tested)
08 [7d855fb5] (00/28) No match (V2 was not tested)
09 [e4e4ca0b] (00/28) No match (V2 was not tested)

Track Peak [ CRC32 ] [W/O NULL] [ LOG ]
– 98,3 [D1D5037E] [FCF6AD41]
01 97,6 [D3CE8E2E] [025FA503] CRC32
02 89,5 [B5FC6FCD] [9CFDEE78] CRC32
03 97,5 [5AA60525] [90CA81D8] CRC32
04 98,3 [DF60F274] [B1A21B37] CRC32
05 95,4 [6C820566] [8AB58816] CRC32
06 96,6 [1EE46016] [276140ED] CRC32
07 96,6 [A2423860] [F31513CD] CRC32
08 87,7 [418D9744] [A62B8CB5] CRC32
09 97,6 [6299FF20] [2C8ACFD1] CRC32


Stanley Clarke - The Complete 1970s Epic Albums Collection (2012) [7CD Box Set]

Tracklist CD2 - Journey to Love (1975):

01. Silly Putty (4:41)
02. Journey to Love (4:55)
03. Hello Jeff (5:17)
04. Song to John (Part I) - Dedicated to John Coltrane (4:23)
05. Song to John (Part II) - Dedicated to John Coltrane (6:05)
06. Concerto for Jazz/Rock Orchestra (14:12)

Exact Audio Copy V1.0 beta 3 from 29. August 2011

EAC extraction logfile from 31. August 2012, 5:36

Stanley Clarke / Journey to Love

Used drive : HL-DT-STCD-RW GCE-8483B Adapter: 0 ID: 1

Read mode : Secure
Utilize accurate stream : Yes
Defeat audio cache : Yes
Make use of C2 pointers : No

Read offset correction : 6
Overread into Lead-In and Lead-Out : No
Fill up missing offset samples with silence : Yes
Delete leading and trailing silent blocks : No
Null samples used in CRC calculations : Yes
Used interface : Native Win32 interface for Win NT & 2000
Gap handling : Appended to previous track

Used output format : User Defined Encoder
Selected bitrate : 1024 kBit/s
Quality : High
Add ID3 tag : No
Command line compressor : C:\Program Files\Exact Audio Copy\FLAC\FLAC.EXE
Additional command line options : -V -8 -T "artist=%artist%" -T "title=%title%" -T "album=%albumtitle%" -T "date=%year%" -T "tracknumber=%tracknr%" -T "genre=%genre%" %source%


TOC of the extracted CD

Track | Start | Length | Start sector | End sector
––––––––––––––––––––––––––––-
1 | 0:00.00 | 4:40.63 | 0 | 21062
2 | 4:40.63 | 4:54.39 | 21063 | 43151
3 | 9:35.27 | 5:16.51 | 43152 | 66902
4 | 14:52.03 | 4:22.52 | 66903 | 86604
5 | 19:14.55 | 6:05.29 | 86605 | 114008
6 | 25:20.09 | 14:11.39 | 114009 | 177872


Track 1

Filename C:\Program Files\Exact Audio Copy\RIPS\Stanley Clarke\1975 - Journey to Love\01 - Silly Putty.wav

Pre-gap length 0:00:02.00

Peak level 99.6 %
Extraction speed 4.4 X
Track quality 99.9 %
Test CRC 7E6B74AF
Copy CRC 7E6B74AF
Track not present in AccurateRip database
Copy OK

Track 2

Filename C:\Program Files\Exact Audio Copy\RIPS\Stanley Clarke\1975 - Journey to Love\02 - Journey to Love.wav

Peak level 97.5 %
Extraction speed 5.8 X
Track quality 100.0 %
Test CRC D29C9E0B
Copy CRC D29C9E0B
Track not present in AccurateRip database
Copy OK

Track 3

Filename C:\Program Files\Exact Audio Copy\RIPS\Stanley Clarke\1975 - Journey to Love\03 - Hello Jeff.wav

Peak level 98.5 %
Extraction speed 6.3 X
Track quality 100.0 %
Test CRC FC5B726C
Copy CRC FC5B726C
Track not present in AccurateRip database
Copy OK

Track 4

Filename C:\Program Files\Exact Audio Copy\RIPS\Stanley Clarke\1975 - Journey to Love\04 - Song to John (Part I) - Dedicated to John Coltrane.wav

Peak level 73.4 %
Extraction speed 6.6 X
Track quality 100.0 %
Test CRC B2DB3769
Copy CRC B2DB3769
Track not present in AccurateRip database
Copy OK

Track 5

Filename C:\Program Files\Exact Audio Copy\RIPS\Stanley Clarke\1975 - Journey to Love\05 - Song to John (Part II) - Dedicated to John Coltrane.wav

Peak level 86.9 %
Extraction speed 7.2 X
Track quality 100.0 %
Test CRC D31C2D31
Copy CRC D31C2D31
Track not present in AccurateRip database
Copy OK

Track 6

Filename C:\Program Files\Exact Audio Copy\RIPS\Stanley Clarke\1975 - Journey to Love\06 - Concerto for Jazz,Rock Orchestra.wav

Peak level 98.8 %
Extraction speed 8.3 X
Track quality 100.0 %
Test CRC 26FDF3A3
Copy CRC 26FDF3A3
Track not present in AccurateRip database
Copy OK


None of the tracks are present in the AccurateRip database

No errors occurred

End of status report

–– CUETools DB Plugin V2.1.3

[CTDB TOCID: Wi7Z2hINKrwz2bFH1q3Cskp55ZA-] found, Submit result: already submitted
[0637fd5c] (2/2) Accurately ripped


==== Log checksum 6F7DA1D93B0A571B0B79161925F57A71E3ADD5ADB236E435377F207D31B8A2B9 ====


[CUETools log; Date: 01.12.2018 14:25:00; Version: 2.1.4]
[AccurateRip ID: 0007c6a5-002abee9-4d094306] found.
Track [ CRC | V2 ] Status
01 [189f04ee|37b45783] (00+12/27) Accurately ripped
02 [04fda6ab|a1848a56] (00+12/27) Accurately ripped
03 [d1672e83|2111564f] (00+12/27) Accurately ripped
04 [a3a5380a|a017bf1e] (00+12/27) Accurately ripped
05 [063f71eb|8b06e3be] (00+12/27) Accurately ripped
06 [20cff7c8|ce4762ee] (00+12/27) Accurately ripped
Offsetted by -12:
01 [313832e8] (00/27) No match (V2 was not tested)
02 [2ad596b0] (00/27) No match (V2 was not tested)
03 [b0e0e38c] (00/27) No match (V2 was not tested)
04 [c615963d] (00/27) No match (V2 was not tested)
05 [e286671e] (00/27) No match (V2 was not tested)
06 [3bf41526] (00/27) No match (V2 was not tested)

Track Peak [ CRC32 ] [W/O NULL] [ LOG ]
– 99,6 [62AD5923] [437B2711]
01 99,6 [7E6B74AF] [2FBDB027] CRC32
02 97,5 [D29C9E0B] [6E0CC7EB] CRC32
03 98,5 [FC5B726C] [980FF04A] CRC32
04 73,4 [B2DB3769] [E20EDB22] CRC32
05 86,9 [D31C2D31] [595C211A] CRC32
06 98,8 [26FDF3A3] [5438FCEC] CRC32


Stanley Clarke - The Complete 1970s Epic Albums Collection (2012) [7CD Box Set]

Tracklist CD3 - School Days (1976):

01. School Days (7:50)
02. Quiet Afternoon (5:08)
03. The Dancer (5:25)
04. Desert Song (6:55)
05. Hot Fun (2:55)
06. Life Is Just a Game (8:58)

Exact Audio Copy V1.0 beta 3 from 29. August 2011

EAC extraction logfile from 30. August 2012, 13:42

Stanley Clarke / School Days

Used drive : HL-DT-STCD-RW GCE-8483B Adapter: 0 ID: 1

Read mode : Secure
Utilize accurate stream : Yes
Defeat audio cache : Yes
Make use of C2 pointers : No

Read offset correction : 6
Overread into Lead-In and Lead-Out : No
Fill up missing offset samples with silence : Yes
Delete leading and trailing silent blocks : No
Null samples used in CRC calculations : Yes
Used interface : Native Win32 interface for Win NT & 2000
Gap handling : Appended to previous track

Used output format : User Defined Encoder
Selected bitrate : 1024 kBit/s
Quality : High
Add ID3 tag : No
Command line compressor : C:\Program Files\Exact Audio Copy\FLAC\FLAC.EXE
Additional command line options : -V -8 -T "artist=%artist%" -T "title=%title%" -T "album=%albumtitle%" -T "date=%year%" -T "tracknumber=%tracknr%" -T "genre=%genre%" %source%


TOC of the extracted CD

Track | Start | Length | Start sector | End sector
––––––––––––––––––––––––––––-
1 | 0:00.00 | 7:50.28 | 0 | 35277
2 | 7:50.28 | 5:08.34 | 35278 | 58411
3 | 12:58.62 | 5:24.54 | 58412 | 82765
4 | 18:23.41 | 6:54.68 | 82766 | 113883
5 | 25:18.34 | 2:55.04 | 113884 | 127012
6 | 28:13.38 | 8:57.69 | 127013 | 167356


Track 1

Filename C:\Program Files\Exact Audio Copy\RIPS\Stanley Clarke\1976 - School Days\01 - School Days.wav

Pre-gap length 0:00:02.00

Peak level 100.0 %
Extraction speed 5.5 X
Track quality 100.0 %
Test CRC 9FED53CD
Copy CRC 9FED53CD
Track not present in AccurateRip database
Copy OK

Track 2

Filename C:\Program Files\Exact Audio Copy\RIPS\Stanley Clarke\1976 - School Days\02 - Quiet Afternoon.wav

Peak level 90.1 %
Extraction speed 6.0 X
Track quality 100.0 %
Test CRC 41A928E4
Copy CRC 41A928E4
Track not present in AccurateRip database
Copy OK

Track 3

Filename C:\Program Files\Exact Audio Copy\RIPS\Stanley Clarke\1976 - School Days\03 - The Dancer.wav

Pre-gap length 0:00:02.09

Peak level 90.0 %
Extraction speed 5.8 X
Track quality 99.9 %
Test CRC E320119E
Copy CRC E320119E
Track not present in AccurateRip database
Copy OK

Track 4

Filename C:\Program Files\Exact Audio Copy\RIPS\Stanley Clarke\1976 - School Days\04 - Desert Song.wav

Peak level 57.7 %
Extraction speed 7.2 X
Track quality 100.0 %
Test CRC 01208CAF
Copy CRC 01208CAF
Track not present in AccurateRip database
Copy OK

Track 5

Filename C:\Program Files\Exact Audio Copy\RIPS\Stanley Clarke\1976 - School Days\05 - Hot Fun.wav

Pre-gap length 0:00:02.56

Peak level 94.8 %
Extraction speed 6.9 X
Track quality 100.0 %
Test CRC 8059DE83
Copy CRC 8059DE83
Track not present in AccurateRip database
Copy OK

Track 6

Filename C:\Program Files\Exact Audio Copy\RIPS\Stanley Clarke\1976 - School Days\06 - Life Is Just a Game.wav

Peak level 97.2 %
Extraction speed 8.3 X
Track quality 100.0 %
Test CRC 34327BCE
Copy CRC 34327BCE
Track not present in AccurateRip database
Copy OK


None of the tracks are present in the AccurateRip database

No errors occurred

End of status report

–– CUETools DB Plugin V2.1.3

[CTDB TOCID: BoY67bzWnEnLbfB92hNDlXUsgLo-] found, Submit result: BoY67bzWnEnLbfB92hNDlXUsgLo- has been confirmed
[0c92e083] (1/1) Accurately ripped


==== Log checksum F5CE9023D60A865E9865F458225F32BAC2CCA570F90FC6B8C2E7264D278ADB2D ====


[CUETools log; Date: 01.12.2018 14:27:24; Version: 2.1.4]
[AccurateRip ID: 0008ec06-002efeae-4208b706] found.
Track [ CRC | V2 ] Status
01 [441a771d|4115cdb2] (00+12/28) Accurately ripped
02 [b918daaf|df7d12fc] (00+11/27) Accurately ripped
03 [ac12f319|23c38a16] (00+12/28) Accurately ripped
04 [a6f6fc65|6bdc7a32] (00+11/27) Accurately ripped
05 [5d3056a4|eb95f912] (00+12/28) Accurately ripped
06 [65c23be6|85735e7e] (00+12/28) Accurately ripped
Offsetted by -12:
01 [63f32fad] (00/28) No match (V2 was not tested)
02 [420e4703] (00/27) No match (V2 was not tested)
03 [438a810d] (00/28) No match (V2 was not tested)
04 [ec6334d5] (00/27) No match (V2 was not tested)
05 [21a14128] (00/28) No match (V2 was not tested)
06 [201dc142] (00/28) No match (V2 was not tested)

Track Peak [ CRC32 ] [W/O NULL] [ LOG ]
– 100,0 [A013C31D] [10377E6D]
01 100,0 [9FED53CD] [F9F837F0] CRC32
02 90,1 [41A928E4] [672823CA] CRC32
03 90,0 [E320119E] [BB1B5BD9] CRC32
04 57,7 [01208CAF] [0791FEF9] CRC32
05 94,8 [8059DE83] [9E0FA460] CRC32
06 97,2 [34327BCE] [4C42E2CA] CRC32


Stanley Clarke - The Complete 1970s Epic Albums Collection (2012) [7CD Box Set]

Tracklist CD4 - Modern Man (1978):

01. Opening (Statement) (4:21)
02. He Lives On (Story About the Last Journey of a Warrior) (4:31)
03. More Hot Fun (4:32)
04. Slow Dance (3:20)
05. Interlude: A Serious Occasion (0:21)
06. Got to Find My Own Place (3:21)
07. Dayride (4:09)
08. Interlude: It's What She Didn't Say (1:26)
09. Modern Man (3:32)
10. Interlude: A Relaxed Occasion (1:26)
11. Rock 'n' Roll Jelly (5:10)
12. Closing (Statement) (2:36)

Exact Audio Copy V1.0 beta 3 from 29. August 2011

EAC extraction logfile from 30. August 2012, 14:05

Stanley Clarke / Modern Man

Used drive : HL-DT-STCD-RW GCE-8483B Adapter: 0 ID: 1

Read mode : Secure
Utilize accurate stream : Yes
Defeat audio cache : Yes
Make use of C2 pointers : No

Read offset correction : 6
Overread into Lead-In and Lead-Out : No
Fill up missing offset samples with silence : Yes
Delete leading and trailing silent blocks : No
Null samples used in CRC calculations : Yes
Used interface : Native Win32 interface for Win NT & 2000
Gap handling : Appended to previous track

Used output format : User Defined Encoder
Selected bitrate : 1024 kBit/s
Quality : High
Add ID3 tag : No
Command line compressor : C:\Program Files\Exact Audio Copy\FLAC\FLAC.EXE
Additional command line options : -V -8 -T "artist=%artist%" -T "title=%title%" -T "album=%albumtitle%" -T "date=%year%" -T "tracknumber=%tracknr%" -T "genre=%genre%" %source%


TOC of the extracted CD

Track | Start | Length | Start sector | End sector
––––––––––––––––––––––––––––-
1 | 0:00.00 | 4:21.17 | 0 | 19591
2 | 4:21.17 | 4:30.42 | 19592 | 39883
3 | 8:51.59 | 4:32.23 | 39884 | 60306
4 | 13:24.07 | 3:20.04 | 60307 | 75310
5 | 16:44.11 | 0:21.07 | 75311 | 76892
6 | 17:05.18 | 3:20.69 | 76893 | 91961
7 | 20:26.12 | 4:09.30 | 91962 | 110666
8 | 24:35.42 | 1:25.69 | 110667 | 117110
9 | 26:01.36 | 3:32.09 | 117111 | 133019
10 | 29:33.45 | 1:25.60 | 133020 | 139454
11 | 30:59.30 | 5:09.58 | 139455 | 162687
12 | 36:09.13 | 2:36.18 | 162688 | 174405


Track 1

Filename C:\Program Files\Exact Audio Copy\RIPS\Stanley Clarke\1978 - Modern Man\01 - Opening (Statement).wav

Pre-gap length 0:00:02.00

Peak level 98.5 %
Extraction speed 5.1 X
Track quality 100.0 %
Test CRC 232C22BE
Copy CRC 232C22BE
Track not present in AccurateRip database
Copy OK

Track 2

Filename C:\Program Files\Exact Audio Copy\RIPS\Stanley Clarke\1978 - Modern Man\02 - He Lives On (Story About the Last Journey of a Warrior).wav

Peak level 98.4 %
Extraction speed 4.8 X
Track quality 99.9 %
Test CRC BAC82253
Copy CRC BAC82253
Track not present in AccurateRip database
Copy OK

Track 3

Filename C:\Program Files\Exact Audio Copy\RIPS\Stanley Clarke\1978 - Modern Man\03 - More Hot Fun.wav

Peak level 100.0 %
Extraction speed 6.1 X
Track quality 100.0 %
Test CRC ED5635E1
Copy CRC ED5635E1
Track not present in AccurateRip database
Copy OK

Track 4

Filename C:\Program Files\Exact Audio Copy\RIPS\Stanley Clarke\1978 - Modern Man\04 - Slow Dance.wav

Peak level 98.5 %
Extraction speed 6.1 X
Track quality 100.0 %
Test CRC DCF40662
Copy CRC DCF40662
Track not present in AccurateRip database
Copy OK

Track 5

Filename C:\Program Files\Exact Audio Copy\RIPS\Stanley Clarke\1978 - Modern Man\05 - Interlude- A Serious Occasion.wav

Peak level 43.5 %
Extraction speed 2.7 X
Track quality 100.0 %
Test CRC F1FAD7CF
Copy CRC F1FAD7CF
Track not present in AccurateRip database
Copy OK

Track 6

Filename C:\Program Files\Exact Audio Copy\RIPS\Stanley Clarke\1978 - Modern Man\06 - Got to Find My Own Place.wav

Peak level 99.9 %
Extraction speed 6.5 X
Track quality 100.0 %
Test CRC 6DCD8904
Copy CRC 6DCD8904
Track not present in AccurateRip database
Copy OK

Track 7

Filename C:\Program Files\Exact Audio Copy\RIPS\Stanley Clarke\1978 - Modern Man\07 - Dayride.wav

Peak level 100.0 %
Extraction speed 6.9 X
Track quality 100.0 %
Test CRC 6229B012
Copy CRC 6229B012
Track not present in AccurateRip database
Copy OK

Track 8

Filename C:\Program Files\Exact Audio Copy\RIPS\Stanley Clarke\1978 - Modern Man\08 - Interlude- It's What She Didn't Say.wav

Peak level 98.1 %
Extraction speed 5.8 X
Track quality 100.0 %
Test CRC 56F99D5D
Copy CRC 56F99D5D
Track not present in AccurateRip database
Copy OK

Track 9

Filename C:\Program Files\Exact Audio Copy\RIPS\Stanley Clarke\1978 - Modern Man\09 - Modern Man.wav

Peak level 98.8 %
Extraction speed 5.9 X
Track quality 99.9 %
Test CRC FABE6F6B
Copy CRC FABE6F6B
Track not present in AccurateRip database
Copy OK

Track 10

Filename C:\Program Files\Exact Audio Copy\RIPS\Stanley Clarke\1978 - Modern Man\10 - Interlude- A Relaxed Occasion.wav

Peak level 93.1 %
Extraction speed 6.1 X
Track quality 100.0 %
Test CRC D806E774
Copy CRC D806E774
Track not present in AccurateRip database
Copy OK

Track 11

Filename C:\Program Files\Exact Audio Copy\RIPS\Stanley Clarke\1978 - Modern Man\11 - Rock 'n' Roll Jelly.wav

Peak level 99.9 %
Extraction speed 6.8 X
Track quality 99.9 %
Test CRC 78655AEC
Copy CRC 78655AEC
Track not present in AccurateRip database
Copy OK

Track 12

Filename C:\Program Files\Exact Audio Copy\RIPS\Stanley Clarke\1978 - Modern Man\12 - Closing (Statement).wav

Peak level 99.7 %
Extraction speed 7.4 X
Track quality 100.0 %
Test CRC 114A1C54
Copy CRC 114A1C54
Track not present in AccurateRip database
Copy OK


None of the tracks are present in the AccurateRip database

No errors occurred

End of status report

–– CUETools DB Plugin V2.1.3

[CTDB TOCID: 174WwscKscGNCEofQWtn4qest5U-] found, Submit result: 174WwscKscGNCEofQWtn4qest5U- has been confirmed
[7e77d8ea] (1/1) Accurately ripped


==== Log checksum 96D7F3E2F8E429350B61F8D69100E69C8C15F5496580B3D22844D8D2AA8E6140 ====


[CUETools log; Date: 01.12.2018 14:29:41; Version: 2.1.4]
[AccurateRip ID: 00125490-00a664d2-9509150c] found.
Track [ CRC | V2 ] Status
01 [74d54a0b|1b1207c5] (00+12/28) Accurately ripped
02 [664f78f6|becc9b7d] (00+12/28) Accurately ripped
03 [3904d956|d39624e3] (00+12/28) Accurately ripped
04 [ac4c33ba|c75f0353] (00+12/28) Accurately ripped
05 [3adb4301|89049ffa] (00+12/28) Accurately ripped
06 [c011de64|77829f5e] (00+12/28) Accurately ripped
07 [b15cdfe8|652c09dd] (00+12/28) Accurately ripped
08 [e9703670|a3eed2b0] (00+12/28) Accurately ripped
09 [1dfd0d99|082cd7de] (00+12/28) Accurately ripped
10 [a8132e03|8ea11a64] (00+12/28) Accurately ripped
11 [6a9bbce6|02c27cab] (00+12/28) Accurately ripped
12 [16af7680|f97ddc5c] (00+12/28) Accurately ripped
Offsetted by -12:
01 [c7e88af7] (00/28) No match (V2 was not tested)
02 [c80abc2d] (00/28) No match (V2 was not tested)
03 [7bde9e49] (00/28) No match (V2 was not tested)
04 [b445bc21] (00/28) No match (V2 was not tested)
05 [f9547235] (00/28) No match (V2 was not tested)
06 [eae9a66a] (00/28) No match (V2 was not tested)
07 [104cfbab] (00/28) No match (V2 was not tested)
08 [c8c53efa] (00/28) No match (V2 was not tested)
09 [3dae6324] (00/28) No match (V2 was not tested)
10 [99b5df21] (00/28) No match (V2 was not tested)
11 [92c28560] (00/28) No match (V2 was not tested)
12 [a400b4c1] (00/28) No match (V2 was not tested)

Track Peak [ CRC32 ] [W/O NULL] [ LOG ]
– 100,0 [5CFD2AC1] [9EB683D1]
01 98,5 [232C22BE] [2AAB10AF] CRC32
02 98,4 [BAC82253] [39496E4F] CRC32
03 100,0 [ED5635E1] [91FCE942] CRC32
04 98,5 [DCF40662] [A7893579] CRC32
05 43,5 [F1FAD7CF] [6D5C85F1] CRC32
06 99,9 [6DCD8904] [5193279E] CRC32
07 100,0 [6229B012] [B2F6254F] CRC32
08 98,1 [56F99D5D] [34A593B4] CRC32
09 98,8 [FABE6F6B] [1E4EF90F] CRC32
10 93,1 [D806E774] [849D75D7] CRC32
11 99,9 [78655AEC] [A8B88B7E] CRC32
12 99,7 [114A1C54] [104009D4] CRC32


Stanley Clarke - The Complete 1970s Epic Albums Collection (2012) [7CD Box Set]

Tracklist CD5-6 - I Wanna Play for You (1979):

01. Rock 'n' Roll Jelly (2:36)
02. All About (5:17)
03. Jamaican Boy (3:32)
04. Christopher Ivanhoe (3:25)
05. My Greatest Hits (6:30)
06. Strange Weather (1:38)
07. I Wanna Play for You (6:26)
08. Just a Feeling (6:04)
09. The Streets of Philadelphia (5:58)

Exact Audio Copy V1.0 beta 3 from 29. August 2011

EAC extraction logfile from 30. August 2012, 14:32

Stanley Clarke / I Wanna Play for You (Disc 1)

Used drive : HL-DT-STCD-RW GCE-8483B Adapter: 0 ID: 1

Read mode : Secure
Utilize accurate stream : Yes
Defeat audio cache : Yes
Make use of C2 pointers : No

Read offset correction : 6
Overread into Lead-In and Lead-Out : No
Fill up missing offset samples with silence : Yes
Delete leading and trailing silent blocks : No
Null samples used in CRC calculations : Yes
Used interface : Native Win32 interface for Win NT & 2000
Gap handling : Appended to previous track

Used output format : User Defined Encoder
Selected bitrate : 1024 kBit/s
Quality : High
Add ID3 tag : No
Command line compressor : C:\Program Files\Exact Audio Copy\FLAC\FLAC.EXE
Additional command line options : -V -8 -T "artist=%artist%" -T "title=%title%" -T "album=%albumtitle%" -T "date=%year%" -T "tracknumber=%tracknr%" -T "genre=%genre%" %source%


TOC of the extracted CD

Track | Start | Length | Start sector | End sector
––––––––––––––––––––––––––––-
1 | 0:00.00 | 2:36.37 | 0 | 11736
2 | 2:36.37 | 5:17.36 | 11737 | 35547
3 | 7:53.73 | 3:31.64 | 35548 | 51436
4 | 11:25.62 | 3:24.51 | 51437 | 66787
5 | 14:50.38 | 6:30.17 | 66788 | 96054
6 | 21:20.55 | 1:38.34 | 96055 | 103438
7 | 22:59.14 | 6:26.00 | 103439 | 132388
8 | 29:25.14 | 6:03.46 | 132389 | 159659
9 | 35:28.60 | 5:58.18 | 159660 | 186527


Track 1

Filename C:\Program Files\Exact Audio Copy\RIPS\Stanley Clarke\1979 - I Wanna Play for You (Disc 1)\01 - Rock 'n' Roll Jelly.wav

Pre-gap length 0:00:02.00

Peak level 96.2 %
Extraction speed 4.6 X
Track quality 100.0 %
Test CRC 1787954F
Copy CRC 1787954F
Track not present in AccurateRip database
Copy OK

Track 2

Filename C:\Program Files\Exact Audio Copy\RIPS\Stanley Clarke\1979 - I Wanna Play for You (Disc 1)\02 - All About.wav

Peak level 98.0 %
Extraction speed 5.5 X
Track quality 100.0 %
Test CRC 0EE4948B
Copy CRC 0EE4948B
Track not present in AccurateRip database
Copy OK

Track 3

Filename C:\Program Files\Exact Audio Copy\RIPS\Stanley Clarke\1979 - I Wanna Play for You (Disc 1)\03 - Jamaican Boy.wav

Peak level 97.5 %
Extraction speed 5.7 X
Track quality 100.0 %
Test CRC E38A02D6
Copy CRC E38A02D6
Track not present in AccurateRip database
Copy OK

Track 4

Filename C:\Program Files\Exact Audio Copy\RIPS\Stanley Clarke\1979 - I Wanna Play for You (Disc 1)\04 - Christopher Ivanhoe.wav

Peak level 84.4 %
Extraction speed 6.1 X
Track quality 100.0 %
Test CRC 4D111645
Copy CRC 4D111645
Track not present in AccurateRip database
Copy OK

Track 5

Filename C:\Program Files\Exact Audio Copy\RIPS\Stanley Clarke\1979 - I Wanna Play for You (Disc 1)\05 - My Greatest Hits.wav

Peak level 97.9 %
Extraction speed 7.0 X
Track quality 100.0 %
Test CRC 8F1D0512
Copy CRC 8F1D0512
Track not present in AccurateRip database
Copy OK

Track 6

Filename C:\Program Files\Exact Audio Copy\RIPS\Stanley Clarke\1979 - I Wanna Play for You (Disc 1)\06 - Strange Weather.wav

Peak level 65.5 %
Extraction speed 5.9 X
Track quality 100.0 %
Test CRC CBC57A3F
Copy CRC CBC57A3F
Track not present in AccurateRip database
Copy OK

Track 7

Filename C:\Program Files\Exact Audio Copy\RIPS\Stanley Clarke\1979 - I Wanna Play for You (Disc 1)\07 - I Wanna Play for You.wav

Peak level 87.7 %
Extraction speed 7.6 X
Track quality 100.0 %
Test CRC D902FB9B
Copy CRC D902FB9B
Track not present in AccurateRip database
Copy OK

Track 8

Filename C:\Program Files\Exact Audio Copy\RIPS\Stanley Clarke\1979 - I Wanna Play for You (Disc 1)\08 - Just a Feeling.wav

Peak level 96.4 %
Extraction speed 8.0 X
Track quality 100.0 %
Test CRC 81E00333
Copy CRC 81E00333
Track not present in AccurateRip database
Copy OK

Track 9

Filename C:\Program Files\Exact Audio Copy\RIPS\Stanley Clarke\1979 - I Wanna Play for You (Disc 1)\09 - The Streets of Philadelphia.wav

Peak level 94.8 %
Extraction speed 7.4 X
Track quality 99.9 %
Test CRC 054C5EE8
Copy CRC 054C5EE8
Track not present in AccurateRip database
Copy OK


None of the tracks are present in the AccurateRip database

No errors occurred

End of status report

–– CUETools DB Plugin V2.1.3

[CTDB TOCID: SdLzOwYz3ETPeGaz0iBZfZl87k4-] found, Submit result: SdLzOwYz3ETPeGaz0iBZfZl87k4- has been confirmed
[fc9da453] (1/1) Accurately ripped


==== Log checksum 7548F0ECB7783BEC111413935A933A022811237776C4996571FF29E57495C315 ====


[CUETools log; Date: 01.12.2018 14:32:10; Version: 2.1.4]
[AccurateRip ID: 000cdf3d-00609c96-7d09b709] found.
Track [ CRC | V2 ] Status
01 [d9c3c9d6|4038f42a] (00+12/28) Accurately ripped
02 [9c984fe3|7efa7175] (00+12/28) Accurately ripped
03 [89bdd2f8|db4337e6] (00+12/28) Accurately ripped
04 [60683654|4f058147] (00+12/28) Accurately ripped
05 [03c1b4d8|19bd1135] (00+12/28) Accurately ripped
06 [ac262098|2568938a] (00+12/28) Accurately ripped
07 [4c238a96|93a3e126] (00+12/28) Accurately ripped
08 [727d6f0d|435f69d0] (00+12/28) Accurately ripped
09 [e63269f0|c140fd24] (00+12/28) Accurately ripped
Offsetted by -12:
01 [6861e2b1] (00/28) No match (V2 was not tested)
02 [65ca9d4d] (00/28) No match (V2 was not tested)
03 [46c9a883] (00/28) No match (V2 was not tested)
04 [58910334] (00/28) No match (V2 was not tested)
05 [b11e9f73] (00/28) No match (V2 was not tested)
06 [4569c042] (00/28) No match (V2 was not tested)
07 [49edd155] (00/28) No match (V2 was not tested)
08 [fb009a4b] (00/28) No match (V2 was not tested)
09 [a579c906] (00/28) No match (V2 was not tested)

Track Peak [ CRC32 ] [W/O NULL] [ LOG ]
– 98,0 [971C53EC] [059C9BD2]
01 96,2 [1787954F] [8D72AB3D] CRC32
02 98,0 [0EE4948B] [1432F735] CRC32
03 97,5 [E38A02D6] [E4593B6D] CRC32
04 84,4 [4D111645] [FB79B642] CRC32
05 97,9 [8F1D0512] [13FCEA60] CRC32
06 65,5 [CBC57A3F] [50FF938A] CRC32
07 87,7 [D902FB9B] [5FDDF546] CRC32
08 96,4 [81E00333] [0064A926] CRC32
09 94,8 [054C5EE8] [06E7236B] CRC32



01. School Days (10:41)
02. Quiet Afternoon (9:02)
03. Together Again (5:45)
04. Blues for Mingus (2:19)
05. Off the Planet (3:11)
06. Hot Fun Closing (7:53)

Exact Audio Copy V1.0 beta 3 from 29. August 2011

EAC extraction logfile from 31. August 2012, 1:57

Stanley Clarke / I Wanna Play for You (Disc 2)

Used drive : HL-DT-STCD-RW GCE-8483B Adapter: 0 ID: 1

Read mode : Secure
Utilize accurate stream : Yes
Defeat audio cache : Yes
Make use of C2 pointers : No

Read offset correction : 6
Overread into Lead-In and Lead-Out : No
Fill up missing offset samples with silence : Yes
Delete leading and trailing silent blocks : No
Null samples used in CRC calculations : Yes
Used interface : Native Win32 interface for Win NT & 2000
Gap handling : Appended to previous track

Used output format : User Defined Encoder
Selected bitrate : 1024 kBit/s
Quality : High
Add ID3 tag : No
Command line compressor : C:\Program Files\Exact Audio Copy\FLAC\FLAC.EXE
Additional command line options : -V -8 -T "artist=%artist%" -T "title=%title%" -T "album=%albumtitle%" -T "date=%year%" -T "tracknumber=%tracknr%" -T "genre=%genre%" %source%


TOC of the extracted CD

Track | Start | Length | Start sector | End sector
––––––––––––––––––––––––––––-
1 | 0:00.00 | 10:41.09 | 0 | 48083
2 | 10:41.09 | 9:01.50 | 48084 | 88708
3 | 19:42.59 | 5:45.19 | 88709 | 114602
4 | 25:28.03 | 2:19.14 | 114603 | 125041
5 | 27:47.17 | 3:10.69 | 125042 | 139360
6 | 30:58.11 | 7:52.48 | 139361 | 174808


Track 1

Filename C:\Program Files\Exact Audio Copy\RIPS\Stanley Clarke\1979 - I Wanna Play for You (Disc 2)\01 - School Days.wav

Pre-gap length 0:00:02.00

Peak level 99.0 %
Extraction speed 5.9 X
Track quality 100.0 %
Test CRC EFB999A0
Copy CRC EFB999A0
Track not present in AccurateRip database
Copy OK

Track 2

Filename C:\Program Files\Exact Audio Copy\RIPS\Stanley Clarke\1979 - I Wanna Play for You (Disc 2)\02 - Quiet Afternoon.wav

Peak level 100.0 %
Extraction speed 6.9 X
Track quality 100.0 %
Test CRC 084EA82D
Copy CRC 084EA82D
Track not present in AccurateRip database
Copy OK

Track 3

Filename C:\Program Files\Exact Audio Copy\RIPS\Stanley Clarke\1979 - I Wanna Play for You (Disc 2)\03 - Together Again.wav

Pre-gap length 0:00:02.26

Peak level 98.5 %
Extraction speed 6.4 X
Track quality 99.9 %
Test CRC 89C1EC97
Copy CRC 89C1EC97
Track not present in AccurateRip database
Copy OK

Track 4

Filename C:\Program Files\Exact Audio Copy\RIPS\Stanley Clarke\1979 - I Wanna Play for You (Disc 2)\04 - Blues for Mingus.wav

Peak level 95.2 %
Extraction speed 6.7 X
Track quality 100.0 %
Test CRC 7F83DEB9
Copy CRC 7F83DEB9
Track not present in AccurateRip database
Copy OK

Track 5

Filename C:\Program Files\Exact Audio Copy\RIPS\Stanley Clarke\1979 - I Wanna Play for You (Disc 2)\05 - Off the Planet.wav

Peak level 96.3 %
Extraction speed 5.9 X
Track quality 99.9 %
Test CRC 58EECAA4
Copy CRC 58EECAA4
Track not present in AccurateRip database
Copy OK

Track 6

Filename C:\Program Files\Exact Audio Copy\RIPS\Stanley Clarke\1979 - I Wanna Play for You (Disc 2)\06 - Hot Fun Closing.wav

Peak level 100.0 %
Extraction speed 8.3 X
Track quality 100.0 %
Test CRC BE149156
Copy CRC BE149156
Track not present in AccurateRip database
Copy OK


None of the tracks are present in the AccurateRip database

No errors occurred

End of status report

–– CUETools DB Plugin V2.1.3

[CTDB TOCID: 3Zc.9ojyY3zGBIVYHHn.41P4jJE-] found, Submit result: 3Zc.9ojyY3zGBIVYHHn.41P4jJE- has been confirmed
[6465c887] (1/1) Accurately ripped


==== Log checksum 201270332348C9EEB4ABE045DB1C6A5FCBBE2D5DC5287939FF66DF67381DB16A ====


[CUETools log; Date: 01.12.2018 14:34:26; Version: 2.1.4]
[AccurateRip ID: 000a89b0-00357e53-4b091a06] found.
Track [ CRC | V2 ] Status
01 [e2d22c94|62982595] (00+12/28) Accurately ripped
02 [0b8368ef|21648239] (00+11/27) Accurately ripped
03 [c7ae774e|d5fcd517] (00+12/28) Accurately ripped
04 [d8c5e482|08aea5f2] (00+12/28) Accurately ripped
05 [9364e535|c4a0e4d9] (00+12/28) Accurately ripped
06 [72deb094|b584dfad] (00+12/28) Accurately ripped
Offsetted by -12:
01 [0495a02f] (00/28) No match (V2 was not tested)
02 [c1a785e0] (00/27) No match (V2 was not tested)
03 [d86e0f13] (00/28) No match (V2 was not tested)
04 [9987e2cd] (00/28) No match (V2 was not tested)
05 [d0bf7f10] (00/28) No match (V2 was not tested)
06 [22f0dddd] (00/28) No match (V2 was not tested)

Track Peak [ CRC32 ] [W/O NULL] [ LOG ]
– 100,0 [8BF0295E] [4A421CB0]
01 99,0 [EFB999A0] [2AE0C9CA] CRC32
02 100,0 [084EA82D] [07CD0792] CRC32
03 98,5 [89C1EC97] [AF06D155] CRC32
04 95,2 [7F83DEB9] [90745DDE] CRC32
05 96,3 [58EECAA4] [D386194E] CRC32
06 100,0 [BE149156] [30A572F6] CRC32


Stanley Clarke - The Complete 1970s Epic Albums Collection (2012) [7CD Box Set]

Tracklist CD7 - Live 1976-1977 (1991):

01. School Days (7:01)
02. Lopsy Lu (7:26)
03. Quiet Afternoon (6:51)
04. Silly Putty (5:38)
05. Dayride (7:04)
06. Bass Folk Song No. 3 (13:41)
07. The Magician (5:56)
08. Desert Song (7:29)
09. Vulcan Princess (3:22)

Exact Audio Copy V1.0 beta 3 from 29. August 2011

EAC extraction logfile from 31. August 2012, 6:13

Stanley Clarke / Live 1976-1977

Used drive : HL-DT-STCD-RW GCE-8483B Adapter: 0 ID: 1

Read mode : Secure
Utilize accurate stream : Yes
Defeat audio cache : Yes
Make use of C2 pointers : No

Read offset correction : 6
Overread into Lead-In and Lead-Out : No
Fill up missing offset samples with silence : Yes
Delete leading and trailing silent blocks : No
Null samples used in CRC calculations : Yes
Used interface : Native Win32 interface for Win NT & 2000
Gap handling : Appended to previous track

Used output format : User Defined Encoder
Selected bitrate : 1024 kBit/s
Quality : High
Add ID3 tag : No
Command line compressor : C:\Program Files\Exact Audio Copy\FLAC\FLAC.EXE
Additional command line options : -V -8 -T "artist=%artist%" -T "title=%title%" -T "album=%albumtitle%" -T "date=%year%" -T "tracknumber=%tracknr%" -T "genre=%genre%" %source%


TOC of the extracted CD

Track | Start | Length | Start sector | End sector
––––––––––––––––––––––––––––-
1 | 0:00.00 | 7:00.50 | 0 | 31549
2 | 7:00.50 | 7:25.43 | 31550 | 64967
3 | 14:26.18 | 6:51.07 | 64968 | 95799
4 | 21:17.25 | 5:37.38 | 95800 | 121112
5 | 26:54.63 | 7:04.30 | 121113 | 152942
6 | 33:59.18 | 13:40.62 | 152943 | 214504
7 | 47:40.05 | 5:55.53 | 214505 | 241182
8 | 53:35.58 | 7:29.17 | 241183 | 274874
9 | 61:05.00 | 3:22.08 | 274875 | 290032


Track 1

Filename C:\Program Files\Exact Audio Copy\RIPS\Stanley Clarke\1991 - Live 1976-1977\01 - School Days.wav

Pre-gap length 0:00:02.00

Peak level 95.7 %
Extraction speed 4.3 X
Track quality 100.0 %
Test CRC 6A55148C
Copy CRC 6A55148C
Track not present in AccurateRip database
Copy OK

Track 2

Filename C:\Program Files\Exact Audio Copy\RIPS\Stanley Clarke\1991 - Live 1976-1977\02 - Lopsy Lu.wav

Peak level 100.0 %
Extraction speed 5.0 X
Track quality 100.0 %
Test CRC AA2F80FE
Copy CRC AA2F80FE
Track not present in AccurateRip database
Copy OK

Track 3

Filename C:\Program Files\Exact Audio Copy\RIPS\Stanley Clarke\1991 - Live 1976-1977\03 - Quiet Afternoon.wav

Peak level 91.2 %
Extraction speed 5.6 X
Track quality 100.0 %
Test CRC 8F0E7032
Copy CRC 8F0E7032
Track not present in AccurateRip database
Copy OK

Track 4

Filename C:\Program Files\Exact Audio Copy\RIPS\Stanley Clarke\1991 - Live 1976-1977\04 - Silly Putty.wav

Peak level 99.9 %
Extraction speed 5.9 X
Track quality 100.0 %
Test CRC DACE81B6
Copy CRC DACE81B6
Track not present in AccurateRip database
Copy OK

Track 5

Filename C:\Program Files\Exact Audio Copy\RIPS\Stanley Clarke\1991 - Live 1976-1977\05 - Dayride.wav

Peak level 99.0 %
Extraction speed 6.4 X
Track quality 100.0 %
Test CRC 98DD3C70
Copy CRC 98DD3C70
Track not present in AccurateRip database
Copy OK

Track 6

Filename C:\Program Files\Exact Audio Copy\RIPS\Stanley Clarke\1991 - Live 1976-1977\06 - Bass Folk Song No. 3.wav

Peak level 86.2 %
Extraction speed 7.2 X
Track quality 100.0 %
Test CRC 16E97B02
Copy CRC 16E97B02
Track not present in AccurateRip database
Copy OK

Track 7

Filename C:\Program Files\Exact Audio Copy\RIPS\Stanley Clarke\1991 - Live 1976-1977\07 - The Magician.wav

Peak level 97.9 %
Extraction speed 7.3 X
Track quality 100.0 %
Test CRC E6FCE0C9
Copy CRC E6FCE0C9
Track not present in AccurateRip database
Copy OK

Track 8

Filename C:\Program Files\Exact Audio Copy\RIPS\Stanley Clarke\1991 - Live 1976-1977\08 - Desert Song.wav

Peak level 82.5 %
Extraction speed 7.7 X
Track quality 100.0 %
Test CRC E5C1ED37
Copy CRC E5C1ED37
Track not present in AccurateRip database
Copy OK

Track 9

Filename C:\Program Files\Exact Audio Copy\RIPS\Stanley Clarke\1991 - Live 1976-1977\09 - Vulcan Princess.wav

Pre-gap length 0:00:01.20

Peak level 94.2 %
Extraction speed 7.3 X
Track quality 100.0 %
Test CRC 5CB71DAC
Copy CRC 5CB71DAC
Track not present in AccurateRip database
Copy OK


None of the tracks are present in the AccurateRip database

No errors occurred

End of status report

–– CUETools DB Plugin V2.1.3

[CTDB TOCID: COjbNav1jUmbF5hZmbmaD6zG37I-] found, Submit result: COjbNav1jUmbF5hZmbmaD6zG37I- has been confirmed
[833dca61] (1/1) Accurately ripped


==== Log checksum FD60AE62F243B4630F2E9E13D5DD598B3B990234E5B73EDC74EC38AED19203B2 ====


[CUETools log; Date: 01.12.2018 14:36:56; Version: 2.1.4]
[AccurateRip ID: 0016b07a-00a76220-7d0f1b09] found.
Track [ CRC | V2 ] Status
01 [0bbecd84|54c05ea2] (00+11/26) Accurately ripped
02 [6408f252|24d6776b] (00+11/26) Accurately ripped
03 [77c01bbc|a0c85792] (00+11/26) Accurately ripped
04 [99bb6f53|17dea224] (00+11/26) Accurately ripped
05 [e43df2c9|97461246] (00+11/26) Accurately ripped
06 [ab2a68fd|2eb3692a] (00+11/26) Accurately ripped
07 [75a99c12|8d3ff11c] (00+11/26) Accurately ripped
08 [7f79fcc6|893519ab] (00+11/26) Accurately ripped
09 [02a49bc2|052b5bfc] (00+11/26) Accurately ripped
Offsetted by -12:
01 [6d7710d7] (00/26) No match (V2 was not tested)
02 [8eeb9a2d] (00/26) No match (V2 was not tested)
03 [4bade61e] (00/26) No match (V2 was not tested)
04 [35b1fcce] (00/26) No match (V2 was not tested)
05 [89c9f6fb] (00/26) No match (V2 was not tested)
06 [bfbc4335] (00/26) No match (V2 was not tested)
07 [3ba55caa] (00/26) No match (V2 was not tested)
08 [e8a0e06b] (00/26) No match (V2 was not tested)
09 [aa5ff504] (00/26) No match (V2 was not tested)

Track Peak [ CRC32 ] [W/O NULL] [ LOG ]
– 100,0 [9D281CE8] [516CC42F]
01 95,7 [6A55148C] [5320288F] CRC32
02 100,0 [AA2F80FE] [1C440A77] CRC32
03 91,2 [8F0E7032] [07B03402] CRC32
04 99,9 [DACE81B6] [0D1DF6C6] CRC32
05 99,0 [98DD3C70] [4780ABE6] CRC32
06 86,2 [16E97B02] [55E40060] CRC32
07 97,9 [E6FCE0C9] [3CBEF80B] CRC32
08 82,5 [E5C1ED37] [0D562290] CRC32
09 94,2 [5CB71DAC] [AC9A39F8] CRC32


Stanley Clarke - The Complete 1970s Epic Albums Collection (2012) [7CD Box Set]

All thanks go to the original releaser

Stanley Clarke in my Blog

Download Stanley Clarke - The Complete 1970s Epic Albums Collection (2012):