Stanley Clarke - 1, 2 To The Bass (2003) {Epic}

Posted By: tiburon
Stanley Clarke - 1, 2 To The Bass (2003) {Epic}

Stanley Clarke - 1,2 To The Bass (2003) {EK 67346}
EAC 0.99pb5 | FLAC tracks level 8 | Cue+Log+M3u+MD5 | Full Scans 300dpi | 404MB + 5% Recovery
MP3 CBR 320 Kbps | 180MB + 5% Recovery
Genre: Jazz-Funk, Fusion
Stanley Clarke - 1, 2 To The Bass (2003) {Epic}

Stanley Clarke is without doubt a phenomenally talented bassist but has not done much to showcase this ability on his own recordings since the late '70s. You can chalk that up mostly to Clarke's propensity for trite, pop-oriented material that does little to illuminate his great technical command of the instrument or to engage the listener either melodically or lyrically. 1, 2, To The Bass is a step in the right direction with a more jazz-oriented feel and some interesting guest appearances.
Track List
01. 1, 2, To The Bass (featuring Q-Tip) 5:57
02. Simply Said 4:34
03. Where Is The Love (featuring Glenn Lewis & Amel Larrieux) 4:06
04. Anna (She Loves The Good Life) 5:01
05. Los Caballos (The Horses) 4:41
06. Just Cruizin' 4:26
07. 'Bout The Bass 7:32
08. Hair 5:14
09. Touch (Recorded Live At Yoshi's) 6:03
10. Todos Los Ninos (All the Children) 4:57
11. I Shall Not Be Moved 6:37
12. Shanti * Peace * Paz * Shalom 5:53

musicians
Stanley Clarke - tenor bass, acoustic bass, Wah bass, electric piccolo bass, string arrangement and conducting, vocal, piano
George Duke - Wurlitzer piano
John Robinson - drums
Everette Harp - alto and soprano saxes on tracks 1, 2, 4, 8
Michael Thompson - guitar on tracks 2, 5, 10
Hubert Laws - flute on track 4
Bob Leatherbarrow - vibes
Glen Lewis - vocal on track 3
Amel Lerrieux - vocal on track 3
Joe Satriani - guitar on track 8
Armand Sabal-Lecco - bass on track 8
Q-Tip (Kamaal Fareed) - spoken word on track 1
Oprah Winfrey - spoken word on track 11
Paul Jackson, Jr. - guitar on track 4
James Earl - bass on tracks 5, 10
Reggie Hamilton - bass on track 4
Myron McKinley - keyboards on tracks 1, 7
Gerry Brown - drums on tracks 1, 4, 5, 6
Doug Webb - sax on tracks 1, 2, 4, 8
Michael Hunter - trumpet on tracks 1, 2, 4, 8
Nicholas Lane - trombone on tracks 1, 2, 4, 8
Reggie Young - trombone on tracks 2, 4, 8
Dr. L.Subramaniam - violin on tracks 10, 12
Vinnie Colaiuta - drums on track 10

Produced by Stanley Clarke


Exact Audio Copy V0.99 prebeta 5 from 4. May 2009

EAC extraction logfile from 24. September 2010, 12:53

Stanley Clarke / 1, 2, To the Bass

Used drive : HL-DT-STDVDRAM GH20NS10 Adapter: 2 ID: 0

Read mode : Secure
Utilize accurate stream : Yes
Defeat audio cache : Yes
Make use of C2 pointers : No

Read offset correction : 667
Overread into Lead-In and Lead-Out : No
Fill up missing offset samples with silence : Yes
Delete leading and trailing silent blocks : No
Null samples used in CRC calculations : Yes
Used interface : Native Win32 interface for Win NT & 2000
Gap handling : Appended to previous track

Used output format : User Defined Encoder
Selected bitrate : 1024 kBit/s
Quality : High
Add ID3 tag : No
Command line compressor : C:\Program Files\Exact Audio Copy\Flac\flac.exe
Additional command line options : -8 -V -T "ARTIST=%a" -T "TITLE=%t" -T "ALBUM=%g" -T "DATE=%y" -T "TRACKNUMBER=%n" -T "TOTALTRACKS=%x" -T "GENRE=%m" -T "ALBUM ARTIST=%v" -T "ALBUMARTIST=%v" -T "COMMENT=EAC V0.99 prebeta 5, Secure Mode, Test & Copy, Accurat


TOC of the extracted CD

Track | Start | Length | Start sector | End sector
––––––––––––––––––––––––––––-
1 | 0:00.00 | 5:55.08 | 0 | 26632
2 | 5:55.08 | 4:34.47 | 26633 | 47229
3 | 10:29.55 | 4:06.18 | 47230 | 65697
4 | 14:35.73 | 5:01.49 | 65698 | 88321
5 | 19:37.47 | 4:41.09 | 88322 | 109405
6 | 24:18.56 | 4:26.60 | 109406 | 129415
7 | 28:45.41 | 7:32.09 | 129416 | 163324
8 | 36:17.50 | 5:14.24 | 163325 | 186898
9 | 41:31.74 | 6:04.08 | 186899 | 214206
10 | 47:36.07 | 4:56.46 | 214207 | 236452
11 | 52:32.53 | 6:37.46 | 236453 | 266273
12 | 59:10.24 | 5:53.46 | 266274 | 292794


Track 1

Filename C:\Users\Tiburon\Desktop\Stanley Clarke - 1,2 To The Bass (2003) {EK 67346}\01 - 1, 2, To the Bass (featuring Q-Tip).wav

Pre-gap length 0:00:02.00

Peak level 99.9 %
Track quality 100.0 %
Test CRC D7ABBD95
Copy CRC D7ABBD95
Accurately ripped (confidence 3) [56D6E5FE]
Copy OK

Track 2

Filename C:\Users\Tiburon\Desktop\Stanley Clarke - 1,2 To The Bass (2003) {EK 67346}\02 - Simply Said.wav

Peak level 95.4 %
Track quality 99.9 %
Test CRC 930CA1D5
Copy CRC 930CA1D5
Accurately ripped (confidence 3) [98B31918]
Copy OK

Track 3

Filename C:\Users\Tiburon\Desktop\Stanley Clarke - 1,2 To The Bass (2003) {EK 67346}\03 - Where Is The Love.wav

Pre-gap length 0:00:00.02

Peak level 98.9 %
Track quality 100.0 %
Test CRC 0C43DDFD
Copy CRC 0C43DDFD
Accurately ripped (confidence 3) [3AC9FB10]
Copy OK

Track 4

Filename C:\Users\Tiburon\Desktop\Stanley Clarke - 1,2 To The Bass (2003) {EK 67346}\04 - Anna (She Loves The Good Life).wav

Peak level 100.0 %
Track quality 100.0 %
Test CRC 537439C9
Copy CRC 537439C9
Accurately ripped (confidence 3) [4F57FF9D]
Copy OK

Track 5

Filename C:\Users\Tiburon\Desktop\Stanley Clarke - 1,2 To The Bass (2003) {EK 67346}\05 - Los Caballos (The Horses).wav

Peak level 94.2 %
Track quality 100.0 %
Test CRC 04F096DF
Copy CRC 04F096DF
Accurately ripped (confidence 3) [D8BEF569]
Copy OK

Track 6

Filename C:\Users\Tiburon\Desktop\Stanley Clarke - 1,2 To The Bass (2003) {EK 67346}\06 - Just Cruzin' (En hommage a Wes Montgomery, George Benson and Pat Martino).wav

Peak level 99.0 %
Track quality 100.0 %
Test CRC 0414AB9D
Copy CRC 0414AB9D
Accurately ripped (confidence 3) [553E13C4]
Copy OK

Track 7

Filename C:\Users\Tiburon\Desktop\Stanley Clarke - 1,2 To The Bass (2003) {EK 67346}\07 - 'Bout the Bass.wav

Pre-gap length 0:00:00.46

Peak level 100.0 %
Track quality 100.0 %
Test CRC B2144109
Copy CRC B2144109
Accurately ripped (confidence 3) [A00ACB25]
Copy OK

Track 8

Filename C:\Users\Tiburon\Desktop\Stanley Clarke - 1,2 To The Bass (2003) {EK 67346}\08 - Hair.wav

Peak level 98.8 %
Track quality 100.0 %
Test CRC F31E76AD
Copy CRC F31E76AD
Accurately ripped (confidence 3) [CB3FBDB8]
Copy OK

Track 9

Filename C:\Users\Tiburon\Desktop\Stanley Clarke - 1,2 To The Bass (2003) {EK 67346}\09 - Touch.wav

Pre-gap length 0:00:00.34

Peak level 98.8 %
Track quality 100.0 %
Test CRC DF764C67
Copy CRC DF764C67
Accurately ripped (confidence 3) [961CBB46]
Copy OK

Track 10

Filename C:\Users\Tiburon\Desktop\Stanley Clarke - 1,2 To The Bass (2003) {EK 67346}\10 - All the Children-Todos Los Ni os.wav

Pre-gap length 0:00:00.92

Peak level 92.5 %
Track quality 100.0 %
Test CRC 8C4B2B8A
Copy CRC 8C4B2B8A
Accurately ripped (confidence 3) [73E6F861]
Copy OK

Track 11

Filename C:\Users\Tiburon\Desktop\Stanley Clarke - 1,2 To The Bass (2003) {EK 67346}\11 - I Will Not Be Moved.wav

Peak level 98.8 %
Track quality 100.0 %
Test CRC 6B430712
Copy CRC 6B430712
Accurately ripped (confidence 3) [122339E4]
Copy OK

Track 12

Filename C:\Users\Tiburon\Desktop\Stanley Clarke - 1,2 To The Bass (2003) {EK 67346}\12 - Shanti-Peace-Paz-Shalom.wav

Peak level 98.8 %
Track quality 100.0 %
Test CRC 1A63F692
Copy CRC 1A63F692
Accurately ripped (confidence 3) [10F1595A]
Copy OK


All tracks accurately ripped

No errors occurred

End of status report


––––––––––––––––––––––––––––––––––––––––
Analyzed: Stanley Clarke / 1, 2, To The Bass
––––––––––––––––––––––––––––––––––––––––

DR Peak RMS Duration Track
––––––––––––––––––––––––––––––––––––––––
DR6 0.00 dB -6.78 dB 5:55 01-1, 2, To The Bass (featuring Q-Tip)
DR6 -0.40 dB -8.04 dB 4:35 02-Simply Said
DR6 -0.09 dB -8.25 dB 4:06 03-Where Is The Love
DR6 0.00 dB -8.80 dB 5:02 04-Anna (She Loves The Good Life)
DR6 -0.52 dB -9.26 dB 4:41 05-Los Caballos (The Horses)
DR7 -0.09 dB -8.52 dB 4:27 06-Just Cruzin'
DR5 0.00 dB -6.35 dB 7:32 07-'Bout The Bass
DR6 -0.10 dB -7.88 dB 5:14 08-Hair
DR8 -0.10 dB -11.95 dB 6:04 09-Touch
DR6 -0.67 dB -9.47 dB 4:57 10-All The Children
DR10 -0.10 dB -13.88 dB 6:38 11-I Shall Not Be Moved
DR9 -0.10 dB -13.58 dB 5:54 12-Shanti - Peace - Paz - Shalom
––––––––––––––––––––––––––––––––––––––––

Number of tracks: 12
Official DR value: DR7

Samplerate: 44100 Hz
Channels: 2
Bits per sample: 16
Bitrate: 697 kbps
Codec: FLAC
================================================================================

Stanley Clarke - 1, 2 To The Bass (2003) {Epic}
Stanley Clarke - 1, 2 To The Bass (2003) {Epic}
Stanley Clarke - 1, 2 To The Bass (2003) {Epic}