Subcategories

Stanley Clarke & Friends - Live At The Greek (1994) {Sony}

Posted By: tiburon
Stanley Clarke & Friends - Live At The Greek (1994) {Sony}

Stanley Clarke & Friends - Live At The Greek (1994) {Sony}
EAC 0.99pb5 | FLAC tracks level 8 | Cue+Log+M3U | Full Scans 300dpi | 457MB + 5% Recovery
MP3 CBR 320 Kbps | 172MB + 5% Recovery
Genre: Jazz-Funk, Fusion
Stanley Clarke & Friends - Live At The Greek (1994) {Sony}

More than any other genre, jazz seems best suited for the live environment. An artist can improvise in the studio, certainly, but in concert a musician can ignore time limits and stretch creative possibilities. This is especially true of all-star collaborations; they can seem contrived or forced, but when chemistry exists between the players, the result is jazz in its purest, most exciting form. Such is the case on this disc, which features five contemporary giants: Clarke, Larry Carlton, Najee, Deron Johnson, and Billy Cobham. Seventy minutes for seven songs allows the players to interact and solo at length, stretching originals and Miles and Mingus covers to their limit.
Track List
01. Minute By Minute
02. Stratus
03. Buenos Aires
04. All Blues
05. Goodbye Pork Pie Hat
06. Her Favorite Song
07. School Days

musicians
Stanley Clarke - acoustic and electric basses
Larry Carlton - acoustic and electric guitars
Billy Cobham - drums, percussion
Najee - soprano, tenor and alto saxophones, flute, WX7 wind controller
Deron Johnson - keyboards

Produced by Stanley Clarke


Exact Audio Copy V0.99 prebeta 5 from 4. May 2009

EAC extraction logfile from 25. October 2009, 4:59

Stanley Clarke & Friends / Live At The Greek

Used drive : HL-DT-STDVD-RAM GSA-H55N Adapter: 0 ID: 2

Read mode : Secure
Utilize accurate stream : Yes
Defeat audio cache : Yes
Make use of C2 pointers : No

Read offset correction : 102
Overread into Lead-In and Lead-Out : Yes
Fill up missing offset samples with silence : Yes
Delete leading and trailing silent blocks : No
Null samples used in CRC calculations : Yes
Used interface : Installed external ASPI interface
Gap handling : Appended to previous track

Used output format : User Defined Encoder
Selected bitrate : 128 kBit/s
Quality : High
Add ID3 tag : No
Command line compressor : G:\Program Files\Exact Audio Copy\Encoder\flac.exe
Additional command line options : -V -8 -T "Genre=%m" -T "Artist=%a" -T "Title=%t" -T "Album=%g" -T "Year=%y" -T "Tracknumber=%n" -T "Comment=EACpb5 -8" %s


TOC of the extracted CD

Track | Start | Length | Start sector | End sector
––––––––––––––––––––––––––––-
1 | 0:00.00 | 3:25.25 | 0 | 15399
2 | 3:25.25 | 9:42.17 | 15400 | 59066
3 | 13:07.42 | 5:19.40 | 59067 | 83031
4 | 18:27.07 | 14:02.23 | 83032 | 146204
5 | 32:29.30 | 10:07.02 | 146205 | 191731
6 | 42:36.32 | 7:42.15 | 191732 | 226396
7 | 50:18.47 | 21:33.33 | 226397 | 323404


Track 1

Filename F:\WAV\01 - Minute By Minute.wav

Pre-gap length 0:00:02.00

Peak level 100.0 %
Track quality 100.0 %
Test CRC BF94F849
Copy CRC BF94F849
Accurately ripped (confidence 8) [68FC9930]
Copy OK

Track 2

Filename F:\WAV\02 - Stratus.wav

Peak level 100.0 %
Track quality 100.0 %
Test CRC 96189614
Copy CRC 96189614
Accurately ripped (confidence 8) [D7624FDB]
Copy OK

Track 3

Filename F:\WAV\03 - Buenos Aires.wav

Peak level 100.0 %
Track quality 100.0 %
Test CRC 2533E8A7
Copy CRC 2533E8A7
Accurately ripped (confidence 8) [609827FC]
Copy OK

Track 4

Filename F:\WAV\04 - All Blues.wav

Peak level 100.0 %
Track quality 100.0 %
Test CRC 9A8F7DFE
Copy CRC 9A8F7DFE
Accurately ripped (confidence 8) [5215BE3A]
Copy OK

Track 5

Filename F:\WAV\05 - Goodbye Pork Pie Hat.wav

Pre-gap length 0:00:00.38

Peak level 100.0 %
Track quality 99.9 %
Test CRC 92D0FCB0
Copy CRC 92D0FCB0
Accurately ripped (confidence 8) [93DD6676]
Copy OK

Track 6

Filename F:\WAV\06 - Her Favorite Song.wav

Pre-gap length 0:00:00.20

Peak level 99.1 %
Track quality 99.9 %
Test CRC D578123B
Copy CRC D578123B
Accurately ripped (confidence 8) [9C6F735D]
Copy OK

Track 7

Filename F:\WAV\07 - School Days.wav

Pre-gap length 0:00:00.47

Peak level 100.0 %
Track quality 100.0 %
Test CRC 25209076
Copy CRC 25209076
Accurately ripped (confidence 6) [44F28839]
Copy OK


All tracks accurately ripped

No errors occurred

End of status report


––––––––––––––––––––––––––––––––––––––––
Analyzed: Stanley Clarke & Friends / Live at the Greek
––––––––––––––––––––––––––––––––––––––––

DR Peak RMS Duration Track
––––––––––––––––––––––––––––––––––––––––
DR9 0.00 dB -10.93 dB 3:25 01-Minute By Minute
DR8 0.00 dB -10.41 dB 9:42 02-Stratus
DR10 0.00 dB -11.95 dB 5:20 03-Buenos Aires
DR10 0.00 dB -13.32 dB 14:02 04-All Blues
DR7 0.00 dB -9.47 dB 10:07 05-Goodbye Pork Pie Hat
DR11 -0.07 dB -16.38 dB 7:42 06-Her Favorite Song
DR8 0.00 dB -11.39 dB 21:33 07-School Days
––––––––––––––––––––––––––––––––––––––––

Number of tracks: 7
Official DR value: DR9

Samplerate: 44100 Hz
Channels: 2
Bits per sample: 16
Bitrate: 919 kbps
Codec: FLAC
================================================================================

Stanley Clarke & Friends - Live At The Greek (1994) {Sony}
Stanley Clarke & Friends - Live At The Greek (1994) {Sony}
Stanley Clarke & Friends - Live At The Greek (1994) {Sony}


Thanks to the original ripper