Subcategories

Stanley Clarke / George Duke - The Clarke/Duke Project II (1983) {Epic}

Posted By: tiburon
Stanley Clarke / George Duke - The Clarke/Duke Project II (1983) {Epic}

Stanley Clarke / George Duke - The Clarke/Duke Project II (1983) {Epic}
EAC 0.95b3 | FLAC tracks level 8 | Cue+Log+M3u | Full Scans 300dpi | 262MB + 5% Recovery
MP3 CBR 320 Kbps | 91MB + 5% Recovery
Genre: Jazz-Funk, Fusion

A brilliant player on both acoustic and electric basses, Stanley Clarke has spent much of his career outside of jazz, although he has the ability to play jazz with the very best. He played accordion as a youth, switching to violin and cello before settling on bass. He worked with R&B and rock bands in high school, but after moving to New York, he worked with Pharoah Sanders in the early '70s. George Duke showed a great deal of promise early in his career as a jazz pianist and keyboardist, but has forsaken that form to be a pop producer.
Track List
01. Put It On The Line 4:23
02. Heroes 4:53
03. Try Me Baby 3:41
04. Every Reason To Smile 4:21
05. Great Danes 3:48
06. The Good Times 4:39
07. You're Gonna Love It 5:02
08. Trip You In Love 3:26
09. Atlanta 4:06

musicians
Stanley Clarke - bass, vocals
George Duke - keyboards, vocals
Billy Cobham - drums
Narada Michael Walden - drums
Paulinho Da Costa - percussion
John Robinson - drums
Howard Hewett - vocals
Jeffrey Osborne - vocals
Lynn Davis - vocals
Strings – Allan Harshman, Barbara Hunter, Bonnie Douglas, Brenton Banks, Dave Schwartz*, Dixie Blackstone, Ed Green (2), Gary Nuttycombe*, Harry Bluestone, Jan Kelley, Katie Kirkpatrick, Murray Adler, Nat Ross*, Pat Johnson (2), Paul Shure, Ray Kelley, Reg Hill*, Bob Sushel*, Rollice Dale, Ron Cooper*, Ron Folsom

Produced by Stanley Clarke and George Duke


EAC extraction logfile from 20. December 2006, 14:46 for CD
Stanley Clarke/George Duke / George Duke/Stanley Clarke The Clarke/Duke Project II

Used drive : BENQ DVD DD DW1640 Adapter: 3 ID: 0
Read mode : Secure with NO C2, accurate stream, disable cache
Read offset correction : 618
Overread into Lead-In and Lead-Out : No

Used output format : C:\Program Files\Exact Audio Copy\flac.exe (User Defined Encoder)
320 kBit/s
Additional command line options : -V -8 -T "artist=%a" -T "title=%t" -T "album=%g" -T "date=%y" -T "tracknumber=%n" -T "genre=%m" %s

Other options :
Fill up missing offset samples with silence : Yes
Delete leading and trailing silent blocks : No
Installed external ASPI interface


Track 1
Filename D:\upload\Stanley Clarke and George Duke - The Clarke Duke Project 2 (1983) [Flac]\01 - Put It On The Line.wav

Pre-gap length 0:00:02.00

Peak level 100.0 %
Track quality 100.0 %
Test CRC 3CCDCA25
Copy CRC 3CCDCA25
Copy OK

Track 2
Filename D:\upload\Stanley Clarke and George Duke - The Clarke Duke Project 2 (1983) [Flac]\02 - Heroes.wav

Peak level 87.8 %
Track quality 99.9 %
Test CRC B87A52F3
Copy CRC B87A52F3
Copy OK

Track 3
Filename D:\upload\Stanley Clarke and George Duke - The Clarke Duke Project 2 (1983) [Flac]\03 - Try Me Baby.wav

Peak level 96.0 %
Track quality 100.0 %
Test CRC F7E33AAC
Copy CRC F7E33AAC
Copy OK

Track 4
Filename D:\upload\Stanley Clarke and George Duke - The Clarke Duke Project 2 (1983) [Flac]\04 - Every Reason To Smile.wav

Peak level 97.3 %
Track quality 100.0 %
Test CRC 93E8845A
Copy CRC 93E8845A
Copy OK

Track 5
Filename D:\upload\Stanley Clarke and George Duke - The Clarke Duke Project 2 (1983) [Flac]\05 - Great Danes.wav

Peak level 100.0 %
Track quality 100.0 %
Test CRC 8FCEF232
Copy CRC 8FCEF232
Copy OK

Track 6
Filename D:\upload\Stanley Clarke and George Duke - The Clarke Duke Project 2 (1983) [Flac]\06 - The Good Times.wav

Peak level 100.0 %
Track quality 100.0 %
Test CRC D0E3A8E7
Copy CRC D0E3A8E7
Copy OK

Track 7
Filename D:\upload\Stanley Clarke and George Duke - The Clarke Duke Project 2 (1983) [Flac]\07 - You're Gonna Love It.wav

Peak level 100.0 %
Track quality 99.9 %
Test CRC BAFED872
Copy CRC BAFED872
Copy OK

Track 8
Filename D:\upload\Stanley Clarke and George Duke - The Clarke Duke Project 2 (1983) [Flac]\08 - Trip You In Love.wav

Peak level 100.0 %
Track quality 100.0 %
Test CRC A3B9BCDF
Copy CRC A3B9BCDF
Copy OK

Track 9
Filename D:\upload\Stanley Clarke and George Duke - The Clarke Duke Project 2 (1983) [Flac]\09 - Atlanta.wav

Peak level 97.7 %
Track quality 100.0 %
Test CRC 86E99ECB
Copy CRC 86E99ECB
Copy OK

No errors occured


End of status report


––––––––––––––––––––––––––––––––––––––––
Analyzed: Stanley Clarke/George Duke / George Duke/Stanley Clarke The Clarke/Duke Project II
––––––––––––––––––––––––––––––––––––––––

DR Peak RMS Duration Track
––––––––––––––––––––––––––––––––––––––––
DR12 0.00 dB -13.26 dB 4:23 01-Put It On The Line
DR12 -1.12 dB -15.04 dB 4:53 02-Heroes
DR13 -0.35 dB -16.65 dB 3:41 03-Try Me Baby
DR14 -0.24 dB -15.99 dB 4:21 04-Every Reason To Smile
DR13 0.00 dB -15.16 dB 3:48 05-Great Danes
DR14 0.00 dB -15.63 dB 4:39 06-The Good Times
DR14 0.00 dB -16.59 dB 5:02 07-You're Gonna Love It
DR12 0.00 dB -14.50 dB 3:26 08-Trip You In Love
DR13 -0.20 dB -14.59 dB 4:06 09-Atlanta
––––––––––––––––––––––––––––––––––––––––

Number of tracks: 9
Official DR value: DR13

Samplerate: 44100 Hz
Channels: 2
Bits per sample: 16
Bitrate: 930 kbps
Codec: FLAC
================================================================================

Stanley Clarke / George Duke - The Clarke/Duke Project II (1983) {Epic}
Stanley Clarke / George Duke - The Clarke/Duke Project II (1983) {Epic}


Thanks to the original ripper