Subcategories

Stardelay - A New High Fidelity Tripout (2008)

Posted By: gribovar
Stardelay - A New High Fidelity Tripout (2008)

Stardelay - A New High Fidelity Tripout (2008)
EAC Rip | FLAC (image+.cue+log) - 328 MB | MP3 CBR 320 kbps (LAME 3.93) - 135 MB | Covers (9 MB) included
Genre: Chillout, Lounge, Downtempo | RAR 3% Rec. | Label: Water Music Records (302 060 880 2)

Stardelay is German-born multi-instrumentalist Carsten Mentzel. Carsten's specialty is the Fender Rhodes and the Fender Telecaster. Don't try to pigeonhole his creativity to one genre. His home is trip-hop, ambient-lounge, slow-funk, electro-pop, fusion jazz and nu jazz. Bitter-sweet emotionality and melancholy full of relish are created by dreamy guitars, sounds of sitars, mellow walls of keyboards and archaic bass. Beside his mastership on these instruments Carsten fosters his vocals with more than three octaves. His first steps could be heard on Ozella Music's compilation The Sound Volume I. Now his debut album A New High Fidelity Tripout is released on the same label to enjoy the audience.
Slowly introduce a beat box to the Orange Park before the Rhodes stage piano steps in. A laidback tune in the contemporary chill out style. On Thoughts & Words Carsten Metzel reveals his mellow vocals with a female touch.
Stardelay's Why It's Warm presents elegant tones on electronic piano fading in the air. The Late Show is a short melodious interlude with a jazzy swing. On Welcome To Angua Carsten performs more of his spacey ambient music with a rhythm of heartbeat. Zeta 4000-31 is a short interlude with Indian sitar sound.
Friends of Fender Rhodes will love the clean sound of Earthlight with a catchy melody and a dynamic rhythm. It Could Be Sweet showcases Carsten's falsetto vocals.
Stardelay's Still Humming brings us back into the cool area of chill out. Some musician are able to play on a saw. This weird sound is nicely introduced into this genre. Starcollector is a dream catcher like a film score of a movie about Marilyn Monroe.
Floating vibrations are the signature sound of Untitled Symphony. A hypnotic sound and rhythm limited to the ultimate simplicity is significant for Stardelays. On Something Else Carsten expresses his wish to transform himself into another person. End Theme (Tripout) is the final curtain of this melody roundelay.
Carsten Metzel understands melancholy as a necessary component of life. He integrates this mood into his music and creates a mélange of ambient sounds with a special groove.
Tracklist:
01. Orange Park
02. Thoughts & Words
03. Why It's Warm
04. The Late Show
05. Welcome To Angua
06. Zeta 4000-31
07. Earthlight
08. It Could Be Sweet
09. Still Humming
10. Starcollector
11. Untitled Symphony
12. Stardelays
13. Something Else
14. End Theme (Tripout)

Total time: 53:27

Exact Audio Copy V0.99 prebeta 4 from 23. January 2008

EAC extraction logfile from 29. September 2008, 23:47

Stardelay / A New High Fidelity Tripout

Used drive : PIONEER DVD-RW DVR-112D Adapter: 3 ID: 0

Read mode : Secure
Utilize accurate stream : Yes
Defeat audio cache : Yes
Make use of C2 pointers : No

Read offset correction : 48
Overread into Lead-In and Lead-Out : No
Fill up missing offset samples with silence : Yes
Delete leading and trailing silent blocks : No
Null samples used in CRC calculations : Yes
Used interface : Installed external ASPI interface

Used output format : User Defined Encoder
Selected bitrate : 192 kBit/s
Quality : Low
Add ID3 tag : Yes
Command line compressor : C:\Program Files\E A C Audio\Flac\flac.exe
Additional command line options : -V -8 -T "artist=%a" -T "title=%t" -T "album=%g" -T "date=%y" -T "tracknumber=%n" -T "genre=%m" %s


TOC of the extracted CD

Track | Start | Length | Start sector | End sector
––––––––––––––––––––––––––––-
1 | 0:00.00 | 4:38.62 | 0 | 20911
2 | 4:38.62 | 5:15.62 | 20912 | 44598
3 | 9:54.49 | 4:01.64 | 44599 | 62737
4 | 13:56.38 | 2:43.08 | 62738 | 74970
5 | 16:39.46 | 3:42.00 | 74971 | 91620
6 | 20:21.46 | 1:08.28 | 91621 | 96748
7 | 21:29.74 | 3:01.15 | 96749 | 110338
8 | 24:31.14 | 3:50.04 | 110339 | 127592
9 | 28:21.18 | 5:09.69 | 127593 | 150836
10 | 33:31.12 | 4:25.35 | 150837 | 170746
11 | 37:56.47 | 3:34.53 | 170747 | 186849
12 | 41:31.25 | 3:22.67 | 186850 | 202066
13 | 44:54.17 | 3:31.34 | 202067 | 217925
14 | 48:25.51 | 5:01.06 | 217926 | 240506


Range status and errors

Selected range

Filename G:\Stardelay - A New High Fidelity Tripout\Stardelay - A New High Fidelity Tripout.wav

Peak level 96.8 %
Range quality 99.9 %
Test CRC DB95C54E
Copy CRC DB95C54E
Copy OK

No errors occurred


AccurateRip summary

Track 1 not present in database
Track 2 not present in database
Track 3 not present in database
Track 4 not present in database
Track 5 not present in database
Track 6 not present in database
Track 7 not present in database
Track 8 not present in database
Track 9 not present in database
Track 10 not present in database
Track 11 not present in database
Track 12 not present in database
Track 13 not present in database
Track 14 not present in database

None of the tracks are present in the AccurateRip database

End of status report

[CUETools log; Date: 11.10.2017 3:21:46; Version: 2.1.4]
[CTDB TOCID: 6tW3N4AWFv6Lxe1B1Xfhs4yh8_8-] found.
Track | CTDB Status
1 | (2/2) Accurately ripped
2 | (2/2) Accurately ripped
3 | (2/2) Accurately ripped
4 | (2/2) Accurately ripped
5 | (2/2) Accurately ripped
6 | (2/2) Accurately ripped
7 | (2/2) Accurately ripped
8 | (2/2) Accurately ripped
9 | (2/2) Accurately ripped
10 | (2/2) Accurately ripped
11 | (2/2) Accurately ripped
12 | (2/2) Accurately ripped
13 | (2/2) Accurately ripped
14 | (2/2) Accurately ripped
[AccurateRip ID: 001b7138-012183ea-b80c860e] found.
Track [ CRC | V2 ] Status
01 [3bd83243|6d953214] (4+0/4) Accurately ripped
02 [2812b1c4|c6114217] (4+0/4) Accurately ripped
03 [09001fdd|ab50ec65] (4+0/4) Accurately ripped
04 [95532492|1fd178ca] (4+0/4) Accurately ripped
05 [c7f89b4a|61143659] (4+0/4) Accurately ripped
06 [14d58dcf|1854a09d] (4+0/4) Accurately ripped
07 [46ab2c76|34bd0db0] (4+0/4) Accurately ripped
08 [6b0b3a55|af110ebc] (4+0/4) Accurately ripped
09 [770ccfba|2b4fa2ab] (4+0/4) Accurately ripped
10 [464ed217|887c85f5] (4+0/4) Accurately ripped
11 [380535e6|83d1ca62] (4+0/4) Accurately ripped
12 [ddd5a549|43561a9c] (4+0/4) Accurately ripped
13 [135e7927|abe171b2] (4+0/4) Accurately ripped
14 [b7f4696c|d5949931] (4+0/4) Accurately ripped

Track Peak [ CRC32 ] [W/O NULL] [ LOG ]
– 96,8 [DB95C54E] [1ACEB619] CRC32
01 94,4 [5E3755F3] [676F0233]
02 85,1 [88FCCC9F] [D473F2B3]
03 94,4 [C8F97E1F] [A5747298]
04 94,4 [8086D026] [F6E42642]
05 94,4 [F5712E4B] [DB4FBBDC]
06 94,4 [C0FB5965] [521F8ADB]
07 94,4 [C0B72D52] [3AD87EA3]
08 96,8 [DB8988B1] [4F2E3661]
09 94,4 [4535FF7F] [21140B2F]
10 94,4 [C84C8B99] [8511868C]
11 94,4 [0015DCF0] [9C70400B]
12 94,4 [1BCBD51E] [89B21278]
13 94,4 [C9B685CA] [184E655A]
14 94,4 [0D7406C9] [31B0FB91]

Thanks to sklon