Tags
Language
Tags

Starpoint - Collection (1980-1990)

Posted By: Rtax
Starpoint - Collection (1980-1990)

Starpoint - Collection (1980-1990)
EAC Rip & WEB FLAC (tracks, cue, log) - 2.4 GB | MP3 CBR 320 kbps - 879 MB
6:21:11 | Soul, Funk, Disco, Boogie | Label: Chocolate City / Boardwalk Records / Elektra / Warner Bros.

Formed in 1978, Annapolis, Maryland under the groupname "Lycindiana", which name was a combination of three related females. Comprised of four brothers Ernesto Phillips, Orlando Phillips, George Phillips and Gregory Phillips and their friend from the late 60's Ky Adeyemo, plus Ernesto Phillips long time lover, singer Renee Diggs.
They released ten albums in the 80's, produced mainly by Lionel Job. Their biggest hit (their sole top 40 hit in the U.S. pop chart) is "Object Of My Desire"

A little History

The Washington based band

The brothers started off as a horn section as youngsters,
but found it difficult to form a band with two trumpets, one clarinet and a flute.
So they learnt more conventional instruments.

"Our father was a psychiatrist at Crownsville State Mental hospital and he'd get us to entertain the patients.
So we had a captive audience!"

It was at one of those shows that the brothers met Renee.
Brother George persuaded her all girl singing trio to join the brothers on stage.

Ernesto explains
"A friend of ours was working on his car and he asked for a starpoint screwdriver.
We asked him what he meant. He said ?
You know the one that goes into a point and if you look at it endways looks like a star'.

We knew he meant a Phillips screwdriver.
Since we are the Phillips brothers, we tossed the name around a bit and attached a meaning to it.
It basically says that "if you give your all and point the your way to the stars, you'll make it to the top".

1980 - Starpoint
A1 Gonna Lift You Up 4:41
A2 Let Me Love You 4:40
A3 Never Find A Better Love 5:45
A4 Don't Leave Me 5:00
B1 I Just Wanna Dance With You 4:58
B2 You're My Sunny Day 3:47
B3 Get Ready, Get Down 6:49
B4 Girl I'm Up For Your Lovin' 4:08

1981 - Keep On It
01. I Just Want To Be Your Lover
02. For You
03. Interlude
04. Keep On It
05. I Want You Closer
06. Baby Let Me Do It
07. We’re Into Love
08. Starpoint’s Here Tonight

1981 - Wanting You
01. Wanting you (4:48)
02. Do what you wanna do (5:17)
03. Angel (4:33)
04. Last night (4:52)
05. Try me (5:17)
06. Shake it out (5:06)
07. Break up to make up (4:05)
08. Starnite you nite (4:58)

1982 - All Night Long
01. Bring Your Sweet Lovin' Back (5:03)
02. Get Your Body Up (5:37)
03. All Night Long (6:07)
04. Show Me (4:39)
05. I Like It (5:35)
06. I Can Give You Love (5:44)
07. Miracle Love (4:37)
08. It's You (5:43)

1983 - It's So Delicious
01. Don't Be So Serious (5:16)
02. Put Your Love On Me (5:24)
03. Somethin' In Your Eyes (4:28)
04. It's So Delicious (4:35)
05. Behind Your Back (3:50)
06. Give Real Love A Try (4:42)
07. I'm So Crazy 'Bout You (4:13)
08. I Got The Love (4:40)
09. Let Go (4:14)

1985- Restless
A1.Object Of My Desire 5:00
A2.One More Night 4:05
A3.Emotions 4:27
A4.See The Light 4:20
B1.Till The End Of Time 5:05
B2.Don't Take Your Love Away 4:14
B3.Restless 3:49
B4.What You Been Missin' 5:10

1984 - It's All Yours
1. It's All Yours (4:54)
2. Am I Still the One (5:16)
3. Satisfy Me Lover (4:58)
4. Send Me a Letter (4:59)
5. Breakout (4:50)
6. This Is so Right (4:39)
7. Use Me (4:55)
8. Always on My Mind (4:23)

1987 - Sensational
01 He Wants My Body 4:40
02 D.Y.B.O. 4:53
03 Prove It Tonight 4:46
04 Sensational 4:23
05 Another Night 5:05
06 The More We Love 4:34
07 Touch Of Your Love 4:36
08 Second Chance 4:27
09 He Wants My Body (12" Version) 6:29

1988 - Hot To The Touch
01 Fresh Start 4:37
02 One Step Closer To Your Love 4:28
03 Tough Act To Follow 4:37
04 Say You Will 4:25
05 Hot To The Touch 5:02
06 Swept Away 4:36
07 After All Is Said And Done 4:12
08 Heart Attack 4:03
09 Park It 3:56

1990 - Have You Got What It Takes
I Want You - You Want Me 5:37
Your Lover 5:34
Midnight Love 4:55
Have You Got What It Takes 4:32
When They Love You Back 5:16
I Don't Need Another Lover 4:53
Step By Step 5:14
True Love 4:39
Exact Audio Copy V0.99 prebeta 5 from 4. May 2009

EAC extraction logfile from 12. October 2010, 22:40

Starpoint / Keep On It

Used drive : Optiarc DVD RW AD-7590S Adapter: 2 ID: 0

Read mode : Secure
Utilize accurate stream : Yes
Defeat audio cache : Yes
Make use of C2 pointers : No

Read offset correction : 48
Overread into Lead-In and Lead-Out : No
Fill up missing offset samples with silence : Yes
Delete leading and trailing silent blocks : No
Null samples used in CRC calculations : Yes
Used interface : Native Win32 interface for Win NT & 2000
Gap handling : Appended to previous track

Used output format : User Defined Encoder
Selected bitrate : 768 kBit/s
Quality : High
Add ID3 tag : No
Command line compressor : C:\Program Files\Exact Audio Copy\Flac\flac.exe
Additional command line options : -8 -V -T "ARTIST=%a" -T "TITLE=%t" -T "ALBUM=%g" -T "DATE=%y" -T "TRACKNUMBER=%n" -T "TOTALTRACKS=%x" -T "GENRE=%m" -T "ALBUMARTIST=%v" -T "ALBUM ARTIST=%v" -T "COMMENT=EAC Secure Mode, Test & Copy, AccurateRip, FLAC -8" %s


TOC of the extracted CD

Track | Start | Length | Start sector | End sector
––––––––––––––––––––––––––––-
1 | 0:00.00 | 5:27.54 | 0 | 24578
2 | 5:27.54 | 5:15.29 | 24579 | 48232
3 | 10:43.08 | 0:27.39 | 48233 | 50296
4 | 11:10.47 | 6:26.16 | 50297 | 79262
5 | 17:36.63 | 5:17.13 | 79263 | 103050
6 | 22:54.01 | 5:07.67 | 103051 | 126142
7 | 28:01.68 | 4:25.17 | 126143 | 146034
8 | 32:27.10 | 6:08.01 | 146035 | 173635


Track 1

Filename C:\Addis Gugsa why killing HDD\01 - I Just Want To Be Your Lover.wav

Pre-gap length 0:00:02.00

Peak level 96.6 %
Track quality 100.0 %
Test CRC 04AD6ADA
Copy CRC 04AD6ADA
Accurately ripped (confidence 2) [DA774FFD]
Copy OK

Track 2

Filename C:\Addis Gugsa why killing HDD\02 - For You.wav

Pre-gap length 0:00:02.00

Peak level 96.6 %
Track quality 100.0 %
Test CRC B50187E9
Copy CRC B50187E9
Accurately ripped (confidence 2) [06758007]
Copy OK

Track 3

Filename C:\Addis Gugsa why killing HDD\03 - Interlude.wav

Pre-gap length 0:00:02.00

Peak level 96.6 %
Track quality 100.0 %
Test CRC 92484A8D
Copy CRC 92484A8D
Accurately ripped (confidence 2) [7F616351]
Copy OK

Track 4

Filename C:\Addis Gugsa why killing HDD\04 - Keep On It.wav

Pre-gap length 0:00:02.00

Peak level 96.6 %
Track quality 100.0 %
Test CRC 666F4EF9
Copy CRC 666F4EF9
Accurately ripped (confidence 2) [89029B9B]
Copy OK

Track 5

Filename C:\Addis Gugsa why killing HDD\05 - I Want You Closer.wav

Pre-gap length 0:00:02.00

Peak level 96.6 %
Track quality 100.0 %
Test CRC 5B4D9406
Copy CRC 5B4D9406
Accurately ripped (confidence 2) [B3F34CEF]
Copy OK

Track 6

Filename C:\Addis Gugsa why killing HDD\06 - Baby Let Me Do It.wav

Pre-gap length 0:00:02.00

Peak level 96.6 %
Track quality 100.0 %
Test CRC 185C9EEC
Copy CRC 185C9EEC
Accurately ripped (confidence 2) [DBC2958B]
Copy OK

Track 7

Filename C:\Addis Gugsa why killing HDD\07 - We're Into Love.wav

Pre-gap length 0:00:02.00

Peak level 96.6 %
Track quality 100.0 %
Test CRC 8A031010
Copy CRC 8A031010
Accurately ripped (confidence 2) [48D2A633]
Copy OK

Track 8

Filename C:\Addis Gugsa why killing HDD\08 - Starpoint's Here Tonight.wav

Pre-gap length 0:00:02.00

Peak level 96.6 %
Track quality 100.0 %
Test CRC 28B3C12E
Copy CRC 28B3C12E
Accurately ripped (confidence 2) [43BB8323]
Copy OK


All tracks accurately ripped

No errors occurred

End of status report


CUERipper v2.2.1

EAC extraction logfile from 21. March 2022, 23:06

Starpoint / Starpoint

Used drive : ASUS SDRW-08D2S-U Adapter: 1 ID: 0

Read mode : Secure
Utilize accurate stream : Yes
Defeat audio cache : Yes
Make use of C2 pointers : No

Read offset correction : 0
Overread into Lead-In and Lead-Out : No
Fill up missing offset samples with silence : Yes
Delete leading and trailing silent blocks : No
Null samples used in CRC calculations : Yes
Used interface : Native Win32 interface for Win NT & 2000
Gap handling : Appended to previous track

Used output format : Internal WAV Routines
Sample format : 44.100 Hz; 16 Bit; Stereo


TOC of the extracted CD

Track | Start | Length | Start sector | End sector
––––––––––––––––––––––––––––-
1 | 0:00.00 | 4:44.08 | 0 | 21307
2 | 4:44.08 | 4:42.23 | 21308 | 42480
3 | 9:26.31 | 5:46.65 | 42481 | 68495
4 | 15:13.21 | 5:10.46 | 68496 | 91791
5 | 20:23.67 | 5:00.59 | 91792 | 114350
6 | 25:24.51 | 3:48.64 | 114351 | 131514
7 | 29:13.40 | 6:52.02 | 131515 | 162416
8 | 36:05.42 | 4:06.69 | 162417 | 180935


Track 1

Filename C:\Users\henri\Music\Starpoint\1980 - Starpoint\01. Gonna Lift You Up.wav

Pre-gap length 0:00:02.00

Peak level 94.5 %
Track quality 100.0 %
Copy CRC 5C4607ED
Track not present in AccurateRip database
Copy OK

Track 2

Filename C:\Users\henri\Music\Starpoint\1980 - Starpoint\02. Let Me Love You.wav

Peak level 91.9 %
Track quality 100.0 %
Copy CRC E1EE14EB
Track not present in AccurateRip database
Copy OK

Track 3

Filename C:\Users\henri\Music\Starpoint\1980 - Starpoint\03. Never Find A Better Love.wav

Peak level 85.5 %
Track quality 100.0 %
Copy CRC 17F757D6
Track not present in AccurateRip database
Copy OK

Track 4

Filename C:\Users\henri\Music\Starpoint\1980 - Starpoint\04. Don't Leave Me.wav

Peak level 95.2 %
Track quality 100.0 %
Copy CRC E07DE03C
Track not present in AccurateRip database
Copy OK

Track 5

Filename C:\Users\henri\Music\Starpoint\1980 - Starpoint\05. I Just Wanna Dance With You.wav

Peak level 96.1 %
Track quality 100.0 %
Copy CRC F632505F
Track not present in AccurateRip database
Copy OK

Track 6

Filename C:\Users\henri\Music\Starpoint\1980 - Starpoint\06. You're My Sunny Day.wav

Peak level 84.7 %
Track quality 100.0 %
Copy CRC 841A8E36
Track not present in AccurateRip database
Copy OK

Track 7

Filename C:\Users\henri\Music\Starpoint\1980 - Starpoint\07. Get Ready, Get Down.wav

Peak level 95.8 %
Track quality 100.0 %
Copy CRC 8B96DEC3
Track not present in AccurateRip database
Copy OK

Track 8

Filename C:\Users\henri\Music\Starpoint\1980 - Starpoint\08. Girl I'm Up For Your Lovin'.wav

Peak level 79.6 %
Track quality 100.0 %
Copy CRC A8463637
Track not present in AccurateRip database
Copy OK


None of the tracks are present in the AccurateRip database

No errors occurred

End of status report
Exact Audio Copy V1.0 beta 1 from 15. November 2010

EAC extraction logfile from 29. December 2010, 1:19

Starpoint / Wanting You

Used drive : Optiarc DVD RW AD-7590S Adapter: 2 ID: 0

Read mode : Secure
Utilize accurate stream : Yes
Defeat audio cache : Yes
Make use of C2 pointers : No

Read offset correction : 48
Overread into Lead-In and Lead-Out : No
Fill up missing offset samples with silence : Yes
Delete leading and trailing silent blocks : No
Null samples used in CRC calculations : Yes
Used interface : Native Win32 interface for Win NT & 2000
Gap handling : Appended to previous track

Used output format : User Defined Encoder
Selected bitrate : 768 kBit/s
Quality : High
Add ID3 tag : No
Command line compressor : C:\Program Files\Exact Audio Copy\Flac\flac.exe
Additional command line options : -8 -V -T "ARTIST=%a" -T "TITLE=%t" -T "ALBUM=%g" -T "DATE=%y" -T "TRACKNUMBER=%n" -T "TOTALTRACKS=%x" -T "GENRE=%m" -T "ALBUMARTIST=%v" -T "ALBUM ARTIST=%v" -T "COMMENT=EAC Secure Mode, Test & Copy, AccurateRip, FLAC -8" %s


TOC of the extracted CD

Track | Start | Length | Start sector | End sector
––––––––––––––––––––––––––––-
1 | 0:00.00 | 4:35.07 | 0 | 20631
2 | 4:35.07 | 5:05.53 | 20632 | 43559
3 | 9:40.60 | 4:20.44 | 43560 | 63103
4 | 14:01.29 | 4:38.63 | 63104 | 84016
5 | 18:40.17 | 5:06.10 | 84017 | 106976
6 | 23:46.27 | 4:59.59 | 106977 | 129460
7 | 28:46.11 | 3:57.15 | 129461 | 147250
8 | 32:43.26 | 4:45.15 | 147251 | 168640


Track 1

Filename C:\Addis Gugsa Is Ethiopian\01 - Wanting You.wav

Pre-gap length 0:00:02.00

Peak level 96.6 %
Extraction speed 2.8 X
Track quality 100.0 %
Test CRC E8D1D221
Copy CRC E8D1D221
Track not present in AccurateRip database
Copy OK

Track 2

Filename C:\Addis Gugsa Is Ethiopian\02 - Do What You Wanna Do.wav

Pre-gap length 0:00:02.00

Peak level 96.6 %
Extraction speed 3.2 X
Track quality 100.0 %
Test CRC FCF0DFBC
Copy CRC FCF0DFBC
Track not present in AccurateRip database
Copy OK

Track 3

Filename C:\Addis Gugsa Is Ethiopian\03 - Angel.wav

Pre-gap length 0:00:02.00

Peak level 96.6 %
Extraction speed 3.4 X
Track quality 100.0 %
Test CRC 6622E7D6
Copy CRC 6622E7D6
Track not present in AccurateRip database
Copy OK

Track 4

Filename C:\Addis Gugsa Is Ethiopian\04 - Last Night.wav

Pre-gap length 0:00:02.00

Peak level 96.6 %
Extraction speed 3.7 X
Track quality 100.0 %
Test CRC 34799600
Copy CRC 34799600
Track not present in AccurateRip database
Copy OK

Track 5

Filename C:\Addis Gugsa Is Ethiopian\05 - Try Me.wav

Pre-gap length 0:00:02.00

Peak level 96.6 %
Extraction speed 4.0 X
Track quality 100.0 %
Test CRC 2ED6F907
Copy CRC 2ED6F907
Track not present in AccurateRip database
Copy OK

Track 6

Filename C:\Addis Gugsa Is Ethiopian\06 - Shake It Out.wav

Pre-gap length 0:00:02.00

Peak level 96.6 %
Extraction speed 4.3 X
Track quality 100.0 %
Test CRC 4F380F96
Copy CRC 4F380F96
Track not present in AccurateRip database
Copy OK

Track 7

Filename C:\Addis Gugsa Is Ethiopian\07 - Break Up To Make Up.wav

Pre-gap length 0:00:02.00

Peak level 96.6 %
Extraction speed 4.4 X
Track quality 100.0 %
Test CRC B55427D0
Copy CRC B55427D0
Track not present in AccurateRip database
Copy OK

Track 8

Filename C:\Addis Gugsa Is Ethiopian\08 - Starnite You Nite.wav

Pre-gap length 0:00:02.00

Peak level 96.6 %
Extraction speed 4.7 X
Track quality 100.0 %
Test CRC AD66414B
Copy CRC AD66414B
Track not present in AccurateRip database
Copy OK


None of the tracks are present in the AccurateRip database

No errors occurred

End of status report

==== Log checksum 6E5A30A97A9D3B26894EC814D051041109507EE04995D687473F3E21FFEECF76 ====

–––––––––––-

DON'T MODIFY THIS FILE

–––––––––––-

PERFORMER: auCDtect Task Manager, ver. 1.6.0 RC1 build 1.6.0.1
Copyright © 2008-2010 y-soft. All rights reserved
http://y-soft.org

ANALYZER: auCDtect: CD records authenticity detector, version 0.8.2
Copyright © 2004 Oleg Berngardt. All rights reserved.
Copyright © 2004 Alexander Djourik. All rights reserved.


FILE: 08 - What You Been Missin'.flac
Size: 32674175 Hash: 049DA6D88BACE573E421D512B4020E68 Accuracy: -m8
Conclusion: CDDA 100%
Signature: 8E370535D7838C24E7CDFF1D6CD8EA7AB1FE8B83
FILE: 07 - Restless.flac
Size: 24510861 Hash: 5B4CAFA2FEC08D7B2ADD6C8B2675D861 Accuracy: -m8
Conclusion: CDDA 100%
Signature: 8A43582B21A27BD3B55D3F9AB7443673D5020F6A
FILE: 06 - Don't Take Your Love Away.flac
Size: 28735919 Hash: 3B81ACD6F9581C2D6D5BE86A829A644B Accuracy: -m8
Conclusion: CDDA 100%
Signature: 59557D119EE3926679FC0723CD745A40C9919321
FILE: 05 - Till the End of Time.flac
Size: 28764262 Hash: 1C669B5582B62C69214A64F370FFC446 Accuracy: -m8
Conclusion: CDDA 100%
Signature: 64868212EB7A30480BD4D292832542AC5F9A4F90
FILE: 04 - See the Light.flac
Size: 29850357 Hash: CD5E0BA5CEC976EA49AF023285D2066C Accuracy: -m8
Conclusion: CDDA 100%
Signature: 6B2F14066399F2E1095BF5E09A03B31EAAB8B04A
FILE: 03 - Emotions.flac
Size: 29517067 Hash: D6D9568F93FF4BE2DD3AD5AA76411349 Accuracy: -m8
Conclusion: MPEG 95%
Signature: 23CD2CC32A97BF7AF831B87CF792279424191059
FILE: 02 - One More Night.flac
Size: 25869309 Hash: 9E404A61B4E1C85DCEB42119481F74C1 Accuracy: -m8
Conclusion: CDDA 100%
Signature: 2D5934D36B833D12749912279D104EA9087C7A2D
FILE: 01 - Object of My Desire.flac
Size: 34042631 Hash: B2AEE5C7481FFCFA78A660AF8C7B834A Accuracy: -m8
Conclusion: CDDA 100%
Signature: F15DD485F36A64A70FEADAC13F35C5B816CD2D73
FILE: 09 - Let Go.flac
Size: 26726916 Hash: 8F9EA070EA0EAEF320EC47A961A5A864 Accuracy: -m8
Conclusion: CDDA 100%
Signature: 173AC98B734390B1425EEE31C2A93482BF2246C6
FILE: 08 - I Got the Love.flac
Size: 26927275 Hash: B80BE227A93E1A56BF32CB88BBC68288 Accuracy: -m8
Conclusion: CDDA 100%
Signature: D61145DB38407D23D87B6BADBB6C5BD09F4CC307
FILE: 07 - I'm so Crazy 'Bout You.flac
Size: 25488699 Hash: 486DACBBFAF47DA97492BF6DA8F20CA8 Accuracy: -m8
Conclusion: CDDA 100%
Signature: 57C189B1F6A07A906C72395FF6D1770C70B14258
FILE: 06 - Give Real Love a Try.flac
Size: 25200190 Hash: C8E9B43876BF53C0DFDF79C8713D6BFD Accuracy: -m8
Conclusion: CDDA 100%
Signature: 7732F73E199F75A184850E06CAEE1F20952A5EA1
FILE: 05 - Behind Your Back.flac
Size: 22458208 Hash: 58F10407EF1F74BC0EF8A50EC284C4DC Accuracy: -m8
Conclusion: CDDA 100%
Signature: 4581000572754A82F7A40148516C0C0465A58D1A
FILE: 04 - It's so Delicious.flac
Size: 25515706 Hash: A5279FC595DEAD56C1D7851309C28CE5 Accuracy: -m8
Conclusion: CDDA 100%
Signature: E957DB2A4DF3D739969247B9298634011F5FFD90
FILE: 03 - Somethin' in Your Eyes.flac
Size: 26060600 Hash: BE3F486377E8BD0028FBE528A9BA1292 Accuracy: -m8
Conclusion: CDDA 85%
Signature: C3432C618B02D6DDD0DB8B92A202045886017CB9
FILE: 02 - Put Your Love on Me.flac
Size: 31992677 Hash: 680C68DAF5A64D7FDCF7109889CBE542 Accuracy: -m8
Conclusion: CDDA 100%
Signature: E06E197F2109D1C6003A27AE2251BC330CB4D45C
FILE: 01 - Don't Be so Serious.flac
Size: 34704977 Hash: AD943ABACD02FA959C6261A05A84AC8D Accuracy: -m8
Conclusion: CDDA 100%
Signature: A8683799847612E366E21A3898163939362033FB
FILE: 08 - Always on My Mind.flac
Size: 28739052 Hash: 0F9730192E07DE314A9EF9AB51B2369D Accuracy: -m8
Conclusion: CDDA 100%
Signature: 383A81BD322E8AF7F5AE741C11E09F4CCB811745
FILE: 07 - Use Me.flac
Size: 33406593 Hash: 500C38E85E41E12A36064CA5CFB05C00 Accuracy: -m8
Conclusion: CDDA 100%
Signature: ED2625E2CE3F8FE31037A6DBCC611A431757E3D9
FILE: 06 - This Is so Right.flac
Size: 31100515 Hash: 5203E6D921BD9BF66F3E05C4A99266C7 Accuracy: -m8
Conclusion: CDDA 100%
Signature: 12586C6C1BDC8C49D4D0F08784B5DA5310032F3C
FILE: 05 - Breakout.flac
Size: 33807638 Hash: 539ABDAF45327774E2000290313E5CA1 Accuracy: -m8
Conclusion: CDDA 100%
Signature: F00C029C75B2CF5C411B392BE9E6BEBF6C86E8C9
FILE: 04 - Send Me a Letter.flac
Size: 36357345 Hash: 47D9F007558AF887C3F94B00B9326D9E Accuracy: -m8
Conclusion: CDDA 99%
Signature: 8356399A14A9D0F5C7F9250E8C3B1218A2809605
FILE: 03 - Satisfy Me Lover.flac
Size: 35890407 Hash: BE138BBDB49C625D27843ACA49DCD094 Accuracy: -m8
Conclusion: CDDA 100%
Signature: 2959B5EE6B50FFDBE8763BAB30A3B6E4E56CB416
FILE: 02 - Am I Still the One.flac
Size: 35591980 Hash: BC582AA414E8EE2FD508FBA6CF75AD50 Accuracy: -m8
Conclusion: CDDA 100%
Signature: 2EEE6D0FCC7D8BF51FE3A1CBD4BD625F8C685366
FILE: 01 - It's All Yours.flac
Size: 35640403 Hash: 179AC7BA3E97C7EE8B1B0238A0B5BE6C Accuracy: -m8
Conclusion: CDDA 99%
Signature: 5AE7A5EE77DCB46403FB7629AA1BC2FA6E3DCEA4
FILE: 10 - I Want You - You Want Me (Def House Mix).flac
Size: 44095579 Hash: 0B9DADA952B1F8BBA9C7E447B16BEADF Accuracy: -m8
Conclusion: CDDA 100%
Signature: 776D8F7883E17547574AB8934B2F29AA2CB6C2FA
FILE: 09 - I Want You - You Want Me (Teddy's House Mix).flac
Size: 42253653 Hash: 1AD3286D55AA921FFB64F288D392EBF0 Accuracy: -m8
Conclusion: CDDA 100%
Signature: ED7E2D803A393A365C5BF2AB38A81F5B711A70BE
FILE: 08 - True Love.flac
Size: 31476698 Hash: C3B66E5232411A8F9DEDBE36A06B9B30 Accuracy: -m8
Conclusion: CDDA 100%
Signature: AED91A317AA3BEA3B7A0D0D81E0EF745520E857D
FILE: 07 - Step by Step.flac
Size: 37679782 Hash: EE8B6D1A5161B298596EF7211CF2A1D7 Accuracy: -m8
Conclusion: CDDA 100%
Signature: 85CF2A483321D4E1B9F7A3611AC1A5843437B92F
FILE: 06 - I Don't Need Another Lover.flac
Size: 36679144 Hash: 3C765A998231F5B624844B7D304066DE Accuracy: -m8
Conclusion: CDDA 100%
Signature: 9B654911EB99D6E7F6DC7B9A491BA5DD22F18116
FILE: 05 - When They Love You Back.flac
Size: 37364007 Hash: 5A84D1E0098E51BDE1117541F6516009 Accuracy: -m8
Conclusion: CDDA 100%
Signature: D63D07CEBAD1382FC60D4FDB37C22B079E65EEDA
FILE: 04 - Have You Got What It Takes.flac
Size: 31759779 Hash: 16956C9BE636E32F71655831266B5E25 Accuracy: -m8
Conclusion: CDDA 100%
Signature: DBEB41A5B4D26E54945B41F9E12535B8D14C0089
FILE: 03 - Midnight Love.flac
Size: 35418193 Hash: A7E6B2512509E8D6A0415C7D31A25DF8 Accuracy: -m8
Conclusion: CDDA 100%
Signature: A53EF4F296169EA11CA3ABE5BD3460121C352DA5
FILE: 02 - Your Lover.flac
Size: 39631678 Hash: ED12CF5E222DB9044CDBC02F27F160AE Accuracy: -m8
Conclusion: CDDA 99%
Signature: C82889AFC02AFA75699BBE46937DA65EDAC37CAF
FILE: 01 - I Want You - You Want Me.flac
Size: 39965220 Hash: 041CD7E0B327436829D4F5FE87B4C930 Accuracy: -m8
Conclusion: CDDA 100%
Signature: F77F7D9EE2C98B2AE3385A38212B08A8539C9BB4