Tags
Language
Tags
October 2022
Su Mo Tu We Th Fr Sa
25 26 27 28 29 30 1
2 3 4 5 6 7 8
9 10 11 12 13 14 15
16 17 18 19 20 21 22
23 24 25 26 27 28 29
30 31 1 2 3 4 5

Status Quo - Aquostic II: That's A Fact! (2016) {Deluxe Edition}

Posted By: popsakov
Status Quo - Aquostic II: That's A Fact! (2016) {Deluxe Edition}

Status Quo - Aquostic II: That's A Fact! (2016) {Deluxe Edition}
2CD | EAC Rip | FLAC (Img) + Cue + Log ~ 676 Mb | MP3 CBR320 ~ 230 Mb
Covers Included | 00:50:55 + 00:38:40 | RAR 5% Recovery
Rock, Acoustic | earMUSIC #0211616EMU

Aquostic II – That’s A Fact! is the follow up to the phenomenally successful album from 2014 Aquostic (Stripped Bare). Aquostic II offers a generous helping of Quo classics that are immediately recognisable, and yet demonstrably re-engineered; including In The Army Now, Hold You Back and Roll Over Lay Down. Also featured are three brand new tracks from the band One For The Road, Is Someone Rocking Your Heart? and One Of Everything. This deluxe edition comes with a bonus CD featuring six tracks recorded at the band’s 2015 Stuttgart Aquostic show including Pictures of Matchstick Men and Whatever You Want.

***************

Status Quo - Aquostic II: That's A Fact! (2016) {Deluxe Edition}

Track List CD1:

01. That's A Fact [3:37]
02. Roll Over Lay Down [4:28]
03. Dear John [3:29]
04. In The Army Now [4:03]
05. Hold You Back [4:11]
06. One For The Road [3:33]
07. Backwater [4:52]
08. One Of Everything [3:48]
09. Belavista Man [3:52]
10. Lover Of The Human Race [3:45]
11. Ice In The Sun [2:21]
12. Mess Of The Blues [2:32]
13. Jame Side Down [3:13]
14. Resurrection [3:12]

Exact Audio Copy V1.1 from 23. June 2015

EAC extraction logfile from 25. October 2016, 16:55

Status Quo / Aquostic II That's A Fact (CD1)

Used drive : Pioneer BDR-209DBK Adapter: 0 ID: 0

Read mode : Secure
Utilize accurate stream : Yes
Defeat audio cache : Yes
Make use of C2 pointers : No

Read offset correction : 6
Overread into Lead-In and Lead-Out : No
Fill up missing offset samples with silence : Yes
Delete leading and trailing silent blocks : No
Null samples used in CRC calculations : Yes
Used interface : Installed external ASPI interface

Used output format : Internal WAV Routines
Sample format : 44.100 Hz; 16 Bit; Stereo


TOC of the extracted CD

Track | Start | Length | Start sector | End sector
––––––––––––––––––––––––––––-
1 | 0:00.00 | 3:36.55 | 0 | 16254
2 | 3:36.55 | 4:28.11 | 16255 | 36365
3 | 8:04.66 | 3:28.52 | 36366 | 52017
4 | 11:33.43 | 4:02.73 | 52018 | 70240
5 | 15:36.41 | 4:10.59 | 70241 | 89049
6 | 19:47.25 | 3:33.30 | 89050 | 105054
7 | 23:20.55 | 4:52.34 | 105055 | 126988
8 | 28:13.14 | 3:47.43 | 126989 | 144056
9 | 32:00.57 | 3:51.62 | 144057 | 161443
10 | 35:52.44 | 3:44.66 | 161444 | 178309
11 | 39:37.35 | 2:20.62 | 178310 | 188871
12 | 41:58.22 | 2:32.08 | 188872 | 200279
13 | 44:30.30 | 3:12.64 | 200280 | 214743
14 | 47:43.19 | 3:11.72 | 214744 | 229140


Range status and errors

Selected range

Filename H:\Spotnet\Status Quo - Aquostic II (EAC)\CD1\Status Quo - Aquostic II That's A Fact (CD1).wav

Peak level 99.4 %
Extraction speed 7.3 X
Range quality 100.0 %
Test CRC 7603762F
Copy CRC 7603762F
Copy OK

No errors occurred


AccurateRip summary

Track 1 not present in database
Track 2 not present in database
Track 3 not present in database
Track 4 not present in database
Track 5 not present in database
Track 6 not present in database
Track 7 not present in database
Track 8 not present in database
Track 9 not present in database
Track 10 not present in database
Track 11 not present in database
Track 12 not present in database
Track 13 not present in database
Track 14 not present in database

None of the tracks are present in the AccurateRip database

End of status report

foobar2000 1.2.6 / Dynamic Range Meter 1.1.1
log date: 2016-10-26 23:05:06

––––––––––––––––––––––––––––––––––––––––
Analyzed: Status Quo / Aquostic II: That's A Fact! (CD1)
––––––––––––––––––––––––––––––––––––––––

DR Peak RMS Duration Track
––––––––––––––––––––––––––––––––––––––––
DR9 -0.15 dB -10.74 dB 3:37 01-That's A Fact
DR9 -0.29 dB -10.98 dB 4:28 02-Roll Over Lay Down
DR9 -0.39 dB -12.05 dB 3:29 03-Dear John
DR9 -0.30 dB -10.91 dB 4:03 04-In The Army Now
DR9 -0.15 dB -10.75 dB 4:11 05-Hold You Back
DR9 -0.24 dB -11.74 dB 3:33 06-One For The Road
DR8 -0.22 dB -9.42 dB 4:52 07-Backwater
DR8 -0.22 dB -10.25 dB 3:48 08-One Of Everything
DR10 -0.23 dB -11.48 dB 3:52 09-Belavista Man
DR9 -0.20 dB -11.73 dB 3:45 10-Lover Of The Human Race
DR7 -0.28 dB -8.99 dB 2:21 11-Ice In The Sun
DR8 -0.05 dB -9.43 dB 2:32 12-Mess Of The Blues
DR9 -0.09 dB -10.66 dB 3:13 13-Jame Side Down
DR10 -0.16 dB -11.09 dB 3:12 14-Resurrection
––––––––––––––––––––––––––––––––––––––––

Number of tracks: 14
Official DR value: DR9

Samplerate: 44100 Hz
Channels: 2
Bits per sample: 16
Bitrate: 971 kbps
Codec: FLAC
================================================================================

[CUETools log; Date: 01.03.2020 10:56:55; Version: 2.1.6]
[CTDB TOCID: G.zWxaVtQ.Rf_1CrRkbkgQte9ps-] found.
Track | CTDB Status
1 | (155/156) Accurately ripped
2 | (154/156) Accurately ripped
3 | (154/156) Accurately ripped
4 | (154/156) Accurately ripped
5 | (155/156) Accurately ripped
6 | (153/156) Accurately ripped
7 | (153/156) Accurately ripped
8 | (152/156) Accurately ripped
9 | (152/156) Accurately ripped
10 | (155/156) Accurately ripped
11 | (155/156) Accurately ripped
12 | (154/156) Accurately ripped
13 | (155/156) Accurately ripped
14 | (153/156) Accurately ripped
[AccurateRip ID: 001ba956-01248c81-d40bef0e] found.
Track [ CRC | V2 ] Status
01 [df4f8c24|0217957c] (03+29/42) Accurately ripped
02 [3a5e78f2|05affaf5] (03+29/42) Accurately ripped
03 [4d63cd24|9bb9b806] (03+29/42) Accurately ripped
04 [97cb022f|bc4b3b6f] (03+30/43) Accurately ripped
05 [0164fa12|0abb2eca] (03+29/42) Accurately ripped
06 [908fcf14|f128e838] (03+29/42) Accurately ripped
07 [b3d1fd8f|13e8ffbe] (03+29/42) Accurately ripped
08 [00378750|68fd7650] (03+29/42) Accurately ripped
09 [b1f7bb62|2cf35efd] (03+29/42) Accurately ripped
10 [e3348920|0ad08448] (03+29/42) Accurately ripped
11 [94f675e9|04717810] (03+28/41) Accurately ripped
12 [9d61e5a7|bbaaa2f3] (03+29/42) Accurately ripped
13 [bfbfe653|c6642abf] (03+29/42) Accurately ripped
14 [c19a5090|90c8f1b5] (03+28/41) Accurately ripped
Offsetted by -6:
01 [e5545a4c] (00/42) No match (V2 was not tested)
02 [c192ef1d] (00/42) No match (V2 was not tested)
03 [af858682] (00/42) No match (V2 was not tested)
04 [5e4ab5de] (00/43) No match (V2 was not tested)
05 [bee5d468] (00/42) No match (V2 was not tested)
06 [6f840f08] (00/42) No match (V2 was not tested)
07 [5a459a87] (00/42) No match (V2 was not tested)
08 [fb907c2a] (00/42) No match (V2 was not tested)
09 [871c5688] (00/42) No match (V2 was not tested)
10 [f964df24] (00/42) No match (V2 was not tested)
11 [931ae7ed] (00/41) No match (V2 was not tested)
12 [b07ff967] (00/42) No match (V2 was not tested)
13 [3bbbafd9] (00/42) No match (V2 was not tested)
14 [3f0bcc0e] (00/41) No match (V2 was not tested)
Offsetted by 12:
01 [5a5befd4] (00/42) No match (V2 was not tested)
02 [ea8d80be] (00/42) No match (V2 was not tested)
03 [2d34432b] (00/42) No match (V2 was not tested)
04 [0c671e55] (00/43) No match (V2 was not tested)
05 [84474215] (00/42) No match (V2 was not tested)
06 [d2a74f2c] (00/42) No match (V2 was not tested)
07 [07edc12a] (00/42) No match (V2 was not tested)
08 [0bbf9f31] (00/42) No match (V2 was not tested)
09 [088e922a] (00/42) No match (V2 was not tested)
10 [aeafd388] (00/42) No match (V2 was not tested)
11 [98ad91e1] (00/41) No match (V2 was not tested)
12 [85fe5317] (00/42) No match (V2 was not tested)
13 [c7965357] (00/42) No match (V2 was not tested)
14 [c6b75994] (00/41) No match (V2 was not tested)

Track Peak [ CRC32 ] [W/O NULL] [ LOG ]
– 99,4 [7603762F] [6B67E0D3] CRC32
01 98,2 [09C68EC2] [E54F69FA]
02 96,6 [4E242863] [0E88A677]
03 95,6 [A0B6BF64] [3ED295F1]
04 96,6 [3BE3A9A5] [A5FD45DC]
05 98,3 [557C34D9] [4A75DFFA]
06 97,3 [87E46C63] [F5259A35]
07 97,5 [8660ADAF] [2C5E5C53]
08 97,4 [508CDF38] [FF0B7370]
09 97,4 [E8EB5E35] [9A6C531B]
10 97,7 [B18B6494] [DD80B4E3]
11 96,7 [3E66438C] [ED2B4DC5]
12 99,4 [488E4EE5] [C0195F28]
13 99,0 [AF9485D2] [A14E4F4C]
14 98,1 [0226BF7C] [87285B6A]

Status Quo - Aquostic II: That's A Fact! (2016) {Deluxe Edition}

Track List CD2:

01. Lies [2:51]
02. Little Dreamer [3:08]
03. Living On An Island [3:10]
04. Is Someone Rocking Your Heart? [3:39]
05. Rockers Rollin' [3:37]
06. And It's Better Now (Live) [3:51]
07. Pictures Of Matchstick Men (Live) [3:44]
08. Don't Drive My Car (Live) [3:19]
09. Claudie (Live) [4:03]
10. Whatever You want (Live) [3:38]
11. Rockin' All Over The World (Live) [3:40]

Exact Audio Copy V1.1 from 23. June 2015

EAC extraction logfile from 25. October 2016, 17:10

Status Quo / Aquostic II That's A Fact (CD2)

Used drive : Pioneer BDR-209DBK Adapter: 0 ID: 0

Read mode : Secure
Utilize accurate stream : Yes
Defeat audio cache : Yes
Make use of C2 pointers : No

Read offset correction : 6
Overread into Lead-In and Lead-Out : No
Fill up missing offset samples with silence : Yes
Delete leading and trailing silent blocks : No
Null samples used in CRC calculations : Yes
Used interface : Installed external ASPI interface

Used output format : Internal WAV Routines
Sample format : 44.100 Hz; 16 Bit; Stereo


TOC of the extracted CD

Track | Start | Length | Start sector | End sector
––––––––––––––––––––––––––––-
1 | 0:00.00 | 2:51.11 | 0 | 12835
2 | 2:51.11 | 3:07.54 | 12836 | 26914
3 | 5:58.65 | 3:09.49 | 26915 | 41138
4 | 9:08.39 | 3:39.07 | 41139 | 57570
5 | 12:47.46 | 3:37.37 | 57571 | 73882
6 | 16:25.08 | 3:50.56 | 73883 | 91188
7 | 20:15.64 | 3:44.07 | 91189 | 107995
8 | 23:59.71 | 3:19.24 | 107996 | 122944
9 | 27:19.20 | 4:02.67 | 122945 | 141161
10 | 31:22.12 | 3:38.31 | 141162 | 157542
11 | 35:00.43 | 3:39.54 | 157543 | 174021


Range status and errors

Selected range

Filename H:\Spotnet\Status Quo - Aquostic II (EAC)\CD2\Status Quo - Aquostic II That's A Fact (CD2).wav

Peak level 100.0 %
Extraction speed 6.8 X
Range quality 100.0 %
Test CRC 23F0EB5F
Copy CRC 23F0EB5F
Copy OK

No errors occurred


AccurateRip summary

Track 1 not present in database
Track 2 not present in database
Track 3 not present in database
Track 4 not present in database
Track 5 not present in database
Track 6 not present in database
Track 7 not present in database
Track 8 not present in database
Track 9 not present in database
Track 10 not present in database
Track 11 not present in database

None of the tracks are present in the AccurateRip database

End of status report

foobar2000 1.2.6 / Dynamic Range Meter 1.1.1
log date: 2016-10-26 23:04:20

––––––––––––––––––––––––––––––––––––––––
Analyzed: Status Quo / Aquostic II: That's A Fact! (CD2)
––––––––––––––––––––––––––––––––––––––––

DR Peak RMS Duration Track
––––––––––––––––––––––––––––––––––––––––
DR9 -0.25 dB -10.37 dB 2:51 01-Lies
DR9 -0.02 dB -10.35 dB 3:08 02-Little Dreamer
DR9 -0.11 dB -10.65 dB 3:10 03-Living On An Island
DR9 -0.29 dB -10.79 dB 3:39 04-Is Someone Rocking Your Heart?
DR9 -0.16 dB -10.52 dB 3:37 05-Rockers Rollin'
DR6 0.00 dB -8.81 dB 3:51 06-And It's Better Now (Live)
DR5 0.00 dB -7.18 dB 3:44 07-Pictures Of Matchstick Men (Live)
DR6 0.00 dB -7.56 dB 3:19 08-Don't Drive My Car (Live)
DR5 0.00 dB -7.07 dB 4:03 09-Claudie (Live)
DR6 0.00 dB -7.85 dB 3:38 10-Whatever You want (Live)
DR5 0.00 dB -7.32 dB 3:40 11-Rockin' All Over The World (Live)
––––––––––––––––––––––––––––––––––––––––

Number of tracks: 11
Official DR value: DR7

Samplerate: 44100 Hz
Channels: 2
Bits per sample: 16
Bitrate: 997 kbps
Codec: FLAC
================================================================================

[CUETools log; Date: 01.03.2020 10:57:39; Version: 2.1.6]
[CTDB TOCID: 87sVluSEyLbwEspuK3UMsjUFL3E-] found.
Track | CTDB Status
1 | (72/72) Accurately ripped
2 | (72/72) Accurately ripped
3 | (72/72) Accurately ripped
4 | (72/72) Accurately ripped
5 | (72/72) Accurately ripped
6 | (72/72) Accurately ripped
7 | (72/72) Accurately ripped
8 | (72/72) Accurately ripped
9 | (72/72) Accurately ripped
10 | (72/72) Accurately ripped
11 | (71/72) Accurately ripped
[AccurateRip ID: 000f5e61-0086f204-8909100b] found.
Track [ CRC | V2 ] Status
01 [03b87fb3|9fd3b43f] (03+23/26) Accurately ripped
02 [e98b8781|b0b6c34f] (03+23/26) Accurately ripped
03 [bf050eb1|72ed96ee] (03+23/26) Accurately ripped
04 [06737639|ad96b38e] (03+23/26) Accurately ripped
05 [6ae8b9c3|8a1bf421] (03+23/26) Accurately ripped
06 [c98ee4ed|603e1db8] (03+23/26) Accurately ripped
07 [cc675c09|0e857fb3] (03+23/26) Accurately ripped
08 [0536e8b4|fa5e87ff] (03+23/26) Accurately ripped
09 [2c2295ae|ddf63e61] (03+23/26) Accurately ripped
10 [cf38a310|9a6c2968] (03+23/26) Accurately ripped
11 [fd393039|664a7938] (03+23/26) Accurately ripped

Track Peak [ CRC32 ] [W/O NULL] [ LOG ]
– 100,0 [23F0EB5F] [90356AFE] CRC32
01 97,1 [76C17CD2] [6271CA3E]
02 99,8 [802CB9B6] [8938384A]
03 98,7 [E8B49772] [DD0F1A32]
04 96,7 [D5EA95C2] [9825BD7D]
05 98,2 [13D21CEC] [9F9D019E]
06 100,0 [13C7A03C] [1225D203]
07 100,0 [8951159E] [68A21A70]
08 100,0 [6754D615] [B50E8DF0]
09 100,0 [9786204D] [570E4EBF]
10 100,0 [6A0411C0] [16AE2146]
11 100,0 [9D4C38B5] [16CA3D14]

Status Quo - Aquostic II: That's A Fact! (2016) {Deluxe Edition}


All thanks go to the original ripper(s) …

>>> Status Quo in my Blog <<<

DOWNLOAD: