Subcategories

Status Quo - Down Down & Dirty At Wacken (2018) [BDRip, 1080p]

Posted By: v3122
Status Quo - Down Down & Dirty At Wacken (2018) [BDRip, 1080p]

Status Quo - Down Down & Dirty At Wacken (2018)
MKV: MPEG4 (H264) 1920x1080, 29.97fps | DTS 48kHz, 6ch, 1 509 kb/s
PCM 48000Hz, stereo, 2304kbps / FLAC 48000Hz, stereo, 1007kbps
Classic Rock / Hard Rock / Rock & Roll | 01:11:29 | ~ 5.87 Gb

~ Live at the famous hard rock festival "Wacken Open Air 2017" ~

Status Quo - Down Down & Dirty At Wacken (2018):

Tracklist:

01 - Caroline
02 - Something About You Baby I Like
03 - Rain
04 - Softer Ride
05 - Beginning Of The End
06 - Hold You Back
07 - Proposin' Medley
08 - Paper Plane
09 - In The Army Now
10 - Roll Over Lay Down
11 - Down Down
12 - Whatever You Want
13 - Rockin' All Over The World
14 - Rock And Roll Music/Bye Bye Medley

General
Unique ID : 226373557960014896890089398609790493337 (0xAA4DF61D9B656FB49C6ECE730BA1E299)
Complete name : W:\UP\Mix\Status Quo - Down Down & Dirty At Wacken\Status Quo - Down Down & Dirty At Wacken 2018.mkv
Format : Matroska
Format version : Version 4 / Version 2
File size : 5.47 GiB
Duration : 1h 11mn
Overall bit rate : 10.9 Mbps
Encoded date : UTC 2018-08-17 15:29:54
Writing application : mkvmerge v9.0.1 ('Obstacles') 64bit
Writing library : libebml v1.3.3 + libmatroska v1.4.4
DURATION : 01:11:28.662000000
NUMBER_OF_FRAMES : 402062
NUMBER_OF_BYTES : 808948744
_STATISTICS_WRITING_APP : mkvmerge v9.0.1 ('Obstacles') 64bit
_STATISTICS_WRITING_DATE_UTC : 2018-08-17 15:29:54
_STATISTICS_TAGS : BPS DURATION NUMBER_OF_FRAMES NUMBER_OF_BYTES

Video
ID : 1
Format : AVC
Format/Info : Advanced Video Codec
Format profile : High@L4.1
Format settings, CABAC : Yes
Format settings, ReFrames : 4 frames
Codec ID : V_MPEG4/ISO/AVC
Duration : 1h 11mn
Bit rate : 9 435 Kbps
Width : 1 920 pixels
Height : 1 080 pixels
Display aspect ratio : 16:9
Frame rate mode : Constant
Frame rate : 29.970 fps
Color space : YUV
Chroma subsampling : 4:2:0
Bit depth : 8 bits
Scan type : Progressive
Bits/(Pixel*Frame) : 0.152
Stream size : 4.60 GiB (84%)
Writing library : x264 core 155 r2901 7d0ff22
Encoding settings : cabac=1 / ref=4 / deblock=1:0:0 / analyse=0x3:0x113 / me=umh / subme=8 / psy=1 / psy_rd=1.00:0.00 / mixed_ref=1 / me_range=16 / chroma_me=1 / trellis=2 / 8x8dct=1 / cqm=0 / deadzone=21,11 / fast_pskip=0 / chroma_qp_offset=-2 / threads=12 / lookahead_threads=2 / sliced_threads=0 / nr=0 / decimate=1 / interlaced=0 / bluray_compat=0 / constrained_intra=0 / bframes=3 / b_pyramid=2 / b_adapt=1 / b_bias=0 / direct=1 / weightb=1 / open_gop=0 / weightp=2 / keyint=250 / keyint_min=25 / scenecut=40 / intra_refresh=0 / rc_lookahead=50 / rc=2pass / mbtree=1 / bitrate=9435 / ratetol=1.0 / qcomp=0.60 / qpmin=0 / qpmax=69 / qpstep=4 / cplxblur=20.0 / qblur=0.5 / ip_ratio=1.40 / aq=1:1.00
Default : Yes
Forced : No

Audio
ID : 2
Format : DTS
Format/Info : Digital Theater Systems
Mode : 16
Format settings, Endianness : Big
Codec ID : A_DTS
Duration : 1h 11mn
Bit rate mode : Constant
Bit rate : 1 509 Kbps
Channel(s) : 6 channels
Channel positions : Front: L C R, Side: L R, LFE
Sampling rate : 48.0 KHz
Bit depth : 24 bits
Compression mode : Lossy
Stream size : 771 MiB (14%)
Language : English
Default : Yes
Forced : No



Status Quo - Down Down & Dirty At Wacken (2018) [BDRip, 1080p]

Status Quo - Down Down & Dirty At Wacken (2018) [BDRip, 1080p]

Status Quo - Down Down & Dirty At Wacken (2018) [BDRip, 1080p]

Status Quo - Down Down & Dirty At Wacken (2018) [BDRip, 1080p]

Status Quo - Down Down & Dirty At Wacken (2018) [BDRip, 1080p]

All thanks go to the original releaser

Status Quo or Status Quo in my Blog

Download Status Quo - Down Down & Dirty At Wacken (2018):