Subcategories

Status Quo - Pictures: Live At Montreux 2009 (2009) 2 DVD + CD Deluxe Edition

Posted By: Designol
Status Quo - Pictures: Live At Montreux 2009 (2009) 2 DVD + CD Deluxe Edition

Status Quo - Pictures: Live At Montreux 2009 (2009) 2 DVD + CD Deluxe Edition
DVD9+DVD5 | PAL | 16:9 (720x576) VBR | Dolby AC3 6 ch or 2 ch/ DTS | Time: 04:03:00 | ~ 11.4 Gb
EAC | FLAC | Image (Cue&Log) ~ 441 Mb | Mp3 (CBR320) ~ 161 Mb | Time: 01:10:34
Classic Rock, Boogie Rock, Hard Rock, Pop Rock | Label: Eagle Rock | # eredv758 | Scans ~ 337 Mb

The Deluxe Edition of the release includes the full concert and interview footage from Montreux but also boasts the extended version of the new Biography Channel documentary on 40 years of Status Quo, a single CD of highlights from the Montreux performance and a substantial booklet.

Living up to the title of their signature hit, "Rockin' All Over the World," Britain's biggest boogie-woogie rock band Status Quo show that five decades into their career, they are still a live force to be reckoned with, as evident on this belated release of their triumphant set at the 2009 Montreux Jazz Festival. Originally released on DVD in 2007, this audio recording of their second appearance at the legendary Swiss event trims five numbers from the original set list, with "In My Chair," "Burning Bridges," and bizarrely, their second biggest U.K. single, "In the Army Now" omitted from its 17 tracks. But with 40 years of hits to choose from, there's still more than enough recognizable fare on offer, as the twin Telecasters of Francis Rossi and Rick Parfitt help to provide blistering and rousing renditions of material starting from their 1968 debut Picturesque Matchstickable Messages from the Status Quo ("Ice in the Sun"), right up to 2007's In Search of the Fourth Chord ("Beginning of the End"). While never really deviating from their no-frills dad rock formula, it's hard not to get caught up in their enthusiasm as they race through the likes of their cover of Dion's "The Wanderer," their debut single "Pictures of Matchstick Men," and their triple-whammy finale of chart-topper "Down Down," "Whatever You Want," and "Rockin' All Over the World." The largely reserved audience response may suggest otherwise, but Live at Montreux 2009 is an enjoyable souvenir of what's considered one of the rock veterans' best-ever live performances.

Review by Jon O'Brien, Allmusic.com

Status Quo - Pictures: Live At Montreux 2009 (2009) 2 DVD + CD Deluxe Edition



Status Quo - Pictures: Live At Montreux 2009 (2009) 2 DVD + CD Deluxe Edition

Status Quo - Pictures: Live At Montreux 2009 (2009) 2 DVD + CD Deluxe Edition

Status Quo - Pictures: Live At Montreux 2009 (2009) 2 DVD + CD Deluxe Edition

Status Quo - Pictures: Live At Montreux 2009 (2009) 2 DVD + CD Deluxe Edition


Tracklist:

DVD1 - Live At Montreux 2009:

01. Caroline
02. The Wanderer
03. Rain
04. Don't Drive My Car
05. Mean Girl / Softer Ride
06. Beginning Of The End
07. Is There A Better Way
08. Proposing Medley:
What You're Proposing/Down The Dustpipe/Little Lady/Red Sky/Dear John/Big Fat Mama
09. Pictures Of Matchstick Men/Ice In The Sun
10. The Oriental
11. Creepin' Up
12. In My Chair
13. Living On An Island
14. In The Army Now
15. The Killer
16. Roll Over Lay Down
17. Down Down
18. Whatever You Want
19. Rockin' All Over The World
20. Junior's Wailing
21. Rock ‘N' Roll Music/Bye Bye Johnny

Bonus Feature:

01. Quo in Montreux
02. Rossi Cam: Down Down & Roll Over
03. Parfitt Cam: Whatever You Want & Rain



DVD2 - Pictures: The Story Of 40 Years Of Hits:

01. Introducing Legends
02. Coming Together
03. A New Beginning
04. That's The Single
05. Stories From The Road
06. Rockin' All Over The World
07. Disharmony
08. Back In The Ranks
09. New Sound
10. The Pub Tour
11. The Party Ain't Over Yet
12. Pictures Of Now



Audio CD:

01. Caroline (06:19)
02. The Wanderer (02:42)
03. Rain (04:52)
04. Don't Drive My Car (03:57)
05. Mean Girl (01:56)
06. Softer Ride (03:52)
07. Beginning Of The End (04:20)
08. Is There A Better Way (03:43)
09. Pictures Of Matchstick Men (02:29)
10. Ice In The Sun (02:06)
11. The Oriental (05:01)
12. Creepin' Up On You (04:52)
13. Living On An Island (02:48)
14. Roll Over Lay Down (05:55)
15. Down Down (05:59)
16. Whatever You Want (05:03)
17. Rockin' All Over The World (04:33)


Exact Audio Copy V1.0 beta 1 from 15. November 2010

EAC extraction logfile from 3. August 2011, 22:29

Status Quo / Status Quo Live At The Montreux Jazz Festival 2009

Used drive : Optiarc DVD RW AD-5200S Adapter: 2 ID: 0

Read mode : Secure
Utilize accurate stream : Yes
Defeat audio cache : Yes
Make use of C2 pointers : No

Read offset correction : 48
Overread into Lead-In and Lead-Out : No
Fill up missing offset samples with silence : Yes
Delete leading and trailing silent blocks : No
Null samples used in CRC calculations : Yes
Used interface : Native Win32 interface for Win NT & 2000

Used output format : User Defined Encoder
Selected bitrate : 1024 kBit/s
Quality : High
Add ID3 tag : No
Command line compressor : C:\Program Files (x86)\Exact Audio Copy\FLAC\FLAC.EXE
Additional command line options : -8 -V %s


TOC of the extracted CD

Track | Start | Length | Start sector | End sector
––––––––––––––––––––––––––––-
1 | 0:00.00 | 6:19.15 | 0 | 28439
2 | 6:19.15 | 2:42.13 | 28440 | 40602
3 | 9:01.28 | 4:52.34 | 40603 | 62536
4 | 13:53.62 | 3:57.30 | 62537 | 80341
5 | 17:51.17 | 1:56.11 | 80342 | 89052
6 | 19:47.28 | 3:52.49 | 89053 | 106501
7 | 23:40.02 | 4:20.01 | 106502 | 126002
8 | 28:00.03 | 3:44.44 | 126003 | 142846
9 | 31:44.47 | 2:29.73 | 142847 | 154094
10 | 34:14.45 | 2:06.09 | 154095 | 163553
11 | 36:20.54 | 5:01.59 | 163554 | 186187
12 | 41:22.38 | 4:52.72 | 186188 | 208159
13 | 46:15.35 | 2:49.54 | 208160 | 220888
14 | 49:05.14 | 5:55.43 | 220889 | 247556
15 | 55:00.57 | 5:59.11 | 247557 | 274492
16 | 60:59.68 | 5:03.61 | 274493 | 297278
17 | 66:03.54 | 4:33.03 | 297279 | 317756


Range status and errors

Selected range

Filename D:\Download\Музыка-видео\Status Quo\Status Quo - Pictures - Live At Montrenx 2009\Disc 3 CD\Status Quo - Status Quo Live At The Montreux Jazz Festival 2009.wav

Peak level 99.9 %
Extraction speed 0.2 X
Range quality 99.9 %
Test CRC 3856AAC7
Copy CRC 3856AAC7
Copy OK

No errors occurred


AccurateRip summary

Track 1 accurately ripped (confidence 3) [D751FDFB]
Track 2 accurately ripped (confidence 3) [8DECB3D6]
Track 3 accurately ripped (confidence 3) [236B8CE5]
Track 4 accurately ripped (confidence 3) [0F4B7B3D]
Track 5 accurately ripped (confidence 3) [EBFDD9EA]
Track 6 accurately ripped (confidence 3) [6F9835CC]
Track 7 accurately ripped (confidence 3) [A2CA2E85]
Track 8 accurately ripped (confidence 3) [D05403CF]
Track 9 accurately ripped (confidence 3) [7F9587EF]
Track 10 accurately ripped (confidence 3) [FD8B59CB]
Track 11 accurately ripped (confidence 3) [FBEA1B98]
Track 12 accurately ripped (confidence 3) [4C884E7B]
Track 13 accurately ripped (confidence 3) [5B826A17]
Track 14 accurately ripped (confidence 3) [73F6D731]
Track 15 accurately ripped (confidence 3) [588F18B4]
Track 16 accurately ripped (confidence 3) [45996593]
Track 17 accurately ripped (confidence 3) [5BA247FF]

All tracks accurately ripped

End of status report

foobar2000 1.2 / Dynamic Range Meter 1.1.1
log date: 2013-03-30 21:13:57

––––––––––––––––––––––––––––––––––––––––
Analyzed: Status Quo / Status Quo Live At The Montreux Jazz Festival 2009
––––––––––––––––––––––––––––––––––––––––

DR Peak RMS Duration Track
––––––––––––––––––––––––––––––––––––––––
DR9 -0.05 dB -11.12 dB 6:19 01-Caroline
DR9 -0.19 dB -9.46 dB 2:42 02-The Wanderer
DR9 -0.07 dB -10.48 dB 4:52 03-Rain
DR9 -0.12 dB -10.97 dB 3:57 04-Don't Drive My Car
DR8 -0.16 dB -9.41 dB 1:56 05-Mean Girl
DR10 -0.10 dB -11.30 dB 3:53 06-Softer Ride
DR9 -0.11 dB -9.96 dB 4:20 07-Beginning Of The End
DR9 -0.18 dB -10.40 dB 3:45 08-Is There A Better Way
DR10 -0.19 dB -11.33 dB 2:30 09-Pictures Of Matchstick Men
DR9 -0.20 dB -10.85 dB 2:06 10-Ice In The Sun
DR9 -0.08 dB -10.75 dB 5:02 11-The Oriental
DR9 -0.01 dB -10.59 dB 4:53 12-Creepin' Up On You
DR11 -0.20 dB -14.57 dB 2:50 13-Living On An Island
DR10 -0.10 dB -11.26 dB 5:56 14-Roll Over Lay Down
DR9 -0.01 dB -11.52 dB 5:59 15-Down Down
DR9 -0.15 dB -11.40 dB 5:04 16-Whatever You Want
DR9 -0.16 dB -10.16 dB 4:33 17-Rockin' All Over The World
––––––––––––––––––––––––––––––––––––––––

Number of tracks: 17
Official DR value: DR9

Samplerate: 44100 Hz
Channels: 2
Bits per sample: 16
Bitrate: 874 kbps
Codec: FLAC
================================================================================

Status Quo - Pictures: Live At Montreux 2009 (2009) 2 DVD + CD Deluxe Edition

Status Quo - Pictures: Live At Montreux 2009 (2009) 2 DVD + CD Deluxe Edition