Subcategories

Status Quo - Picturesque Matchstickable Messages From The Status Quo (1968) [2009, Deluxe Edition]

Posted By: jclane
Status Quo - Picturesque Matchstickable Messages From The Status Quo (1968) [2009, Deluxe Edition]

Status Quo - Picturesque Matchstickable Messages From The Status Quo (1968) [2009, Deluxe Edition]
EAC Rip | 2 x CD | FLAC Image + Cue + Log -> 807.9 MB | Full Covers -> 45.7 MB | RAR 3% Recovery
Label: Sanctuary Records Group Ltd. / Universal Music Ltd. | Catalog#: 1799861 | Genre: Rock, Classic Rock
Psychedelic Rock

Picturesque Matchstickable Messages from the Status Quo is the 1968 debut album by the British psychedelic rock group, Status Quo. The album features a large number of covers, including "Green Tambourine" by The Lemon Pipers.

This North American pressing of Status Quo's first LP, Picturesque Matchstickable Messages from the Status Quo (1968), differs significantly from the European version. Amended are both the original tongue-twister title to simply Messages from the Status Quo, as well as the track list, which omits the covers of Tommy Roe's "Sheila" and the Lemon Pipers "Green Tambourine." Although their sound would radically change, this is the same Status Quo that would drop the three-letter article from their name and go on to become one of the U.K.'s most revered rock and blues boogie bands. In fact, the core unit of Rick Parfitt (guitar/keyboard/vocals), Francis Rossi (guitar/vocals), Roy Lynes (keyboards/vocals), and Alan Lancaster (bass/vocals) remained (albeit sporadically) in a majority of the 1970s incarnations. As was all the rage at the time, a faux-stereo mix was used on this platter. This hideous phenomenon would generally consist of all the instruments being placed in one channel and all the vocals in the other. Add a heaping helping of echoplex and voilà, crudely simulated stereo. Musically, the Quo had developed out of the early-to-mid-'60s swinging London scene. First as the Spectres, then the Traffic Jam. They would hit upon their most successful incarnation yet with a blend of strong freakbeat and pop-oriented psychedelic originals. Most notable are the upbeat "Ice In The Sun" – which features an acoustic autoharp a lá John Sebastian in the Lovin' Spoonful – and the suitably trippy "Technicolour Dreams." The Bee Gees' "Spicks and Specks" had been part of their repertoire dating as far back as the Traffic Jam. Concluding the effort is the band's biggest hit, "Pictures Of Matchstick Men," which reached the Top 20 on the Pop singles charts stateside, where it remains a staple of oldies radio. Enthusiasts wishing to thoroughly examine this era of the Status Quo are encouraged to locate a copy of Picturesque Matchstickable Messages from the Status Quo [Bonus Tracks]. This two-disc set includes a stereo and mono mix of the original 12-song LP as well as a plethora of BBC recordings, and an info-laden, full-color, 12-panel liner notes fold-out that is full of eye candy. [Sanctuary's 2009 deluxe edition included a bonus CD.]

by Lindsay Planer - Allmusic

Disc One - Mono LP

01. Black Veils Of Melancholy - 3:17
02. When My Mind Is Not Live - 2:51
03. Ice In The Sun - 2:13
04. Elizabeth Dreams - 3:29
05. Gentleman Joe's Sidewalk Cafe - 3:02
06. Paradise Flat - 3:13
07. Technicolour Dreams - 2:54
08. Sheila - 1:57
09. Spicks And Specks - 2:46
10. Sunny Cellophane Skies - 2:47
11. Green Tambourine - 2:19
12. Pictures Of Matchstick Men - 3:14

Bonus Track
13. To Be Free (B Side) - 2:38
14. Make Me Stay A Bit Longer (A Side) - 2:56
15. Auntie Nellie (B Side) - 3:22

BBC Sessions
16. Interview With Brian Matthew - 1:08
17. Pictures Of Matchstick Men - 3:13
18. hings Get Better - 2:11
19. Spicks And Specks - 2:48
20. Judy In Disguise - 2:45
21. Interview - 1:19
22. Make Me Stay A Bit Longer - 2:48


Exact Audio Copy V0.99 prebeta 5 from 4. May 2009

Отчёт EAC об извлечении, выполненном 25. июня 2011, 21:24

Status Quo / Picturesque Matchstickable Messages From The Status Quo (CD 1)

Дисковод: ATAPI iHAP122 9 Adapter: 0 ID: 0

Режим чтения : Достоверность
Использование точного потока : Да
Отключение кэша аудио : Да
Использование указателей C2 : Нет

Коррекция смещения при чтении : 6
Способность читать области Lead-in и Lead-out : Нет
Заполнение пропущенных сэмплов тишиной : Да
Удаление блоков с тишиной в начале и конце : Нет
При вычислениях CRC использовались нулевые сэмплы : Да
Интерфейс : Встроенный Win32-интерфейс для Win NT/2000

Выходной формат : Внутренние WAV-операции
Формат сэмплов : 44.100 Гц; 16 бит; стерео


TOC извлечённого CD

Трек | Старт | Длительность | Начальный сектор | Конечный сектор
––––––––––––––––––––––––––––––––––-
1 | 0:00.00 | 3:17.00 | 0 | 14774
2 | 3:17.00 | 2:50.46 | 14775 | 27570
3 | 6:07.46 | 2:13.17 | 27571 | 37562
4 | 8:20.63 | 3:29.08 | 37563 | 53245
5 | 11:49.71 | 3:01.67 | 53246 | 66887
6 | 14:51.63 | 3:13.01 | 66888 | 81363
7 | 18:04.64 | 2:54.16 | 81364 | 94429
8 | 20:59.05 | 1:56.51 | 94430 | 103180
9 | 22:55.56 | 2:46.35 | 103181 | 115665
10 | 25:42.16 | 2:47.22 | 115666 | 128212
11 | 28:29.38 | 2:19.06 | 128213 | 138643
12 | 30:48.44 | 3:13.45 | 138644 | 153163
13 | 34:02.14 | 2:37.61 | 153164 | 164999
14 | 36:40.00 | 2:55.46 | 165000 | 178170
15 | 39:35.46 | 3:22.06 | 178171 | 193326
16 | 42:57.52 | 1:07.71 | 193327 | 198422
17 | 44:05.48 | 3:13.24 | 198423 | 212921
18 | 47:18.72 | 2:11.02 | 212922 | 222748
19 | 49:29.74 | 2:48.08 | 222749 | 235356
20 | 52:18.07 | 2:45.02 | 235357 | 247733
21 | 55:03.09 | 1:18.60 | 247734 | 253643
22 | 56:21.69 | 2:48.19 | 253644 | 266262


Характеристики диапазона извлечения и сообщения об ошибках

Выбранный диапазон

Имя файла D:\Запись\Релизы под вопросом\Status Quo - Picturesque Matchstickable Messages from the Status Quo (2 CD)\CD 1\Status Quo - Picturesque Matchstickable Messages From The Status Quo.wav

Пиковый уровень 100.0 %
Качество диапазона 100.0 %
CRC теста 81482D7A
CRC копии 81482D7A
Копирование… OK

Ошибок не произошло


AccurateRip: сводка

Трек 1 точность не определена (достоверность 4) [F65753F4], AccurateRip вернул [3B69F4B0]
Трек 2 точность не определена (достоверность 4) [DB3C490A], AccurateRip вернул [4AC5A532]
Трек 3 точность не определена (достоверность 4) [F337B35C], AccurateRip вернул [F328F9BC]
Трек 4 точность не определена (достоверность 4) [0F6A4D7B], AccurateRip вернул [E408EB89]
Трек 5 точность не определена (достоверность 4) [8DD5B38B], AccurateRip вернул [9E98AEA4]
Трек 6 точность не определена (достоверность 4) [02115776], AccurateRip вернул [6220863A]
Трек 7 точность не определена (достоверность 4) [FB73BB5C], AccurateRip вернул [5B1D46DF]
Трек 8 точность не определена (достоверность 4) [058094E0], AccurateRip вернул [E5F02894]
Трек 9 точность не определена (достоверность 4) [386EAE55], AccurateRip вернул [81CE30BC]
Трек 10 точность не определена (достоверность 4) [3D486D5F], AccurateRip вернул [558C8B1C]
Трек 11 точность не определена (достоверность 4) [94FFD555], AccurateRip вернул [5C72D19D]
Трек 12 точность не определена (достоверность 4) [DB5393CC], AccurateRip вернул [C6023909]
Трек 13 точность не определена (достоверность 4) [F90D153E], AccurateRip вернул [E661168D]
Трек 14 точность не определена (достоверность 4) [E056DBC3], AccurateRip вернул [6A000B05]
Трек 15 точность не определена (достоверность 4) [BF16400A], AccurateRip вернул [407CBEF7]
Трек 16 точность не определена (достоверность 4) [C4246735], AccurateRip вернул [B322BBAE]
Трек 17 точность не определена (достоверность 4) [D8ACDA1B], AccurateRip вернул [6BA5F726]
Трек 18 точность не определена (достоверность 4) [5FB226AA], AccurateRip вернул [3B9FD021]
Трек 19 точность не определена (достоверность 4) [C888263F], AccurateRip вернул [46748CF1]
Трек 20 точность не определена (достоверность 4) [4C588305], AccurateRip вернул [EB78322F]
Трек 21 точность не определена (достоверность 4) [E87A6F5A], AccurateRip вернул [BD21FF47]
Трек 22 точность не определена (достоверность 4) [115AB174], AccurateRip вернул [F57E44A4]

Ни один трек не прошёл проверки на точность
В вашей базе может быть иной вариант штамповки диска

Конец отчёта

Status Quo - Picturesque Matchstickable Messages From The Status Quo (1968) [2009, Deluxe Edition]




Disc Two - Stereo LP Remixed 'Proper'

01. Black Veils Of Melancholy - 3:17
02. When My Mind Is Not Live - 3:03
03. Ice In The Sun - 2:15
04. Elizabeth Dreams - 3:49
05. Gentleman Joe's Sidewalk Cafe - 3:02
06. Paradise Flat - 3:16
07. Technicolour Dreams - 3:19
08. Sheila - 1:58
09. Spicks And Specks - 2:54
10. Sunny Cellophane Skies - 2:49
11. Green Tambourine - 2:21
12. Pictures Of Matchstick Men - 3:17

Bonus Tracks
13. Auntie Nellie - 3:34

BBC Sessions

The Spectres
14. Gloria - 2:47
15. Interview With Francis Rossi - 0:49
16. I (Who Have Nothing) - 3:03
17. Neighbour, Neighbour - 2:39
Traffic Jam
18. I Don't Want You - 2:34
19. Almost But Not Quite There - 2:38
20. Spicks And Specks - 2:47
The Status Quo
21. Gloria - 2:43
22. Interview With Alan Lancaster - 1:01
23. Black Veils Of Melancholy - 3:14
24. Bloodhound - 2:05


Exact Audio Copy V0.99 prebeta 5 from 4. May 2009

Отчёт EAC об извлечении, выполненном 25. июня 2011, 22:06

The Status Quo / Picturesque Matchstickable Message from The Status Quo (CD 2)

Дисковод: ATAPI iHAP122 9 Adapter: 0 ID: 0

Режим чтения : Достоверность
Использование точного потока : Да
Отключение кэша аудио : Да
Использование указателей C2 : Нет

Коррекция смещения при чтении : 6
Способность читать области Lead-in и Lead-out : Нет
Заполнение пропущенных сэмплов тишиной : Да
Удаление блоков с тишиной в начале и конце : Нет
При вычислениях CRC использовались нулевые сэмплы : Да
Интерфейс : Встроенный Win32-интерфейс для Win NT/2000

Выходной формат : Внутренние WAV-операции
Формат сэмплов : 44.100 Гц; 16 бит; стерео


TOC извлечённого CD

Трек | Старт | Длительность | Начальный сектор | Конечный сектор
––––––––––––––––––––––––––––––––––-
1 | 0:00.00 | 3:16.49 | 0 | 14748
2 | 3:16.49 | 3:02.49 | 14749 | 28447
3 | 6:19.23 | 2:15.06 | 28448 | 38578
4 | 8:34.29 | 3:49.27 | 38579 | 55780
5 | 12:23.56 | 3:02.28 | 55781 | 69458
6 | 15:26.09 | 3:15.38 | 69459 | 84121
7 | 18:41.47 | 3:19.25 | 84122 | 99071
8 | 22:00.72 | 1:57.58 | 99072 | 107904
9 | 23:58.55 | 2:54.18 | 107905 | 120972
10 | 26:52.73 | 2:48.72 | 120973 | 133644
11 | 29:41.70 | 2:20.46 | 133645 | 144190
12 | 32:02.41 | 3:16.55 | 144191 | 158945
13 | 35:19.21 | 3:33.41 | 158946 | 174961
14 | 38:52.62 | 2:47.21 | 174962 | 187507
15 | 41:40.08 | 0:49.30 | 187508 | 191212
16 | 42:29.38 | 3:03.02 | 191213 | 204939
17 | 45:32.40 | 2:38.69 | 204940 | 216858
18 | 48:11.34 | 2:34.00 | 216859 | 228408
19 | 50:45.34 | 2:38.34 | 228409 | 240292
20 | 53:23.68 | 2:47.11 | 240293 | 252828
21 | 56:11.04 | 2:43.37 | 252829 | 265090
22 | 58:54.41 | 1:00.45 | 265091 | 269635
23 | 59:55.11 | 3:14.14 | 269636 | 284199
24 | 63:09.25 | 2:05.23 | 284200 | 293597


Характеристики диапазона извлечения и сообщения об ошибках

Выбранный диапазон

Имя файла D:\Запись\Релизы под вопросом\Status Quo - Picturesque Matchstickable Messages from the Status Quo (2 CD)\CD 2\The Status Quo - Picturesque Matchstickable Message from The Status Quo CD 2.wav

Пиковый уровень 100.0 %
Качество диапазона 99.9 %
CRC теста 7BB6BE54
CRC копии 7BB6BE54
Копирование… OK

Ошибок не произошло


AccurateRip: сводка

Трек 1 точность не определена (достоверность 5) [2D071455], AccurateRip вернул [76108E32]
Трек 2 точность не определена (достоверность 5) [A5051740], AccurateRip вернул [65084C47]
Трек 3 точность не определена (достоверность 5) [A1BA7A1A], AccurateRip вернул [558F51E5]
Трек 4 точность не определена (достоверность 5) [1356DDD5], AccurateRip вернул [B9BCDF60]
Трек 5 точность не определена (достоверность 5) [98497471], AccurateRip вернул [9A4301D8]
Трек 6 точность не определена (достоверность 5) [6DD819C1], AccurateRip вернул [6188E15B]
Трек 7 точность не определена (достоверность 5) [DE291FDF], AccurateRip вернул [C5394AD1]
Трек 8 точность не определена (достоверность 5) [F3F4267A], AccurateRip вернул [79CCE61D]
Трек 9 точность не определена (достоверность 5) [C1424E56], AccurateRip вернул [E163723F]
Трек 10 точность не определена (достоверность 5) [20CBF420], AccurateRip вернул [D749B8FF]
Трек 11 точность не определена (достоверность 5) [A917F613], AccurateRip вернул [2AD98E8D]
Трек 12 точность не определена (достоверность 5) [E3BD98CA], AccurateRip вернул [2DD96651]
Трек 13 точность не определена (достоверность 5) [51435015], AccurateRip вернул [493F2B3F]
Трек 14 точность не определена (достоверность 5) [E8F42B32], AccurateRip вернул [4A6FFC0D]
Трек 15 точность не определена (достоверность 5) [DA9CD5D2], AccurateRip вернул [0DBC9ECE]
Трек 16 точность не определена (достоверность 5) [D9481357], AccurateRip вернул [3218725C]
Трек 17 точность не определена (достоверность 5) [7C699506], AccurateRip вернул [2D4D021D]
Трек 18 точность не определена (достоверность 5) [6F1F6026], AccurateRip вернул [D858D805]
Трек 19 точность не определена (достоверность 5) [F76B08A5], AccurateRip вернул [860936FE]
Трек 20 точность не определена (достоверность 5) [76B17F65], AccurateRip вернул [33CA7CB4]
Трек 21 точность не определена (достоверность 5) [32A80A86], AccurateRip вернул [8F67ED59]
Трек 22 точность не определена (достоверность 5) [1F2BDB15], AccurateRip вернул [25333956]
Трек 23 точность не определена (достоверность 5) [0C176218], AccurateRip вернул [B9416155]
Трек 24 точность не определена (достоверность 5) [25954672], AccurateRip вернул [5E766A2E]

Ни один трек не прошёл проверки на точность
В вашей базе может быть иной вариант штамповки диска

Конец отчёта

Status Quo - Picturesque Matchstickable Messages From The Status Quo (1968) [2009, Deluxe Edition]


Personnel

*Francis Rossi - vocals & lead guitar
*Rick Parfitt - vocals & rhythm guitar
*Alan Lancaster - bass guitar
*John Coghlan - drums
*Roy Lynes - vocals & organ

Original Release Date: 27th September 1968
Recorded: January - September 1968 at Pye Studios
CD Released Date: 2009 (Deluxe Edition)
Format: 2 × CD, Album, Remastered, Reissue
Length: 124:04
Producer: John Schroeder
Made in the EU

__________________________________________


Original Uploader: maestro


Download

Filesonic Folder | Wupload Folder | Fileserve Folder

password: jcl4n3

The files are interchangeable!

If any of the links are dead, please send me a private message.

No Mirrors Please!!!


"Music has charms to soothe the savage breast" …Visit my Blog