Subcategories

Status Quo - Rockin All Over the World (2001) [3CD Box]

Posted By: jclane
Status Quo - Rockin All Over the World (2001) [3CD Box]

Status Quo - Rockin All Over the World (2001) [3CD Box]
EAC Rip | 3 x CD | FLAC Image + Cue + Log -> 1.1 GB | Full Covers -> 13.1 MB | RAR 3% Recovery
Label: Mercury Records / Universal | Catalog#: 548 910-2 | Genre: Rock, Classic Rock

Three CD set from one of the UK's greatest Rock 'N' Roll bands, still going strong after 40 years! Although most of this 41 track set spans their years on Vertigo and Polygram (mid '70s to the mid '90s), there are a few early gems on display including the hit 'Pictures Of Matchstick Men'. Also features hits like 'Down Down', 'Rockin' All Over The World', 'Anniversary Waltz Pt. 1', 'Paper Plane', 'Marguerita Time', 'Something 'Bout You Baby I Like' and many more.

by Amazon

Disc 1

01. Rockin' All Over The World - 3:36
02. In The Army Now - 4:41
03. Break The Rules - 3:40
04. Pictures Of Matchstick Men - 0:01
05. What You're Proposin' - 3:49
06. Living On An Island - 3:47
07. Dreamin' - 3:04
08. Anniversary Waltz Part I - 5:30
09. Rain - 4:32
10. Ain't Complaining - 4:39
11. Ice In The Sun - 2:00
12. Who Am I? - 4:30
13. Baby Boy - 3:11
14. Can't Give You More - 4:16


Exact Audio Copy V0.99 prebeta 5 from 4. May 2009

EAC extraction logfile from 10. February 2011, 23:27

Status Quo / Rockin' All Over The World CD 1

Used drive : Optiarc DVD RW AD-7240S Adapter: 3 ID: 1

Read mode : Secure
Utilize accurate stream : Yes
Defeat audio cache : Yes
Make use of C2 pointers : No

Read offset correction : 48
Overread into Lead-In and Lead-Out : No
Fill up missing offset samples with silence : Yes
Delete leading and trailing silent blocks : No
Null samples used in CRC calculations : Yes
Used interface : Native Win32 interface for Win NT & 2000

Used output format : User Defined Encoder
Selected bitrate : 768 kBit/s
Quality : High
Add ID3 tag : No
Command line compressor : C:\Program Files\Exact Audio Copy\FLAC\FLAC.EXE
Additional command line options : -8 -V %s


TOC of the extracted CD

Track | Start | Length | Start sector | End sector
––––––––––––––––––––––––––––-
1 | 0:00.00 | 3:36.53 | 0 | 16252
2 | 3:36.53 | 4:41.46 | 16253 | 37373
3 | 8:18.24 | 3:38.45 | 37374 | 53768
4 | 11:56.69 | 3:11.32 | 53769 | 68125
5 | 15:08.26 | 3:50.44 | 68126 | 85419
6 | 18:58.70 | 3:45.71 | 85420 | 102365
7 | 22:44.66 | 3:03.58 | 102366 | 116148
8 | 25:48.49 | 5:31.28 | 116149 | 141001
9 | 31:20.02 | 4:33.19 | 141002 | 161495
10 | 35:53.21 | 4:39.47 | 161496 | 182467
11 | 40:32.68 | 2:02.03 | 182468 | 191620
12 | 42:34.71 | 4:30.46 | 191621 | 211916
13 | 47:05.42 | 3:12.26 | 211917 | 226342
14 | 50:17.68 | 4:16.12 | 226343 | 245554


Range status and errors

Selected range

Filename F:\music\Status Quo - Rockin' All Over The World (3 CD Box) - 2001 (flac)\CD 1\Status Quo - Rockin' All Over The World CD 1.wav

Peak level 98.0 %
Range quality 99.9 %
Test CRC 5FD24A8B
Copy CRC 5FD24A8B
Copy OK

No errors occurred


AccurateRip summary

Track 1 cannot be verified as accurate (confidence 7) [28E2920F], AccurateRip returned [8E03A66F]
Track 2 cannot be verified as accurate (confidence 7) [EE53C527], AccurateRip returned [A0E6442F]
Track 3 cannot be verified as accurate (confidence 7) [70115BED], AccurateRip returned [FDCB16E5]
Track 4 cannot be verified as accurate (confidence 7) [210081BC], AccurateRip returned [6C1CECEC]
Track 5 cannot be verified as accurate (confidence 7) [06F96E55], AccurateRip returned [C7FE4B0D]
Track 6 cannot be verified as accurate (confidence 7) [DF379166], AccurateRip returned [F511C4AE]
Track 7 cannot be verified as accurate (confidence 7) [1DC3A81D], AccurateRip returned [B19FC535]
Track 8 cannot be verified as accurate (confidence 7) [08576A70], AccurateRip returned [FC9B2C80]
Track 9 cannot be verified as accurate (confidence 7) [CF912462], AccurateRip returned [9C978A22]
Track 10 cannot be verified as accurate (confidence 7) [AEA42A57], AccurateRip returned [953CAF7F]
Track 11 cannot be verified as accurate (confidence 7) [BD450AF0], AccurateRip returned [A6E0FF50]
Track 12 cannot be verified as accurate (confidence 7) [BA9C08A1], AccurateRip returned [9DD1FA29]
Track 13 cannot be verified as accurate (confidence 7) [C5252671], AccurateRip returned [E3D674B1]
Track 14 cannot be verified as accurate (confidence 7) [1310954C], AccurateRip returned [89F7614C]

No tracks could be verified as accurate
You may have a different pressing from the one(s) in the database

End of status report

Status Quo - Rockin All Over the World (2001) [3CD Box]


Disc 2

01. The Wanderer - 3:23
02. Wilde Side Of Life - 3:13
03. Down Down - 3:45
04. Again And Again - 3:40
05. Rollin' Home - 3:58
06. Dear John - 3:11
07. Maguerita Time - 3:26
08. Paper Plane - 2:51
09. For You - 3:00
10. Burning Bridges - 3:51
11. Softer Ride - 4:00
12. Forty-Five Hundred Times - 9:53
13. A Mess Of Blues - 3:20
14. Going Down Down Tonight - 3:37


Exact Audio Copy V0.99 prebeta 5 from 4. May 2009

EAC extraction logfile from 11. February 2011, 0:24

Status Quo / Rockin' All Over The World CD 2

Used drive : Optiarc DVD RW AD-7240S Adapter: 3 ID: 1

Read mode : Secure
Utilize accurate stream : Yes
Defeat audio cache : Yes
Make use of C2 pointers : No

Read offset correction : 48
Overread into Lead-In and Lead-Out : No
Fill up missing offset samples with silence : Yes
Delete leading and trailing silent blocks : No
Null samples used in CRC calculations : Yes
Used interface : Native Win32 interface for Win NT & 2000

Used output format : User Defined Encoder
Selected bitrate : 768 kBit/s
Quality : High
Add ID3 tag : No
Command line compressor : C:\Program Files\Exact Audio Copy\FLAC\FLAC.EXE
Additional command line options : -8 -V %s


TOC of the extracted CD

Track | Start | Length | Start sector | End sector
––––––––––––––––––––––––––––-
1 | 0:00.00 | 3:20.71 | 0 | 15070
2 | 3:20.71 | 3:15.34 | 15071 | 29729
3 | 6:36.30 | 3:49.22 | 29730 | 46926
4 | 10:25.52 | 3:40.57 | 46927 | 63483
5 | 14:06.34 | 3:58.43 | 63484 | 81376
6 | 18:05.02 | 3:12.15 | 81377 | 95791
7 | 21:17.17 | 3:27.26 | 95792 | 111342
8 | 24:44.43 | 2:54.58 | 111343 | 124450
9 | 27:39.26 | 3:00.61 | 124451 | 138011
10 | 30:40.12 | 3:52.28 | 138012 | 155439
11 | 34:32.40 | 4:01.13 | 155440 | 173527
12 | 38:33.53 | 9:52.60 | 173528 | 217987
13 | 48:26.38 | 3:19.43 | 217988 | 232955
14 | 51:46.06 | 3:35.47 | 232956 | 249127


Range status and errors

Selected range

Filename F:\music\Status Quo - Rockin' All Over The World (3 CD Box) - 2001 (flac)\CD 2\Status Quo - Rockin' All Over The World CD 2.wav

Peak level 98.0 %
Range quality 99.9 %
Test CRC D3E95B0E
Copy CRC D3E95B0E
Copy OK

No errors occurred


AccurateRip summary

Track 1 cannot be verified as accurate (confidence 7) [10DB3E74], AccurateRip returned [32D2A4BC]
Track 2 cannot be verified as accurate (confidence 7) [8177F0B7], AccurateRip returned [90C50E7F]
Track 3 cannot be verified as accurate (confidence 7) [285046DC], AccurateRip returned [DACB23C4]
Track 4 cannot be verified as accurate (confidence 7) [189116FB], AccurateRip returned [19008773]
Track 5 cannot be verified as accurate (confidence 7) [01F2B9B3], AccurateRip returned [E17BEE03]
Track 6 cannot be verified as accurate (confidence 7) [D2B88C72], AccurateRip returned [6A17CDC2]
Track 7 cannot be verified as accurate (confidence 7) [0BB8EA3A], AccurateRip returned [B5BA5382]
Track 8 cannot be verified as accurate (confidence 7) [96A0D266], AccurateRip returned [D195D1EE]
Track 9 cannot be verified as accurate (confidence 7) [7E2307DA], AccurateRip returned [20DF7B42]
Track 10 cannot be verified as accurate (confidence 7) [82074007], AccurateRip returned [39CC4D1F]
Track 11 cannot be verified as accurate (confidence 7) [6E770A1C], AccurateRip returned [2BF8383C]
Track 12 cannot be verified as accurate (confidence 7) [F456AB78], AccurateRip returned [CA85F690]
Track 13 cannot be verified as accurate (confidence 7) [6D51BB5F], AccurateRip returned [82B77E07]
Track 14 cannot be verified as accurate (confidence 7) [674EDED4], AccurateRip returned [EC89853C]

No tracks could be verified as accurate
You may have a different pressing from the one(s) in the database

End of status report

Status Quo - Rockin All Over the World (2001) [3CD Box]


Disc 3

01. Whatever You Want - 4:00
02. Roll Over Lay Down - 5:39
03. Caroline - 3:41
04. Something 'Bout You Baby I Like - 2:48
05. Lies - 3:54
06. Don't Drive My Car - 4:13
07. Mystery Song - 6:31
08. Rockers Rollin' - 4:17
09. Red Sky - 4:10
10. I Didn't Mean It - 3:24
11. Rock 'N' Roll - 4:04
12. Hold You Back - 4:30
13. Dirty Water - 3:51


Exact Audio Copy V0.99 prebeta 5 from 4. May 2009

EAC extraction logfile from 11. February 2011, 1:24

Status Quo / Rockin' All Over The World CD 3

Used drive : Optiarc DVD RW AD-7240S Adapter: 3 ID: 1

Read mode : Secure
Utilize accurate stream : Yes
Defeat audio cache : Yes
Make use of C2 pointers : No

Read offset correction : 48
Overread into Lead-In and Lead-Out : No
Fill up missing offset samples with silence : Yes
Delete leading and trailing silent blocks : No
Null samples used in CRC calculations : Yes
Used interface : Native Win32 interface for Win NT & 2000

Used output format : User Defined Encoder
Selected bitrate : 768 kBit/s
Quality : High
Add ID3 tag : No
Command line compressor : C:\Program Files\Exact Audio Copy\FLAC\FLAC.EXE
Additional command line options : -8 -V %s


TOC of the extracted CD

Track | Start | Length | Start sector | End sector
––––––––––––––––––––––––––––-
1 | 0:00.00 | 4:01.00 | 0 | 18074
2 | 4:01.00 | 5:39.61 | 18075 | 43560
3 | 9:40.61 | 3:42.08 | 43561 | 60218
4 | 13:22.69 | 2:48.72 | 60219 | 72890
5 | 16:11.66 | 3:53.48 | 72891 | 90413
6 | 20:05.39 | 4:12.35 | 90414 | 109348
7 | 24:17.74 | 6:32.25 | 109349 | 138773
8 | 30:50.24 | 4:17.68 | 138774 | 158116
9 | 35:08.17 | 4:09.43 | 158117 | 176834
10 | 39:17.60 | 3:22.60 | 176835 | 192044
11 | 42:40.45 | 4:04.03 | 192045 | 210347
12 | 46:44.48 | 4:30.48 | 210348 | 230645
13 | 51:15.21 | 3:51.09 | 230646 | 247979


Range status and errors

Selected range

Filename F:\music\Status Quo - Rockin' All Over The World (3 CD Box) - 2001 (flac)\CD 3\Status Quo - Rockin' All Over The World CD 3.wav

Peak level 98.0 %
Range quality 100.0 %
Test CRC 6B795630
Copy CRC 6B795630
Copy OK

No errors occurred


AccurateRip summary

Track 1 cannot be verified as accurate (confidence 5) [0A9DC87C], AccurateRip returned [3252F074]
Track 2 cannot be verified as accurate (confidence 5) [E4724CBA], AccurateRip returned [65225512]
Track 3 cannot be verified as accurate (confidence 5) [DF1EE17B], AccurateRip returned [51D90DD3]
Track 4 cannot be verified as accurate (confidence 5) [B13891EF], AccurateRip returned [29B5867F]
Track 5 cannot be verified as accurate (confidence 5) [CB4E7734], AccurateRip returned [6A946524]
Track 6 cannot be verified as accurate (confidence 5) [94A3B7CF], AccurateRip returned [A5901857]
Track 7 cannot be verified as accurate (confidence 5) [63FCFFCF], AccurateRip returned [261A90F7]
Track 8 cannot be verified as accurate (confidence 5) [7FE4353B], AccurateRip returned [1A21417B]
Track 9 cannot be verified as accurate (confidence 5) [B3C64383], AccurateRip returned [D99DF2CB]
Track 10 cannot be verified as accurate (confidence 5) [18FCE210], AccurateRip returned [8EFCF4F0]
Track 11 cannot be verified as accurate (confidence 5) [C5CAF639], AccurateRip returned [195CAB01]
Track 12 cannot be verified as accurate (confidence 5) [51C5F011], AccurateRip returned [515431F1]
Track 13 cannot be verified as accurate (confidence 5) [2222C526], AccurateRip returned [C33F9F16]

No tracks could be verified as accurate
You may have a different pressing from the one(s) in the database

End of status report

Status Quo - Rockin All Over the World (2001) [3CD Box]


Release Date: 2001
Format: 3 CD, Compilation
Length: 02:45:01
Printed in Germany

__________________________________________


Original CD Rip by dmvitaly32


Download

Filesonic Folder | Wupload Folder

password: jcl4n3

The files are interchangeable!

If any of the links are dead, please send me a private message.

No Mirrors Please!!!


"Music has charms to soothe the savage breast" …Visit my Blog