Tags
Language
Tags

Steely Dan - Gaucho (1980) {1984, Japan 1st Press}

Posted By: popsakov
Steely Dan - Gaucho (1980) {1984, Japan 1st Press}

Steely Dan - Gaucho (1980) {1984, Japan 1st Press}
EAC Rip | FLAC (Img) + Cue + Log ~ 228 Mb | MP3 CBR320 ~ 94 Mb
Scans Included | 00:38:01 | RAR 5% Recovery
Jazz Rock, Soft Rock, Classic Rock | MCA / Victor #VDP-26

Gaucho is the seventh studio album by the American jazz rock band Steely Dan, released on November 21, 1980 by MCA Records. The sessions for Gaucho represent the band's typical penchant for studio perfectionism and obsessive recording technique. To record the album, the band used at least 42 different musicians, spent over a year in the studio, and far exceeded the original monetary advance given by the record label. Gaucho marked a significant stylistic change for Steely Dan, introducing a more minimal, groove and atmosphere-based format. The harmonically complex chord changes that were a distinctive mark of earlier Steely Dan songs are less prominent on Gaucho, with the record's songs tending to revolve around a single rhythm or mood, although complex chord progressions were still present particularly in "Babylon Sisters" and "Glamour Profession". Gaucho proved to be Steely Dan's final studio album before a 20-year hiatus from the recording industry.

***************

Steely Dan - Gaucho (1980) {1984, Japan 1st Press}

Steely Dan - Gaucho (1980) {1984, Japan 1st Press}

Track List:

01. Babylon Sisters [5:52]
02. Hey Nineteen [5:08]
03. Glamour Profession [7:30]
04. Gaucho [5:30]
05. Time Out Of Mind [4:13]
06. My Rival [4:33]
07. Third World Man [5:15]

Exact Audio Copy V1.0 beta 3 from 29. August 2011

Отчёт EAC об извлечении, выполненном 13. марта 2013, 13:06

Steely Dan / Gaucho [VDP-26]

Дисковод: TSSTcorpCDDVDW SH-224BB Adapter: 0 ID: 2

Режим чтения : Достоверность
Использование точного потока : Да
Отключение кэша аудио : Да
Использование указателей C2 : Нет

Коррекция смещения при чтении : 6
Способность читать области Lead-in и Lead-out : Нет
Заполнение пропущенных сэмплов тишиной : Да
Удаление блоков с тишиной в начале и конце : Нет
При вычислениях CRC использовались нулевые сэмплы : Да
Интерфейс : Встроенный Win32-интерфейс для Win NT/2000

Выходной формат : Пользовательский кодировщик
Выбранный битрейт : 128 kBit/s
Качество : Высокий
Добавление ID3-тега : Нет
Утилита сжатия : C:\Program Files\Exact Audio Copy\Flac\flac.exe
Дополнительные параметры : -V -8 -T "Date=%year%" -T "Genre=%genre%" %source%


TOC извлечённого CD

Трек | Старт | Длительность | Начальный сектор | Конечный сектор
––––––––––––––––––––––––––––––––––-
1 | 0:00.37 | 5:51.66 | 37 | 26427
2 | 5:52.28 | 5:07.73 | 26428 | 49525
3 | 11:00.26 | 7:29.41 | 49526 | 83241
4 | 18:29.67 | 5:30.24 | 83242 | 108015
5 | 24:00.16 | 4:12.72 | 108016 | 126987
6 | 28:13.13 | 4:32.59 | 126988 | 147446
7 | 32:45.72 | 5:15.03 | 147447 | 171074


Характеристики диапазона извлечения и сообщения об ошибках

Выбранный диапазон

Имя файла C:\Music\Steely Dan\1980 Gaucho\Steely Dan - Gaucho [VDP-26].wav

Пиковый уровень 100.0 %
Скорость извлечения 2.3 X
Качество диапазона 100.0 %
CRC теста A3675177
CRC копии A3675177
Копирование… OK

Ошибок не произошло


AccurateRip: сводка

Трек 1 : извлечено точно (доверие 2) [967BC40C] (AR v2)
Трек 2 : извлечено точно (доверие 2) [A17B7313] (AR v2)
Трек 3 : извлечено точно (доверие 2) [6939236F] (AR v2)
Трек 4 : извлечено точно (доверие 2) [E0D90B49] (AR v2)
Трек 5 : извлечено точно (доверие 2) [4C9A50ED] (AR v2)
Трек 6 : извлечено точно (доверие 2) [E24B4289] (AR v2)
Трек 7 : извлечено точно (доверие 2) [46DF399D] (AR v2)

Все треки извлечены точно

Конец отчёта

==== Контрольная сумма отчёта 55CCB0CE961A912415BED1C8CF44B4BA26859AE572448B76DD98603E6C9DBE0F ====

[CUETools log; Date: 08.01.2019 5:53:34; Version: 2.1.6]
Pregap length 00:00:37.
[CTDB TOCID: gTcflRoRYuI2lAHoKlQFwH4HwLI-] found.
Track | CTDB Status
1 | (4/4) Accurately ripped
2 | (4/4) Accurately ripped
3 | (4/4) Accurately ripped
4 | (4/4) Accurately ripped
5 | (4/4) Accurately ripped
6 | (4/4) Accurately ripped
7 | (4/4) Accurately ripped
[AccurateRip ID: 000ae037-0040a778-5708e907] found.
Track [ CRC | V2 ] Status
01 [eb41f8db|967bc40c] (0+6/6) Accurately ripped
02 [6f59e0de|a17b7313] (0+6/6) Accurately ripped
03 [3222f271|6939236f] (0+6/6) Accurately ripped
04 [332f438e|e0d90b49] (0+6/6) Accurately ripped
05 [53a1ac35|4c9a50ed] (0+6/6) Accurately ripped
06 [719214a4|e24b4289] (0+6/6) Accurately ripped
07 [879e7d2e|46df399d] (0+6/6) Accurately ripped

Track Peak [ CRC32 ] [W/O NULL] [ LOG ]
– 100,0 [A3675177] [34EC68F7] CRC32
01 100,0 [E8173C4F] [A91187E5]
02 100,0 [4AA177F7] [15C54E15]
03 100,0 [F7C12E14] [4A60535A]
04 97,8 [D9D10AB8] [331E9A7F]
05 99,3 [B86AADE6] [DE7F87C2]
06 100,0 [75F6DE5B] [4B1E3EFA]
07 96,1 [CDB7A50B] [6D7EE904]

Steely Dan - Gaucho (1980) {1984, Japan 1st Press}


All thanks go to ikebana

>>> Steely Dan in my Blog <<<

DOWNLOAD: