Subcategories

Stefano Battaglia Trio - Songways (2013) {ECM 2286} [Re-Up]

Posted By: tiburon
Stefano Battaglia Trio - Songways (2013) {ECM 2286} [Re-Up]

Stefano Battaglia Trio - Songways (2013) {ECM 2286}
EAC 1.0b3 | FLAC tracks level 8 | Cue+Log+M3U | Full Scans 300dpi | 406MB + 5% Recovery
Genre: Jazz

Italian pianist Stefano Battaglia and his trio develop directions established on their acclaimed 2011 release “The River of Anyder” with a new selection of chants, hymns and dances, all written by Battaglia and inspired by descriptions of visionary places from art and literature – from Alfred Kubin, Jonathan Swift or Charles Fourier to Italo Calvino. “Songways” finds “a new harmonic balance between archaic modal pre-tonal chant and dances, pure tonal songs and hymns and abstract texture,” Battgalia says, “thus documenting the natural development of the Trio life, with a larger space for action from the drums”.
Track List
01. Euphonia Elegy 12:11
02. Ismaro 5:09
03. Vondervotteimittis 7:22
04. Armonia 13:50
05. Mildendo Wide Song 6:08
06. Monte Analogo 6:51
07. Abdias 3:40
08. Songways 8:42
09. Perla 5:17
10. Babel Hymn 8:52

All compositions by Stephano Battaglia

musicians
Stefano Battaglia - piano
Salvatore Maiore - double bass
Roberto Dani - drums

Produced by Manfred Eicher


Exact Audio Copy V1.0 beta 3 from 29. August 2011

EAC extraction logfile from 30. January 2013, 21:52

Stefano Battaglia Trio / Songways [ECM 2286]

Used drive : PIONEER DVD-RW DVR-111D Adapter: 5 ID: 1

Read mode : Secure
Utilize accurate stream : Yes
Defeat audio cache : Yes
Make use of C2 pointers : No

Read offset correction : 48
Overread into Lead-In and Lead-Out : No
Fill up missing offset samples with silence : Yes
Delete leading and trailing silent blocks : No
Null samples used in CRC calculations : Yes
Used interface : Native Win32 interface for Win NT & 2000
Gap handling : Appended to previous track

Used output format : User Defined Encoder
Selected bitrate : 256 kBit/s
Quality : High
Add ID3 tag : No
Command line compressor : C:\Archivos de programa\Exact Audio Copy\FLAC\FLAC.EXE
Additional command line options : -8 -V -T "ARTIST=%artist%" -T "TITLE=%title%" -T "ALBUM=%albumtitle%" -T "DATE=%year%" -T "TRACKNUMBER=%tracknr%" -T "TOTALTRACKS=%numtracks%" -T "GENRE=%genre%" -T "ALBUMARTIST=%albumartist%" -T "ALBUM ARTIST=%albumartist%" -T "COMMENT=EAC Secure Mode, Test & Copy, AccurateRip, FLAC -8" %source%


TOC of the extracted CD

Track | Start | Length | Start sector | End sector
––––––––––––––––––––––––––––-
1 | 0:00.00 | 12:11.16 | 0 | 54840
2 | 12:11.16 | 5:09.29 | 54841 | 78044
3 | 17:20.45 | 7:22.65 | 78045 | 111259
4 | 24:43.35 | 13:50.35 | 111260 | 173544
5 | 38:33.70 | 6:09.38 | 173545 | 201257
6 | 44:43.33 | 6:51.59 | 201258 | 232141
7 | 51:35.17 | 3:40.70 | 232142 | 248711
8 | 55:16.12 | 8:42.49 | 248712 | 287910
9 | 63:58.61 | 5:17.32 | 287911 | 311717
10 | 69:16.18 | 8:52.05 | 311718 | 351622


Track 1

Filename D:\flac rips\01 - Euphonia Elegy.wav

Pre-gap length 0:00:02.00

Peak level 97.2 %
Extraction speed 5.7 X
Track quality 100.0 %
Test CRC 26C682A9
Copy CRC 26C682A9
Track not present in AccurateRip database
Copy OK

Track 2

Filename D:\flac rips\02 - Ismaro.wav

Peak level 76.8 %
Extraction speed 5.6 X
Track quality 99.9 %
Test CRC 1CE3C327
Copy CRC 1CE3C327
Track not present in AccurateRip database
Copy OK

Track 3

Filename D:\flac rips\03 - Vondervotteimittis.wav

Peak level 76.7 %
Extraction speed 6.4 X
Track quality 99.9 %
Test CRC 0B5ED935
Copy CRC 0B5ED935
Track not present in AccurateRip database
Copy OK

Track 4

Filename D:\flac rips\04 - Armonia.wav

Peak level 100.0 %
Extraction speed 8.0 X
Track quality 100.0 %
Test CRC 5E8707D2
Copy CRC 5E8707D2
Track not present in AccurateRip database
Copy OK

Track 5

Filename D:\flac rips\05 - Mildendo Wide Song.wav

Peak level 87.4 %
Extraction speed 7.5 X
Track quality 99.9 %
Test CRC E2ADB890
Copy CRC E2ADB890
Track not present in AccurateRip database
Copy OK

Track 6

Filename D:\flac rips\06 - Monte Analogo.wav

Peak level 96.7 %
Extraction speed 8.6 X
Track quality 100.0 %
Test CRC C9E5D2BF
Copy CRC C9E5D2BF
Track not present in AccurateRip database
Copy OK

Track 7

Filename D:\flac rips\07 - Abdias.wav

Peak level 60.7 %
Extraction speed 8.2 X
Track quality 100.0 %
Test CRC 199F505C
Copy CRC 199F505C
Track not present in AccurateRip database
Copy OK

Track 8

Filename D:\flac rips\08 - Songways.wav

Peak level 99.9 %
Extraction speed 8.0 X
Track quality 100.0 %
Test CRC 3200CE4B
Copy CRC 3200CE4B
Track not present in AccurateRip database
Copy OK

Track 9

Filename D:\flac rips\09 - Perla.wav

Peak level 86.1 %
Extraction speed 5.6 X
Track quality 100.0 %
Test CRC 81290D4C
Copy CRC 81290D4C
Track not present in AccurateRip database
Copy OK

Track 10

Filename D:\flac rips\10 - Babel Hymn.wav

Peak level 97.0 %
Extraction speed 4.4 X
Track quality 100.0 %
Test CRC 48891FAC
Copy CRC 48891FAC
Track not present in AccurateRip database
Copy OK


None of the tracks are present in the AccurateRip database

No errors occurred

End of status report

==== Log checksum FFD600B671E5C664647177A3C272E2A432D17DC86FAB2570C1F9CBFA44C178BF ====


––––––––––––––––––––––––––––––––––––––––
Analyzed: Stefano Battaglia Trio / Songways [ECM 2286]
––––––––––––––––––––––––––––––––––––––––

DR Peak RMS Duration Track
––––––––––––––––––––––––––––––––––––––––
DR11 -0.24 dB -15.38 dB 12:11 01-Euphonia Elegy
DR12 -2.29 dB -17.78 dB 5:09 02-Ismaro
DR13 -2.30 dB -19.06 dB 7:23 03-Vondervotteimittis
DR13 0.00 dB -16.89 dB 13:50 04-Armonia
DR14 -1.16 dB -18.48 dB 6:10 05-Mildendo Wide Song
DR13 -0.29 dB -17.09 dB 6:52 06-Monte Analogo
DR14 -4.32 dB -24.98 dB 3:41 07-Abdias
DR14 -0.01 dB -17.32 dB 8:43 08-Songways
DR14 -1.30 dB -19.39 dB 5:17 09-Perla
DR14 -0.26 dB -17.37 dB 8:52 10-Babel Hymn
––––––––––––––––––––––––––––––––––––––––

Number of tracks: 10
Official DR value: DR13

Samplerate: 44100 Hz
Channels: 2
Bits per sample: 16
Bitrate: 673 kbps
Codec: FLAC
================================================================================

Stefano Battaglia Trio - Songways (2013) {ECM 2286} [Re-Up]
Stefano Battaglia Trio - Songways (2013) {ECM 2286} [Re-Up]
Stefano Battaglia Trio - Songways (2013) {ECM 2286} [Re-Up]


Rip by jlgt