Subcategories

Stefano Bollani - Carioca (2008)

Posted By: tiburon
Stefano Bollani - Carioca (2008)

Stefano Bollani - Carioca (2008)
EAC 0.99pb4 | FLAC tracks level 8 | Cue+Log+M3U | Full Scans 300dpi | 357MB + 5% Recovery
Genre: Jazz, Latin Jazz, Post-Bop

Bollani is no stranger to Brazilian music, having previously recorded an entire album of Jobim's music, Falando do Amor (Venus Jazz, 2003) and the enthusiasm and panache of his playing here reveals an obvious love for, and affinity with the music. The choro and samba which spawned bossa is represented here in all its diversity, and Afro-Cuban rhythms, tango and European styles which have all shaped the development of music in Brazil, color the material on Carioca.
Track List
01. Luz Negra 5:00
02. Ao Romper Da Aurora 1:44
03. Choro Sim 2:19
04. Valsa Brasileira 4:41
05. A Voz Do Morro 4:14
06. A Hora Da Razao 3:52
07. Segura Ele 1:57
08. Doce De Coco 3:21
09. Folhas Secas 5:06
10. Il Domatore Di Pulci 3:19
11. Samba E Amor 4:18
12. Tico Tico Na Fuba 3:20
13. Caprichos Do Destino 4:23
14. Na Baixa Do Sapateiro 8:58
15. Apanhei-Te Cavaquinho 5:54
16. Trem Das Onze / Figloi Unico 5:29

musicians
Stefano Bollani - piano, vocal on track 16
Marco Pereira - guitar
Jorge Helder - bass
Jurim Moreira - drums
Armando Marcal - percussion
Ze Nogueira - soprano sax
Nico Gori - clarinet, bass clarinet
Mirko Guerrini - tenor sax
Ze Renato - vocal on track 6
Monica Salmaso - vocal on track 9

Produced by Alberto Riva and Ze Nogueira


Exact Audio Copy V0.99 prebeta 4 from 23. January 2008

EAC extraction logfile from 23. September 2008, 0:37

Stefano Bollani / Carioca

Used drive : PLEXTOR CD-R PREMIUM2 Adapter: 1 ID: 1

Read mode : Secure
Utilize accurate stream : Yes
Defeat audio cache : Yes
Make use of C2 pointers : No

Read offset correction : 30
Overread into Lead-In and Lead-Out : No
Fill up missing offset samples with silence : Yes
Delete leading and trailing silent blocks : No
Null samples used in CRC calculations : Yes
Used interface : Installed external ASPI interface
Gap handling : Appended to previous track

Used output format : User Defined Encoder
Selected bitrate : 32 kBit/s
Quality : High
Add ID3 tag : No
Command line compressor : C:\Programmi\FLAC\flac.exe
Additional command line options : -8 -V -T "ARTIST=%a" -T "TITLE=%t" -T "ALBUM=%g" -T "DATE=%y" -T "TRACKNUMBER=%n" -T "GENRE=%m" -T "COMMENT=EAC FLAC -8" %s


TOC of the extracted CD

Track | Start | Length | Start sector | End sector
––––––––––––––––––––––––––––-
1 | 0:00.00 | 5:02.68 | 0 | 22717
2 | 5:02.68 | 1:44.24 | 22718 | 30541
3 | 6:47.17 | 2:21.46 | 30542 | 41162
4 | 9:08.63 | 4:44.19 | 41163 | 62481
5 | 13:53.07 | 4:17.21 | 62482 | 81777
6 | 18:10.28 | 3:55.01 | 81778 | 99403
7 | 22:05.29 | 1:59.74 | 99404 | 108402
8 | 24:05.28 | 3:24.37 | 108403 | 123739
9 | 27:29.65 | 5:08.18 | 123740 | 146857
10 | 32:38.08 | 3:22.25 | 146858 | 162032
11 | 36:00.33 | 4:20.20 | 162033 | 181552
12 | 40:20.53 | 3:22.40 | 181553 | 196742
13 | 43:43.18 | 4:25.53 | 196743 | 216670
14 | 48:08.71 | 8:59.45 | 216671 | 257140
15 | 57:08.41 | 5:56.35 | 257141 | 283875
16 | 63:05.01 | 5:29.54 | 283876 | 308604


Track 1

Filename C:\My Rip\01 - Luz Negra.wav

Pre-gap length 0:00:02.00

Peak level 99.7 %
Track quality 100.0 %
Test CRC BDB963E5
Copy CRC BDB963E5
Track not present in AccurateRip database
Copy OK

Track 2

Filename C:\My Rip\02 - Ao Romper Da Aurora.wav

Pre-gap length 0:00:02.44

Peak level 99.8 %
Track quality 100.0 %
Test CRC DC069996
Copy CRC DC069996
Track not present in AccurateRip database
Copy OK

Track 3

Filename C:\My Rip\03 - Choro Sim.wav

Peak level 99.8 %
Track quality 100.0 %
Test CRC D905AF25
Copy CRC D905AF25
Track not present in AccurateRip database
Copy OK

Track 4

Filename C:\My Rip\04 - Valsa Brasileira.wav

Pre-gap length 0:00:02.12

Peak level 98.9 %
Track quality 99.9 %
Test CRC 8B7AFBCB
Copy CRC 8B7AFBCB
Track not present in AccurateRip database
Copy OK

Track 5

Filename C:\My Rip\05 - A Voz Do Morro.wav

Pre-gap length 0:00:02.40

Peak level 99.8 %
Track quality 100.0 %
Test CRC 4DD93D4D
Copy CRC 4DD93D4D
Track not present in AccurateRip database
Copy OK

Track 6

Filename C:\My Rip\06 - A Hora Da Razao.wav

Pre-gap length 0:00:02.44

Peak level 99.8 %
Track quality 100.0 %
Test CRC 3538B9F1
Copy CRC 3538B9F1
Track not present in AccurateRip database
Copy OK

Track 7

Filename C:\My Rip\07 - Segura Ele.wav

Pre-gap length 0:00:02.82

Peak level 99.8 %
Track quality 100.0 %
Test CRC 866E7040
Copy CRC 866E7040
Track not present in AccurateRip database
Copy OK

Track 8

Filename C:\My Rip\08 - Doce De Coco.wav

Pre-gap length 0:00:02.86

Peak level 99.6 %
Track quality 100.0 %
Test CRC F3DB2202
Copy CRC F3DB2202
Track not present in AccurateRip database
Copy OK

Track 9

Filename C:\My Rip\09 - Folhas Secas.wav

Pre-gap length 0:00:02.70

Peak level 79.2 %
Track quality 100.0 %
Test CRC 47FB2CB8
Copy CRC 47FB2CB8
Track not present in AccurateRip database
Copy OK

Track 10

Filename C:\My Rip\10 - Il Domatore Di Pulci.wav

Pre-gap length 0:00:01.97

Peak level 99.8 %
Track quality 100.0 %
Test CRC C7965C08
Copy CRC C7965C08
Track not present in AccurateRip database
Copy OK

Track 11

Filename C:\My Rip\11 - Samba E Amor.wav

Pre-gap length 0:00:02.36

Peak level 99.8 %
Track quality 100.0 %
Test CRC 5B45D95E
Copy CRC 5B45D95E
Track not present in AccurateRip database
Copy OK

Track 12

Filename C:\My Rip\12 - Tico Tico Na Fuba.wav

Pre-gap length 0:00:01.65

Peak level 99.8 %
Track quality 100.0 %
Test CRC 3C0CF69E
Copy CRC 3C0CF69E
Track not present in AccurateRip database
Copy OK

Track 13

Filename C:\My Rip\13 - Caprichos Do Destino.wav

Pre-gap length 0:00:02.09

Peak level 93.2 %
Track quality 100.0 %
Test CRC B6E6B4FC
Copy CRC B6E6B4FC
Track not present in AccurateRip database
Copy OK

Track 14

Filename C:\My Rip\14 - Na Baixa Do Sapateiro.wav

Pre-gap length 0:00:01.84

Peak level 99.8 %
Track quality 99.9 %
Test CRC AEDAC771
Copy CRC AEDAC771
Track not present in AccurateRip database
Copy OK

Track 15

Filename C:\My Rip\15 - Apanhei-Te Cavaquinho.wav

Pre-gap length 0:00:01.58

Peak level 99.7 %
Track quality 100.0 %
Test CRC 6F83FEFC
Copy CRC 6F83FEFC
Track not present in AccurateRip database
Copy OK

Track 16

Filename C:\My Rip\16 - Trem Das Onze.wav

Pre-gap length 0:00:02.21

Peak level 99.7 %
Track quality 99.9 %
Test CRC 4B35D3A8
Copy CRC 4B35D3A8
Track not present in AccurateRip database
Copy OK


None of the tracks are present in the AccurateRip database

No errors occurred

End of status report


––––––––––––––––––––––––––––––––––––––––
Analyzed: Stefano Bollani / Carioca
––––––––––––––––––––––––––––––––––––––––

DR Peak RMS Duration Track
––––––––––––––––––––––––––––––––––––––––
DR9 -0.02 dB -11.69 dB 5:03 01-Luz Negra
DR12 -0.02 dB -14.64 dB 1:44 02-Ao Romper Da Aurora
DR8 -0.02 dB -9.46 dB 2:22 03-Choro Sim
DR11 -0.09 dB -13.87 dB 4:44 04-Valsa Brasileira
DR9 -0.02 dB -11.62 dB 4:17 05-A Voz Do Morro
DR8 -0.02 dB -10.51 dB 3:55 06-A Hora Da Razao
DR7 -0.02 dB -9.24 dB 2:00 07-Segura Ele
DR12 -0.03 dB -14.18 dB 3:24 08-Doce De Coco
DR10 -2.02 dB -15.24 dB 5:08 09-Folhas Secas
DR9 -0.02 dB -10.41 dB 3:22 10-Il Domatore Di Pulci
DR9 -0.02 dB -11.29 dB 4:20 11-Samba E Amor
DR8 -0.02 dB -10.79 dB 3:23 12-Tico Tico Na Fuba
DR12 -0.61 dB -15.78 dB 4:26 13-Caprichos Do Destino
DR11 -0.02 dB -13.87 dB 9:00 14-Na Baixa Do Sapateiro
DR13 -0.02 dB -17.38 dB 5:56 15-Apanhei-Te Cavaquinho
DR9 -0.02 dB -12.67 dB 5:30 16-Trem Das Onze
––––––––––––––––––––––––––––––––––––––––

Number of tracks: 16
Official DR value: DR10

Samplerate: 44100 Hz
Channels: 2
Bits per sample: 16
Bitrate: 669 kbps
Codec: FLAC
================================================================================

Stefano Bollani - Carioca (2008)
Stefano Bollani - Carioca (2008)
Stefano Bollani - Carioca (2008)


Rip by Sarchiapone