Subcategories

Stephan Micus - Desert Poems (2001) {ECM 1757} [Repost]

Posted By: tiburon
Stephan Micus - Desert Poems (2001) {ECM 1757} [Repost]

Stephan Micus - Desert Poems (2001) {ECM 1757}
EAC 0.95b3 | FLAC Image level 8 | Cue+Log | Full Scans 600dpi | 265MB + 5% Recovery
Genre: World Fusion, Ethnic, Minimalism

Before there was world music, there was Stephan Micus, playing instruments from Afghanistan, India, and Indonesia. But ever since his first album (released in 1976) the German composer has not been making world music but other – worldly music. He plays ethnic instruments in nontraditional ways, multitracking them in layered arrangements and creating meditative excursions. Stephan Micus isn’t pan-cultural but transcends culture with music that’s innocent but not naive.
Track List
01. The Horses Of Nizami 3:36
02. Adela 5:43
03. Night 2:48
04. Mikhail's Dream 8:20
05. First Snow 4:57
06. Thirteen Eagles 5:35
07. Contessa Entellina 4:29
08. Shen Khar Venakhi 2:44
09. For Yuko 8:11

Stephan Micus - sarangi, dondon, dilruba, doussn'gouni, kalimba, sinding, steel drums, shakuhachi, nay, sattar, flowerpots, voice


EAC extraction logfile from 30. January 2006, 20:46 for CD
STEPHAN MiCUS / Desert Poems

Used drive : HL-DT-STDVDRAM GSA-4120B Adapter: 3 ID: 0
Read mode : Secure with NO C2, accurate stream, disable cache
Read offset correction : 667
Overread into Lead-In and Lead-Out : No

Used output format : C:\Program Files\EAC\flac.exe (User Defined Encoder)
320 kBit/s
Additional command line options : -8 -V –replay-gain -T=artist="%a" -T=title="%t" -T=album="%g" -T=date="%y" -T=tracknumber="%n" -T=genre="%m" -T=comment="EAC V0.95 beta 3 / FLAC v1.1.2 -q8" %s

Other options :
Fill up missing offset samples with silence : Yes
Delete leading and trailing silent blocks : No
Installed external ASPI interface


Range status and errors
Selected range
Filename D:\Temp\CDExt\CDImage.flac.wav

Peak level 100.0 %
Range quality 100.0 %
CRC 207B2412
Copy OK

No errors occured

End of status report


––––––––––––––––––––––––––––––––––––––––
Analyzed: Stephan Micus / Desert Poems
––––––––––––––––––––––––––––––––––––––––

DR Peak RMS Duration Track
––––––––––––––––––––––––––––––––––––––––
DR11 0.00 dB -15.41 dB 3:41 01-The Horses of Nizami (Sarangi, 5 Dondon, 23 Voices)
DR10 0.00 dB -14.16 dB 5:51 02-Adela (22 Dilruba)
DR14 -3.63 dB -22.92 dB 2:54 03-Night (Doussn' Gouni Solo)
DR12 -0.22 dB -17.88 dB 8:26 04-Mikhail's Dream (2 Kalimba, Voice, Sinding, 2 Steel Drums, Percussion)
DR10 -4.10 dB -21.34 dB 5:06 05-First Snow (Shakuhachi Solo)
DR11 -0.55 dB -16.50 dB 5:40 06-Thirteen Eagles (Doussn' Gouni, 20 Nay)
DR13 -2.53 dB -24.14 dB 4:35 07-Contessa Entellina (Voice Solo)
DR13 -4.96 dB -22.30 dB 2:52 08-Shen Khar Venakhi (6 Dilruba, 6 Sattar)
DR13 -0.71 dB -20.25 dB 8:17 09-For Yuko (2 Flowerpots, 8 Voices, Shakuhachi)
––––––––––––––––––––––––––––––––––––––––

Number of tracks: 9
Official DR value: DR12

Samplerate: 44100 Hz
Channels: 2
Bits per sample: 16
Bitrate: 601 kbps
Codec: FLAC
================================================================================

Stephan Micus - Desert Poems (2001) {ECM 1757} [Repost]
Stephan Micus - Desert Poems (2001) {ECM 1757} [Repost]
Stephan Micus - Desert Poems (2001) {ECM 1757} [Repost]


Rip by opusv