Tags
Language
Tags

Stephane Grappelli - Improvisations (1957) [Reissue 2000]

Posted By: gribovar
Stephane Grappelli - Improvisations (1957) [Reissue 2000]

Stephane Grappelli - Improvisations (1957) [Reissue 2000]
EAC Rip | FLAC (tracks+.cue+log) - 258 MB | Covers - 45 MB
Genre: Jazz, Swing | RAR 3% Rec. | Label: Universal Music (549 242-2)

This is the first of Stephane Grappelli's sessions as a leader during the 1950s to be issued on CD, which is rather surprising given the availability of his work from the last two decades of his life. Grappelli is heard exclusively in a quartet with pianist Maurice Vander, bassist Pierre Michelot, and drummer Baptiste Reilles, except for two takes of "Someone to Watch Over Me," when Vander makes an ill-advised switch to harpsichord. The violinist is not nearly as aggressive as he would become in the decades to follow, seemingly concentrating more on achieving a beautiful tone than dazzling listeners with his considerable abilities as an improviser. Most of the material recorded during these three dates remained in his repertoire for the remainder of his career; with up-tempo selections like "The Lady Is a Tramp" and "'S Wonderful" getting the nod over most of the ballad interpretations. One surprise is the inclusion of Alec Wilder's "I'll Be Around" (listed as previously unreleased but it appeared on a later Barclay LP following the original issue); this may be Grappelli's only recording of this lovely standard. Although this isn't an essential CD for swing fans, the reappearance of this once hard to find music will be welcomed by fans of Stephane Grappelli.
Tracklist:
01. The Lady Is A Tramp
02. Fascinatin' Rhythm
03. Dans La Vie
04. Cheek To Cheek
05. A Nightingale Sang In Berkeley Square
06. Taking A Chance On Love
07. 'S Wonderful
08. Someone To Watch Over Me
09. If I Had You
10. Body And Soul
11. I Want To Be Happy
12. She's Funny That Way
13. Time After Time
14. Just One Of Those Things
15. Slow En Ré Majeur (I'll Be Around)
16. Taking A Chance On Love
17. Someone To Watch Over Me

Total time: 50:44

Exact Audio Copy V1.0 beta 1 from 15. November 2010

EAC extraction logfile from 28. November 2011, 14:44

Stephane Grappelli / Improvisations

Used drive : HL-DT-STDVD+-RW GSA-T21N Adapter: 0 ID: 0

Read mode : Secure
Utilize accurate stream : Yes
Defeat audio cache : Yes
Make use of C2 pointers : No

Read offset correction : 667
Overread into Lead-In and Lead-Out : No
Fill up missing offset samples with silence : Yes
Delete leading and trailing silent blocks : No
Null samples used in CRC calculations : Yes
Used interface : Native Win32 interface for Win NT & 2000
Gap handling : Appended to previous track

Used output format : User Defined Encoder
Selected bitrate : 896 kBit/s
Quality : High
Add ID3 tag : No
Command line compressor : C:\Program Files\Audio\Exact Audio Copy\Flac\flac.exe
Additional command line options : -8 -V -T "ARTIST=%a" -T "TITLE=%t" -T "ALBUM=%g" -T "DATE=%y" -T "TRACKNUMBER=%n" -T "TOTALTRACKS=%x" -T "GENRE=%m" -T "ALBUMARTIST=%v" -T "ALBUM ARTIST=%v" -T "COMMENT=EAC Secure Mode, Test & Copy, AccurateRip, FLAC -8" %s


TOC of the extracted CD

Track | Start | Length | Start sector | End sector
––––––––––––––––––––––––––––-
1 | 0:00.00 | 3:05.59 | 0 | 13933
2 | 3:05.59 | 2:55.00 | 13934 | 27058
3 | 6:00.59 | 3:54.55 | 27059 | 44663
4 | 9:55.39 | 3:10.31 | 44664 | 58944
5 | 13:05.70 | 3:11.19 | 58945 | 73288
6 | 16:17.14 | 3:02.29 | 73289 | 86967
7 | 19:19.43 | 2:30.67 | 86968 | 98284
8 | 21:50.35 | 2:58.34 | 98285 | 111668
9 | 24:48.69 | 3:20.20 | 111669 | 126688
10 | 28:09.14 | 2:35.17 | 126689 | 138330
11 | 30:44.31 | 2:14.21 | 138331 | 148401
12 | 32:58.52 | 2:29.34 | 148402 | 159610
13 | 35:28.11 | 2:44.03 | 159611 | 171913
14 | 38:12.14 | 2:30.45 | 171914 | 183208
15 | 40:42.59 | 4:01.40 | 183209 | 201323
16 | 44:44.24 | 3:02.01 | 201324 | 214974
17 | 47:46.25 | 2:57.47 | 214975 | 228296


Track 1

Filename F:\JAZZ IN PARIS\Stephane Grappelli - Improvisations (1956) [FLAC] {Gitanes 549 242-2}\01 - The Lady Is A Tramp.wav

Pre-gap length 0:00:02.00

Peak level 91.2 %
Extraction speed 2.8 X
Track quality 100.0 %
Test CRC 183060CA
Copy CRC 183060CA
Accurately ripped (confidence 3) [AAC572E1]
Copy OK

Track 2

Filename F:\JAZZ IN PARIS\Stephane Grappelli - Improvisations (1956) [FLAC] {Gitanes 549 242-2}\02 - Fascinatin' Rhythm.wav

Pre-gap length 0:00:01.45

Peak level 69.3 %
Extraction speed 2.3 X
Track quality 99.9 %
Test CRC 570ED405
Copy CRC 570ED405
Accurately ripped (confidence 3) [5CAE2209]
Copy OK

Track 3

Filename F:\JAZZ IN PARIS\Stephane Grappelli - Improvisations (1956) [FLAC] {Gitanes 549 242-2}\03 - Dans La Vie.wav

Pre-gap length 0:00:01.45

Peak level 63.1 %
Extraction speed 3.3 X
Track quality 100.0 %
Test CRC 45487080
Copy CRC 45487080
Accurately ripped (confidence 3) [FFDB3FA0]
Copy OK

Track 4

Filename F:\JAZZ IN PARIS\Stephane Grappelli - Improvisations (1956) [FLAC] {Gitanes 549 242-2}\04 - Cheek To Cheek.wav

Pre-gap length 0:00:01.45

Peak level 76.4 %
Extraction speed 3.5 X
Track quality 100.0 %
Test CRC 62D2F1E8
Copy CRC 62D2F1E8
Accurately ripped (confidence 3) [3AC66DA8]
Copy OK

Track 5

Filename F:\JAZZ IN PARIS\Stephane Grappelli - Improvisations (1956) [FLAC] {Gitanes 549 242-2}\05 - A Nightingale Sang In Berkeley Square.wav

Pre-gap length 0:00:01.45

Peak level 85.1 %
Extraction speed 2.9 X
Track quality 99.9 %
Test CRC B7F1E885
Copy CRC B7F1E885
Accurately ripped (confidence 3) [5887D5C1]
Copy OK

Track 6

Filename F:\JAZZ IN PARIS\Stephane Grappelli - Improvisations (1956) [FLAC] {Gitanes 549 242-2}\06 - Taking A Chance On Love.wav

Pre-gap length 0:00:01.46

Peak level 90.1 %
Extraction speed 3.8 X
Track quality 100.0 %
Test CRC 5DDD56AE
Copy CRC 5DDD56AE
Accurately ripped (confidence 3) [66077B33]
Copy OK

Track 7

Filename F:\JAZZ IN PARIS\Stephane Grappelli - Improvisations (1956) [FLAC] {Gitanes 549 242-2}\07 - 'S Wonderful.wav

Pre-gap length 0:00:01.45

Peak level 75.6 %
Extraction speed 3.8 X
Track quality 100.0 %
Test CRC CDCEE3DE
Copy CRC CDCEE3DE
Accurately ripped (confidence 3) [AEBFC883]
Copy OK

Track 8

Filename F:\JAZZ IN PARIS\Stephane Grappelli - Improvisations (1956) [FLAC] {Gitanes 549 242-2}\08 - Someone To Watch Over Me.wav

Pre-gap length 0:00:01.45

Peak level 82.1 %
Extraction speed 4.1 X
Track quality 100.0 %
Test CRC A925D847
Copy CRC A925D847
Accurately ripped (confidence 3) [A41EBFF1]
Copy OK

Track 9

Filename F:\JAZZ IN PARIS\Stephane Grappelli - Improvisations (1956) [FLAC] {Gitanes 549 242-2}\09 - If I Had You.wav

Pre-gap length 0:00:01.45

Peak level 80.6 %
Extraction speed 4.3 X
Track quality 100.0 %
Test CRC 30E72F28
Copy CRC 30E72F28
Accurately ripped (confidence 3) [7F8415C6]
Copy OK

Track 10

Filename F:\JAZZ IN PARIS\Stephane Grappelli - Improvisations (1956) [FLAC] {Gitanes 549 242-2}\10 - Body And Soul.wav

Pre-gap length 0:00:01.45

Peak level 72.1 %
Extraction speed 4.3 X
Track quality 100.0 %
Test CRC FC8D6A2E
Copy CRC FC8D6A2E
Accurately ripped (confidence 3) [D71CA1F5]
Copy OK

Track 11

Filename F:\JAZZ IN PARIS\Stephane Grappelli - Improvisations (1956) [FLAC] {Gitanes 549 242-2}\11 - I Want To Be Happy.wav

Pre-gap length 0:00:01.45

Peak level 90.1 %
Extraction speed 4.2 X
Track quality 100.0 %
Test CRC CDEDA5AF
Copy CRC CDEDA5AF
Accurately ripped (confidence 3) [A60A982B]
Copy OK

Track 12

Filename F:\JAZZ IN PARIS\Stephane Grappelli - Improvisations (1956) [FLAC] {Gitanes 549 242-2}\12 - She's Funny That Way.wav

Pre-gap length 0:00:01.45

Peak level 77.8 %
Extraction speed 4.4 X
Track quality 100.0 %
Test CRC 70143D2B
Copy CRC 70143D2B
Accurately ripped (confidence 3) [0C6F294E]
Copy OK

Track 13

Filename F:\JAZZ IN PARIS\Stephane Grappelli - Improvisations (1956) [FLAC] {Gitanes 549 242-2}\13 - Time After Time.wav

Pre-gap length 0:00:01.45

Peak level 62.0 %
Extraction speed 3.5 X
Track quality 99.9 %
Test CRC CAFF2FD9
Copy CRC CAFF2FD9
Accurately ripped (confidence 3) [FD1E3D83]
Copy OK

Track 14

Filename F:\JAZZ IN PARIS\Stephane Grappelli - Improvisations (1956) [FLAC] {Gitanes 549 242-2}\14 - Just One Of Those Things.wav

Pre-gap length 0:00:01.45

Peak level 73.8 %
Extraction speed 4.5 X
Track quality 100.0 %
Test CRC B4714E92
Copy CRC B4714E92
Accurately ripped (confidence 3) [A67DF43E]
Copy OK

Track 15

Filename F:\JAZZ IN PARIS\Stephane Grappelli - Improvisations (1956) [FLAC] {Gitanes 549 242-2}\15 - Slow en re majeur (I'll Be Around).wav

Pre-gap length 0:00:01.45

Peak level 81.6 %
Extraction speed 5.2 X
Track quality 100.0 %
Test CRC 90646D2F
Copy CRC 90646D2F
Accurately ripped (confidence 3) [DC5224E5]
Copy OK

Track 16

Filename F:\JAZZ IN PARIS\Stephane Grappelli - Improvisations (1956) [FLAC] {Gitanes 549 242-2}\16 - Taking A Chance On Love (2).wav

Pre-gap length 0:00:01.45

Peak level 86.2 %
Extraction speed 5.1 X
Track quality 100.0 %
Test CRC F336B0B3
Copy CRC F336B0B3
Accurately ripped (confidence 3) [C8E6EED8]
Copy OK

Track 17

Filename F:\JAZZ IN PARIS\Stephane Grappelli - Improvisations (1956) [FLAC] {Gitanes 549 242-2}\17 - Someone To Watch Over Me (2).wav

Pre-gap length 0:00:01.45

Peak level 73.1 %
Extraction speed 5.1 X
Track quality 100.0 %
Test CRC 328FC404
Copy CRC 328FC404
Accurately ripped (confidence 3) [EE6F146B]
Copy OK


All tracks accurately ripped

No errors occurred

End of status report

==== Log checksum 4EE717D2FDF4B1A3D61EDE2F978B72B655A4ACC0B314C09328E830AC0D7A58EA ====

[CUETools log; Date: 09.05.2018 14:29:48; Version: 2.1.4]
[CTDB TOCID: NWeL6lg_Zy.Wwtvj2cjVGMn6L2s-] found.
Track | CTDB Status
1 | (43/44) Accurately ripped
2 | (43/44) Accurately ripped
3 | (42/44) Accurately ripped
4 | (43/44) Accurately ripped
5 | (42/44) Accurately ripped
6 | (42/44) Accurately ripped
7 | (43/44) Accurately ripped
8 | (43/44) Accurately ripped
9 | (43/44) Accurately ripped
10 | (43/44) Accurately ripped
11 | (42/44) Accurately ripped
12 | (43/44) Accurately ripped
13 | (43/44) Accurately ripped
14 | (43/44) Accurately ripped
15 | (42/44) Accurately ripped
16 | (43/44) Accurately ripped
17 | (44/44) Accurately ripped
[AccurateRip ID: 001fda8d-018fe16c-090be311] found.
Track [ CRC | V2 ] Status
01 [aac572e1|b619a6a2] (03+07/41) Accurately ripped
02 [5cae2209|e07841b6] (03+07/41) Accurately ripped
03 [ffdb3fa0|67557515] (03+07/41) Accurately ripped
04 [3ac66da8|2dad6b66] (03+07/41) Accurately ripped
05 [5887d5c1|48de3657] (03+07/41) Accurately ripped
06 [66077b33|4b55120f] (03+07/40) Accurately ripped
07 [aebfc883|773d293d] (03+07/40) Accurately ripped
08 [a41ebff1|91544262] (03+07/41) Accurately ripped
09 [7f8415c6|cb7e002c] (03+07/41) Accurately ripped
10 [d71ca1f5|1e47268e] (03+07/41) Accurately ripped
11 [a60a982b|8d7f7aa2] (03+07/41) Accurately ripped
12 [0c6f294e|c4d4138f] (03+07/41) Accurately ripped
13 [fd1e3d83|cf6f9c91] (03+07/41) Accurately ripped
14 [a67df43e|da9251a3] (03+07/41) Accurately ripped
15 [dc5224e5|6f1b9ff5] (03+07/41) Accurately ripped
16 [c8e6eed8|0fd65050] (03+07/41) Accurately ripped
17 [ee6f146b|e059a5ba] (03+07/41) Accurately ripped
Offsetted by 635:
01 [7433c24f] (05/41) Accurately ripped
02 [085ad11a] (05/41) Accurately ripped
03 [ba8082c9] (05/41) Accurately ripped
04 [0c8df1dc] (05/41) Accurately ripped
05 [d5aec8de] (05/41) Accurately ripped
06 [c780df0f] (05/40) Accurately ripped
07 [f09ceaf7] (05/40) Accurately ripped
08 [c2399750] (05/41) Accurately ripped
09 [18c430d3] (05/41) Accurately ripped
10 [8f44df57] (05/41) Accurately ripped
11 [0a933109] (05/41) Accurately ripped
12 [1548923a] (05/41) Accurately ripped
13 [bfd9ba5f] (05/41) Accurately ripped
14 [af7ebf53] (05/41) Accurately ripped
15 [36440f59] (05/41) Accurately ripped
16 [5564ef60] (05/41) Accurately ripped
17 [b4e49336] (05/41) Accurately ripped
Offsetted by 670:
01 [44d9154d] (08/41) Accurately ripped
02 [a8ff8c23] (08/41) Accurately ripped
03 [7428dd2a] (08/41) Accurately ripped
04 [80ef9e70] (08/41) Accurately ripped
05 [ce787d93] (08/41) Accurately ripped
06 [e510a20b] (08/40) Accurately ripped
07 [bbcd63cb] (08/40) Accurately ripped
08 [9585a737] (08/41) Accurately ripped
09 [fcee05f8] (08/41) Accurately ripped
10 [f828daa9] (08/41) Accurately ripped
11 [7efb79f7] (08/41) Accurately ripped
12 [584a79c6] (08/41) Accurately ripped
13 [41834e5b] (08/41) Accurately ripped
14 [a7eda840] (08/41) Accurately ripped
15 [b227102d] (08/41) Accurately ripped
16 [4d030fa8] (08/41) Accurately ripped
17 [4cef1529] (08/41) Accurately ripped
Offsetted by 912:
01 [1aaf4481] (00/41) No match (V2 was not tested)
02 [6d728ab9] (00/41) No match (V2 was not tested)
03 [534730d0] (00/41) No match (V2 was not tested)
04 [e775b568] (00/41) No match (V2 was not tested)
05 [cfcde2b1] (00/41) No match (V2 was not tested)
06 [85938e73] (00/40) No match (V2 was not tested)
07 [e8411c43] (00/40) No match (V2 was not tested)
08 [67bf7441] (00/41) No match (V2 was not tested)
09 [7e49c7b6] (00/41) No match (V2 was not tested)
10 [6e512f55] (00/41) No match (V2 was not tested)
11 [5ab696cb] (00/41) No match (V2 was not tested)
12 [c883878e] (00/41) No match (V2 was not tested)
13 [371080c3] (00/41) No match (V2 was not tested)
14 [1bd693ae] (00/41) No match (V2 was not tested)
15 [7fc4f8a5] (00/41) No match (V2 was not tested)
16 [304fb458] (00/41) No match (V2 was not tested)
17 [9b639efb] (00/41) No match (V2 was not tested)

Track Peak [ CRC32 ] [W/O NULL] [ LOG ]
– 91,2 [8ACFA5F6] [AEC1266B]
01 91,2 [183060CA] [9A6BDB9B] CRC32
02 69,3 [570ED405] [EFCC1526] CRC32
03 63,1 [45487080] [678746D9] CRC32
04 76,4 [62D2F1E8] [ADC43862] CRC32
05 85,1 [B7F1E885] [A7429BCB] CRC32
06 90,1 [5DDD56AE] [5543BB1A] CRC32
07 75,6 [CDCEE3DE] [8A8670B2] CRC32
08 82,1 [A925D847] [88033961] CRC32
09 80,6 [30E72F28] [C06B19B5] CRC32
10 72,1 [FC8D6A2E] [6EDBC8CC] CRC32
11 90,1 [CDEDA5AF] [E15563BA] CRC32
12 77,8 [70143D2B] [3EFC41CE] CRC32
13 62,0 [CAFF2FD9] [CE385FC5] CRC32
14 73,8 [B4714E92] [911C4796] CRC32
15 81,6 [90646D2F] [1B3D01B0] CRC32
16 86,2 [F336B0B3] [1B832B88] CRC32
17 73,0 [328FC404] [54513837] CRC32

Thanks to the original releaser

See also:
Oscar Peterson - Stephane Grap...ol. 1-2 [Recorded 1973] (2001)