Subcategories

Stephanie Moraly, Romain David - Charles Koechlin: Violin Sonata, Piano Quintet (2017) {Timpani}

Posted By: tiburon
Stephanie Moraly, Romain David - Charles Koechlin: Violin Sonata, Piano Quintet (2017) {Timpani}

Stephanie Moraly, Romain David - Charles Koechlin: Violin Sonata, Piano Quintet (2017) {Timpani}
EAC 1.3 | FLAC tracks level 8 | Cue+Log+M3U | Full Scans 300dpi | 285MB + 5% Recovery
MP3 CBR 320 Kbps | 189MB + 5% Recovery
Genre: Classical

Stéphanie Moraly débute le violon à l’âge de 6 ans et fait montre d’un talent précoce. Élève de Suzanne Gessner au CRR de Paris, elle remporte son premier concours à 10 ans et, à 11, donne son premier récital, obtient le Premier Prix du Concours Jeunes Prodiges Mozart et se produit en soliste aux Théâtres des Champs-Elysées et du Châtelet à Paris, ainsi qu’à Prague. A 16 ans, elle entre au Conservatoire de Paris dans la classe de Sylvie Gazeau, en sort avec un Premier Prix à 19, et part ensuite se perfectionner avec Michèle Auclair au New England Conservatory de Boston.
Track List
1. Sonate violon et piano, Op. 64 - I. Calme, sans lenteur cependant. Lumineux et féérique[04:45]
2. Sonate violon et piano, Op. 64 - II. Scherzo : Très modéré. Allegro con moto. Dans un décor de forêt légendaire[09:22]
3. Sonate violon et piano, Op. 64 - III. Andante : Lent (quasi adagio). Nocturne, grave et féérique[05:40]
4. Sonate violon et piano, Op. 64 - IV. Final : Allegro mais très modéré[13:01]
5. Quintette pour piano et cordes, Op. 80 - I. L'Attente obscure de ce qui sera. Andante très calme, presque adagio[09:20]
6. Quintette pour piano et cordes, Op. 80 - II. L'Assaut de l'adversaire, la blessure - Allegro con moto[10:18]
7. Quintette pour piano et cordes, Op. 80 - III. La Nature consolatrice - Andante quasi adagio[10:51]
8. Quintette pour piano et cordes, Op. 80 - IV. Final : La Joie - Allegro moderato[09:18]

musicians
Stephanie Moraly - violon
Roman David - piano
Quintette Syntonia


Exact Audio Copy V1.3 from 2. September 2016

EAC extraction logfile from 19. May 2018, 13:14

Quintette Syntonia / Sonate violon-piano, Quintette

Used drive : ATAPI iHBS112 2 Adapter: 1 ID: 2

Read mode : Secure
Utilize accurate stream : Yes
Defeat audio cache : Yes
Make use of C2 pointers : No

Read offset correction : 6
Overread into Lead-In and Lead-Out : No
Fill up missing offset samples with silence : Yes
Delete leading and trailing silent blocks : No
Null samples used in CRC calculations : Yes
Used interface : Native Win32 interface for Win NT & 2000
Gap handling : Appended to previous track

Used output format : User Defined Encoder
Selected bitrate : 768 kBit/s
Quality : High
Add ID3 tag : No
Command line compressor : C:\Program Files (x86)\Exact Audio Copy\FLAC\FLAC.EXE
Additional command line options : -8 -V -T "ARTIST=%artist%" -T "TITLE=%title%" -T "ALBUM=%albumtitle%" -T "DATE=%year%" -T "TRACKNUMBER=%tracknr%" -T "GENRE=%genre%" -T "PERFORMER=%albuminterpret%" -T "COMPOSER=%composer%" -T "ALBUMARTIST=%albumartist%" -T "DISCNUMBER=%cdnumber%" -T "TOTALDISCS=%totalcds%" -T "TOTALTRACKS=%numtracks%" -T "COMMENT=EAC Secure Mode, Test & Copy, AccurateRip, FLAC -8" %source% -o %dest%


TOC of the extracted CD

Track | Start | Length | Start sector | End sector
––––––––––––––––––––––––––––-
1 | 0:00.00 | 4:45.08 | 0 | 21382
2 | 4:45.08 | 9:22.70 | 21383 | 63602
3 | 14:08.03 | 5:40.51 | 63603 | 89153
4 | 19:48.54 | 13:01.21 | 89154 | 147749
5 | 32:50.00 | 9:20.73 | 147750 | 189822
6 | 42:10.73 | 10:18.19 | 189823 | 236191
7 | 52:29.17 | 10:51.60 | 236192 | 285076
8 | 63:21.02 | 9:18.72 | 285077 | 326998


Track 1

Filename G:\DL\Charles Koechlin - Violin Sonata, Piano Quintet (2017) [FLAC]\01 - Sonate violon et piano, Op. 64 - I. Calme, sans lenteur cependant.wav

Pre-gap length 0:00:02.00

Peak level 35.4 %
Extraction speed 5.6 X
Track quality 100.0 %
Test CRC D41E3771
Copy CRC D41E3771
Track not present in AccurateRip database
Copy OK

Track 2

Filename G:\DL\Charles Koechlin - Violin Sonata, Piano Quintet (2017) [FLAC]\02 - Sonate violon et piano, Op. 64 - II. Scherzo - Tres modere. Allegro con moto.wav

Pre-gap length 0:00:04.08

Peak level 66.1 %
Extraction speed 6.8 X
Track quality 100.0 %
Test CRC 2CE19F2B
Copy CRC 2CE19F2B
Track not present in AccurateRip database
Copy OK

Track 3

Filename G:\DL\Charles Koechlin - Violin Sonata, Piano Quintet (2017) [FLAC]\03 - Sonate violon et piano, Op. 64 - III. Andante - Lent (quasi adagio).wav

Pre-gap length 0:00:03.03

Peak level 45.1 %
Extraction speed 7.4 X
Track quality 100.0 %
Test CRC 6842752B
Copy CRC 6842752B
Track not present in AccurateRip database
Copy OK

Track 4

Filename G:\DL\Charles Koechlin - Violin Sonata, Piano Quintet (2017) [FLAC]\04 - Sonate violon et piano, Op. 64 - IV. Final - Allegro mais tres modere.wav

Pre-gap length 0:00:03.54

Peak level 75.1 %
Extraction speed 8.8 X
Track quality 100.0 %
Test CRC 1920CD14
Copy CRC 1920CD14
Track not present in AccurateRip database
Copy OK

Track 5

Filename G:\DL\Charles Koechlin - Violin Sonata, Piano Quintet (2017) [FLAC]\05 - Quintette pour piano et cordes, Op. 80 - I. L'Attente obscure de ce qui sera.wav

Pre-gap length 0:00:08.36

Peak level 94.2 %
Extraction speed 9.6 X
Track quality 100.0 %
Test CRC C8ACBB1B
Copy CRC C8ACBB1B
Track not present in AccurateRip database
Copy OK

Track 6

Filename G:\DL\Charles Koechlin - Violin Sonata, Piano Quintet (2017) [FLAC]\06 - Quintette pour piano et cordes, Op. 80 - II. L'Assaut de l'adversaire, la blessure.wav

Pre-gap length 0:00:02.38

Peak level 94.0 %
Extraction speed 10.4 X
Track quality 100.0 %
Test CRC 1911DAC7
Copy CRC 1911DAC7
Track not present in AccurateRip database
Copy OK

Track 7

Filename G:\DL\Charles Koechlin - Violin Sonata, Piano Quintet (2017) [FLAC]\07 - Quintette pour piano et cordes, Op. 80 - III. La Nature consolatrice.wav

Pre-gap length 0:05:10.70

Peak level 66.0 %
Extraction speed 11.2 X
Track quality 100.0 %
Test CRC F535FDE6
Copy CRC F535FDE6
Track not present in AccurateRip database
Copy OK

Track 8

Filename G:\DL\Charles Koechlin - Violin Sonata, Piano Quintet (2017) [FLAC]\08 - Quintette pour piano et cordes, Op. 80 - IV. Final - La Joie.wav

Pre-gap length 0:16:02.55

Peak level 70.9 %
Extraction speed 11.6 X
Track quality 100.0 %
Test CRC A5CCBFAA
Copy CRC A5CCBFAA
Track not present in AccurateRip database
Copy OK


None of the tracks are present in the AccurateRip database

No errors occurred

End of status report

–– CUETools DB Plugin V2.1.6

[CTDB TOCID: rTAas7PN2leoATm2UVz6YiA2zWc-] found
Submit result: already submitted
Track | CTDB Status
1 | (1/1) Accurately ripped
2 | (1/1) Accurately ripped
3 | (1/1) Accurately ripped
4 | (1/1) Accurately ripped
5 | (1/1) Accurately ripped
6 | (1/1) Accurately ripped
7 | (1/1) Accurately ripped
8 | (1/1) Accurately ripped


==== Log checksum 449CC3393BECCFCE2F06682546A91B95079EFE11052087D66A16D2457C769426 ====


foobar2000 1.3.13 / Dynamic Range Meter 1.1.1
log date: 2018-05-19 21:45:51

––––––––––––––––––––––––––––––––––––––––
Analyzed: Quintette Syntonia / Sonate violon-piano, Quintette
––––––––––––––––––––––––––––––––––––––––

DR Peak RMS Duration Track
––––––––––––––––––––––––––––––––––––––––
DR15 -9.01 dB -31.41 dB 4:45 01-Sonate violon et piano, Op. 64 - I. Calme, sans lenteur cependant. Lumineux et féérique
DR15 -3.60 dB -24.73 dB 9:23 02-Sonate violon et piano, Op. 64 - II. Scherzo : Très modéré. Allegro con moto. Dans un décor de forêt légendaire
DR15 -6.90 dB -33.04 dB 5:41 03-Sonate violon et piano, Op. 64 - III. Andante : Lent (quasi adagio). Nocturne, grave et féérique
DR14 -2.48 dB -23.50 dB 13:01 04-Sonate violon et piano, Op. 64 - IV. Final : Allegro mais très modéré
DR19 -0.52 dB -29.16 dB 9:21 05-Quintette pour piano et cordes, Op. 80 - I. L'Attente obscure de ce qui sera. Andante très calme, presque adagio
DR14 -0.53 dB -22.08 dB 10:18 06-Quintette pour piano et cordes, Op. 80 - II. L'Assaut de l'adversaire, la blessure - Allegro con moto
DR19 -3.61 dB -30.82 dB 10:52 07-Quintette pour piano et cordes, Op. 80 - III. La Nature consolatrice - Andante quasi adagio
DR14 -2.99 dB -22.59 dB 9:19 08-Quintette pour piano et cordes, Op. 80 - IV. Final : La Joie - Allegro moderato
––––––––––––––––––––––––––––––––––––––––

Number of tracks: 8
Official DR value: DR15

Samplerate: 44100 Hz
Channels: 2
Bits per sample: 16
Bitrate: 555 kbps
Codec: FLAC
================================================================================

Stephanie Moraly, Romain David - Charles Koechlin: Violin Sonata, Piano Quintet (2017) {Timpani}


Thanks to the original ripper