Tags
Language
Tags
November 2022
Su Mo Tu We Th Fr Sa
30 31 1 2 3 4 5
6 7 8 9 10 11 12
13 14 15 16 17 18 19
20 21 22 23 24 25 26
27 28 29 30 1 2 3

Steppenwolf - Magic Carpet Ride - The Dunhill ABC Years 1967-1971 (Remastered) (2021)

Posted By: Rtax
Steppenwolf - Magic Carpet Ride - The Dunhill ABC Years 1967-1971 (Remastered) (2021)

Steppenwolf - Magic Carpet Ride - The Dunhill ABC Years 1967-1971 (Remastered) (2021)
EAC Rip | FLAC (tracks, cue, log, scans) - 2.4 GB | MP3 CBR 320 kbps - 1.04 GB
7:33:17 | Rock, Blues Rock, Psychedelic Rock | Label: Esoteric

Eight CD set. Remastered From The Original Dunhill/Abc Master Tapes. Steppenwolf was formed in 1967 in LA by John Kay (vocals, guitar, harmonica), Goldy McJohn (organ, piano) and Jerry Edmonton (drums) who were previously members of the Canadian band The Sparrows. They were joined by Michael Monarch (lead guitar) and Rushton Moreve (bass). The band signed to Dunhill/ABC the same year and with producer Gabriel Mekler they recorded their self-titled debut album. The band were propelled to success with their classic single 'Born To Be Wild' (a #2 hit in the USA) and became even wider known when the track was featured, along with their version of 'The Pusher' in the classic 1969 counterculture film Easy Rider. 'The Second' was released in October '68 and featured the hit single 'Magic Carpet Ride' (another US #2 hit). In March '69 'At Your Birthday Party' was released to further success and was their first record to feature Nick St Nicholas on bass and their last to feature Michael Monarch. The July 1969 release 'Early Steppenwolf' featured live recordings made at The Matrix in San Francisco in May 1967 and featured a 20-minute version of 'The Pusher'. The band's next studio album, 'Monster', was issued in November 1969 and dealt with America's involvement in the Vietnam War. 1970 saw the band release two albums, the double LP 'Steppenwolf Live' and 'Steppenwolf 7'. By the release of the latter the band's popularity began to wain slightly, although they would retain a large and loyal fan base. Their November 1971 album 'For Ladies Only' was their last for Dunhill/ABC and Steppenwolf disbanded in February 1972 only to reform in 1974.

Tracklist
Disc 1 - Steppenwolf – Released In January 1968 (01:14:28)
1. Sookie Sookie (03:17)
2. Everybody’s Next One (02:59)
3. Berry Rides Again (02:51)
4. Hootchie Kootchie Man (05:14)
5. Born To Be Wild (03:31)
6. Your Wall’s Too High (05:47)
7. Desperation (05:46)
8. The Pusher (05:51)
9. A Girl I Knew (02:41)
10. Take What You Need (03:30)
11. The Ostrich (05:47)

Bonus Tracks
12. Sookie Sookie (Mono Single Version) (03:14)
13. Born To Be Wild (Mono Single Version) (03:04)
14. Everybody’s Next One (Mono Single Version) (02:54)
15. Take What You Need (Mono Single Version) (03:27)
16. A Girl I Knew (Mono Single Version) (02:33)
17. The Ostrich (Mono Single Version) (03:20)
18. The Pusher (Mono Single Version) (05:53)
19. Berry Rides Again (Mono Single Version) (02:49)

Disc 2 - The Second – Released In October 1968 (46:34)
1. Faster Than The Speed Of Life (03:15)
2. Tighten Up Your Wig (03:08)
3. None Of Your Doing (02:52)
4. Spiritual Fantasy (03:42)
5. Don’t Step On The Grass Sam (05:42)
6. 28 (03:14)
7. Magic Carpet Ride (04:32)
8. Disappointment Number (Unknown) (04:54)
9. Lost And Found By Trial And Error (02:08)
10. Hodge, Podge, Strained Through A Leslie (02:50)
11. Resurrection (02:54)
12. Reflections (00:48)

Bonus Tracks
13. Magic Carpet Ride (Mono Single Version) (02:55)
14. Spiritual Fantasy (Mono Single Version) (03:40)

Disc 3 - At Your Birthday Party – Released In March 1969 (53:30)
1. Don’t Cry (03:09)
2. Chicken Wolf (02:57)
3. Lovely Meter (03:08)
4. Round And Down (03:16)
5. It’s Never Too Late (04:05)
6. Sleeping Dreaming (01:07)
7. Jupiter Child (03:26)
8. She’ll Be Better (05:28)
9. Cat Killer (01:36)
10. Rock Me (03:40)
11. God Fearing Man (03:53)
12. Mango Juice (03:02)
13. Happy Birthday (02:20)

Bonus Tracks
14. Rock Me (Mono Single Version) (03:40)
15. Jupiter Child (Mono Single Version) (03:11)
16. It’s Never Too Late (Mono Single Version) (03:09)
17. Happy Birthday (Mono Single Version) (02:23)

Disc 4 - Early Steppenwolf (Live At The Matrix, San Francisco 14th May 1967) – Released In July 1969 (43:44)
1. Power Play (02:58)
2. Howlin’ For My Baby (04:53)
3. Goin’ Upstairs (07:16)
4. Corina, Corina (03:56)
5. Tighten Up Your Wig (03:16)
6. The Pusher (21:25)

Disc 5 - Monster – Released In November 1969 (44:53)
1. Monster / Suicide / America (09:17)
2. Draft Resister (03:22)
3. Power Play (05:28)
4. Move Over (02:53)
5. Fag (03:13)
6. What Would You Do (If I Did That To You) (03:21)
7. From Here To There Eventually (05:34)

Bonus Tracks
8. Monster (Single Version) (03:57)
9. Move Over (Mono Single Version) (02:59)
10. Power Play (Mono Single Version) (04:49)

Disc 6 - Live – Released In April 1970 (01:18:25)
1. Sookie Sookie (03:11)
2. Don’t Step On The Grass (06:08)
3. Tighten Up Your Wig (04:15)
4. Monster (09:55)
5. Draft Resister (03:47)
6. Power Play (05:42)
7. Corina, Corina (03:48)
8. Twisted (05:02)
9. From Here To There Eventually (06:40)
10. Hey Lawdy Mama (02:58)
11. Magic Carpet Ride (04:16)
12. The Pusher (05:59)
13. Born To Be Wild (05:46)

Bonus Tracks
14. Hey Lawdy Mama (Mono Single Version) (03:21)
15. Twisted (Mono Single Version) (03:48)
16. Corina, Corina (Mono Single Version) (03:49)

Disc 7 - Steppenwolf 7 – Released In November 1970 (50:29)
1. Ball Crusher (04:53)
2. Forty Days And Forty Nights (03:04)
3. Fat Jack (04:47)
4. Renegade (06:07)
5. Foggy Mental Breakdown (03:53)
6. Snow Blind Friend (03:54)
7. Who Needs Ya (03:00)
8. Earschplittenloudenboomer (05:01)
9. Hippo Stomp (05:47)

Bonus Tracks
10. Screaming Night Hog (03:19)
11. Snowblind Friend (Single Version) (03:19)
12. Hippo Stomp (Single Version) (03:25)

Disc 8 - For Ladies Only – Released In November 1971 (01:01:14)
1. For Ladies Only (09:19)
2. I’m Asking (04:29)
3. Shackles And Chains (05:00)
4. Tenderness (04:55)
5. The Night Time’s For You (03:00)
6. Jaded Strumpet (04:45)
7. Sparkle Eyes (04:34)
8. Black Pit (03:51)
9. Ride With Me (03:27)
10. In Hopes Of A Garden (02:14)

Bonus Tracks
11. For Madmen Only (08:47)
12. For Ladies Only (Single Version) (03:31)
13. Ride With Me (Mono Single Version) (03:22)
Exact Audio Copy V1.2 from 12. August 2016

EAC extraction logfile from 22. December 2021, 12:06

Steppenwolf / Steppenwolf

Used drive : HL-DT-STDVD+-RW GU90N Adapter: 1 ID: 1

Read mode : Secure
Utilize accurate stream : Yes
Defeat audio cache : Yes
Make use of C2 pointers : No

Read offset correction : 102
Overread into Lead-In and Lead-Out : No
Fill up missing offset samples with silence : Yes
Delete leading and trailing silent blocks : No
Null samples used in CRC calculations : Yes
Used interface : Native Win32 interface for Win NT & 2000
Gap handling : Appended to previous track

Used output format : User Defined Encoder
Selected bitrate : 1024 kBit/s
Quality : High
Add ID3 tag : No
Command line compressor : C:\Program Files (x86)\Exact Audio Copy\Flac\flac.exe
Additional command line options : -8 -V -T "ARTIST=%artist%" -T "TITLE=%title%" -T "ALBUM=%albumtitle%" -T "DATE=%year%" -T "TRACKNUMBER=%tracknr%" -T "GENRE=%genre%" -T "PERFORMER=%albuminterpret%" -T "COMPOSER=%composer%" %haslyrics%–tag-from-file=LYRICS="%lyricsfile%"%haslyrics% -T "ALBUMARTIST=%albumartist%" -T "DISCNUMBER=%cdnumber%" -T "TOTALDISCS=%totalcds%" -T "TOTALTRACKS=%numtracks%" -T "COMMENT=%comment%" %source% -o %dest%


TOC of the extracted CD

Track | Start | Length | Start sector | End sector
––––––––––––––––––––––––––––-
1 | 0:00.00 | 3:17.08 | 0 | 14782
2 | 3:17.08 | 2:59.06 | 14783 | 28213
3 | 6:16.14 | 2:50.74 | 28214 | 41037
4 | 9:07.13 | 5:14.31 | 41038 | 64618
5 | 14:21.44 | 3:31.25 | 64619 | 80468
6 | 17:52.69 | 5:46.44 | 80469 | 106462
7 | 23:39.38 | 5:46.09 | 106463 | 132421
8 | 29:25.47 | 5:51.08 | 132422 | 158754
9 | 35:16.55 | 2:40.68 | 158755 | 170822
10 | 37:57.48 | 3:29.70 | 170823 | 186567
11 | 41:27.43 | 5:47.18 | 186568 | 212610
12 | 47:14.61 | 3:14.23 | 212611 | 227183
13 | 50:29.09 | 3:04.14 | 227184 | 240997
14 | 53:33.23 | 2:53.53 | 240998 | 254025
15 | 56:27.01 | 3:26.65 | 254026 | 269540
16 | 59:53.66 | 2:32.74 | 269541 | 281014
17 | 62:26.65 | 3:19.63 | 281015 | 296002
18 | 65:46.53 | 5:53.17 | 296003 | 322494
19 | 71:39.70 | 2:49.13 | 322495 | 335182


Track 1

Filename C:\Users\ian\Desktop\Steppenwolf - Magic Carpet Ride - The Dunhill ABC Years 1967-1971(2021) [FLAC] {8CD}\Steppenwolf CD1\01 - Sookie Sookie.wav

Pre-gap length 0:00:02.00

Peak level 98.8 %
Extraction speed 1.2 X
Track quality 100.0 %
Test CRC DB95B367
Copy CRC DB95B367
Copy OK

Track 2

Filename C:\Users\ian\Desktop\Steppenwolf - Magic Carpet Ride - The Dunhill ABC Years 1967-1971(2021) [FLAC] {8CD}\Steppenwolf CD1\02 - Everybodys Next One.wav

Peak level 98.8 %
Extraction speed 1.0 X
Track quality 99.9 %
Test CRC B7449737
Copy CRC B7449737
Copy OK

Track 3

Filename C:\Users\ian\Desktop\Steppenwolf - Magic Carpet Ride - The Dunhill ABC Years 1967-1971(2021) [FLAC] {8CD}\Steppenwolf CD1\03 - Berry Rides Again.wav

Peak level 98.8 %
Extraction speed 1.1 X
Track quality 99.9 %
Test CRC 09ABB409
Copy CRC 09ABB409
Copy OK

Track 4

Filename C:\Users\ian\Desktop\Steppenwolf - Magic Carpet Ride - The Dunhill ABC Years 1967-1971(2021) [FLAC] {8CD}\Steppenwolf CD1\04 - Hootchie Kootchie Man.wav

Peak level 98.8 %
Extraction speed 1.4 X
Track quality 99.9 %
Test CRC 77250F0C
Copy CRC 77250F0C
Copy OK

Track 5

Filename C:\Users\ian\Desktop\Steppenwolf - Magic Carpet Ride - The Dunhill ABC Years 1967-1971(2021) [FLAC] {8CD}\Steppenwolf CD1\05 - Born To Be Wild.wav

Peak level 98.8 %
Extraction speed 1.6 X
Track quality 100.0 %
Test CRC 3371C795
Copy CRC 3371C795
Copy OK

Track 6

Filename C:\Users\ian\Desktop\Steppenwolf - Magic Carpet Ride - The Dunhill ABC Years 1967-1971(2021) [FLAC] {8CD}\Steppenwolf CD1\06 - Your Walls Too High.wav

Peak level 98.8 %
Extraction speed 1.6 X
Track quality 99.9 %
Test CRC C9B40628
Copy CRC C9B40628
Copy OK

Track 7

Filename C:\Users\ian\Desktop\Steppenwolf - Magic Carpet Ride - The Dunhill ABC Years 1967-1971(2021) [FLAC] {8CD}\Steppenwolf CD1\07 - Desperation.wav

Peak level 98.8 %
Extraction speed 1.9 X
Track quality 100.0 %
Test CRC EFA71C42
Copy CRC EFA71C42
Copy OK

Track 8

Filename C:\Users\ian\Desktop\Steppenwolf - Magic Carpet Ride - The Dunhill ABC Years 1967-1971(2021) [FLAC] {8CD}\Steppenwolf CD1\08 - The Pusher.wav

Peak level 98.8 %
Extraction speed 2.0 X
Track quality 100.0 %
Test CRC F560456E
Copy CRC F560456E
Copy OK

Track 9

Filename C:\Users\ian\Desktop\Steppenwolf - Magic Carpet Ride - The Dunhill ABC Years 1967-1971(2021) [FLAC] {8CD}\Steppenwolf CD1\09 - A Girl I Knew.wav

Peak level 98.8 %
Extraction speed 1.9 X
Track quality 100.0 %
Test CRC 71B2CEDA
Copy CRC 71B2CEDA
Copy OK

Track 10

Filename C:\Users\ian\Desktop\Steppenwolf - Magic Carpet Ride - The Dunhill ABC Years 1967-1971(2021) [FLAC] {8CD}\Steppenwolf CD1\10 - Take What You Need.wav

Peak level 98.8 %
Extraction speed 2.0 X
Track quality 100.0 %
Test CRC 939A7716
Copy CRC 939A7716
Copy OK

Track 11

Filename C:\Users\ian\Desktop\Steppenwolf - Magic Carpet Ride - The Dunhill ABC Years 1967-1971(2021) [FLAC] {8CD}\Steppenwolf CD1\11 - The Ostrich.wav

Peak level 98.8 %
Extraction speed 2.0 X
Track quality 99.9 %
Test CRC 62B221F0
Copy CRC 62B221F0
Copy OK

Track 12

Filename C:\Users\ian\Desktop\Steppenwolf - Magic Carpet Ride - The Dunhill ABC Years 1967-1971(2021) [FLAC] {8CD}\Steppenwolf CD1\12 - Sookie Sookie (Mono Single Version).wav

Peak level 97.8 %
Extraction speed 2.1 X
Track quality 100.0 %
Test CRC 13D9B673
Copy CRC 13D9B673
Copy OK

Track 13

Filename C:\Users\ian\Desktop\Steppenwolf - Magic Carpet Ride - The Dunhill ABC Years 1967-1971(2021) [FLAC] {8CD}\Steppenwolf CD1\13 - Born To Be Wild (Mono Single Version).wav

Peak level 98.8 %
Extraction speed 2.2 X
Track quality 100.0 %
Test CRC FAC02D96
Copy CRC FAC02D96
Copy OK

Track 14

Filename C:\Users\ian\Desktop\Steppenwolf - Magic Carpet Ride - The Dunhill ABC Years 1967-1971(2021) [FLAC] {8CD}\Steppenwolf CD1\14 - Everybodys Next One (Mono Single Version).wav

Peak level 98.8 %
Extraction speed 2.2 X
Track quality 100.0 %
Test CRC 9D18F0AF
Copy CRC 9D18F0AF
Copy OK

Track 15

Filename C:\Users\ian\Desktop\Steppenwolf - Magic Carpet Ride - The Dunhill ABC Years 1967-1971(2021) [FLAC] {8CD}\Steppenwolf CD1\15 - Take What You Need (Mono Single Version).wav

Peak level 98.8 %
Extraction speed 2.3 X
Track quality 100.0 %
Test CRC 68CE626D
Copy CRC 68CE626D
Copy OK

Track 16

Filename C:\Users\ian\Desktop\Steppenwolf - Magic Carpet Ride - The Dunhill ABC Years 1967-1971(2021) [FLAC] {8CD}\Steppenwolf CD1\16 - A Girl I Knew (Mono Single Version).wav

Peak level 98.8 %
Extraction speed 2.3 X
Track quality 100.0 %
Test CRC 45D2791D
Copy CRC 45D2791D
Copy OK

Track 17

Filename C:\Users\ian\Desktop\Steppenwolf - Magic Carpet Ride - The Dunhill ABC Years 1967-1971(2021) [FLAC] {8CD}\Steppenwolf CD1\17 - The Ostrich (Mono Single Version).wav

Peak level 98.8 %
Extraction speed 2.1 X
Track quality 99.9 %
Test CRC 298882FD
Copy CRC 298882FD
Copy OK

Track 18

Filename C:\Users\ian\Desktop\Steppenwolf - Magic Carpet Ride - The Dunhill ABC Years 1967-1971(2021) [FLAC] {8CD}\Steppenwolf CD1\18 - The Pusher (Mono Single Version).wav

Peak level 98.8 %
Extraction speed 2.4 X
Track quality 99.9 %
Test CRC E0B0455C
Copy CRC E0B0455C
Copy OK

Track 19

Filename C:\Users\ian\Desktop\Steppenwolf - Magic Carpet Ride - The Dunhill ABC Years 1967-1971(2021) [FLAC] {8CD}\Steppenwolf CD1\19 - Berry Rides Again (Mono Single Version).wav

Peak level 98.8 %
Extraction speed 2.4 X
Track quality 100.0 %
Test CRC 714DA0C1
Copy CRC 714DA0C1
Copy OK

No errors occurred

End of status report

–– CUETools DB Plugin V2.1.6

[CTDB TOCID: nIUN.SjAvHaBGab4WvQgcMuboFA-] found
Submit result: nIUN.SjAvHaBGab4WvQgcMuboFA- has been confirmed
Track | CTDB Status
1 | (11/11) Accurately ripped
2 | (11/11) Accurately ripped
3 | (11/11) Accurately ripped
4 | (11/11) Accurately ripped
5 | (11/11) Accurately ripped
6 | (11/11) Accurately ripped
7 | (11/11) Accurately ripped
8 | (11/11) Accurately ripped
9 | (11/11) Accurately ripped
10 | (11/11) Accurately ripped
11 | (11/11) Accurately ripped
12 | (11/11) Accurately ripped
13 | (11/11) Accurately ripped
14 | (11/11) Accurately ripped
15 | (11/11) Accurately ripped
16 | (11/11) Accurately ripped
17 | (11/11) Accurately ripped
18 | (11/11) Accurately ripped
19 | (11/11) Accurately ripped


==== Log checksum 8B72F6291B46210CCE6C7B08460E824A1F28AEE1BDDA99407A78B084361FFCDB ====

––-

Exact Audio Copy V1.2 from 12. August 2016

EAC extraction logfile from 23. December 2021, 15:36

Steppenwolf / The Second CD2

Used drive : HL-DT-STDVD+-RW GU90N Adapter: 1 ID: 1

Read mode : Secure
Utilize accurate stream : Yes
Defeat audio cache : Yes
Make use of C2 pointers : No

Read offset correction : 102
Overread into Lead-In and Lead-Out : No
Fill up missing offset samples with silence : Yes
Delete leading and trailing silent blocks : No
Null samples used in CRC calculations : Yes
Used interface : Native Win32 interface for Win NT & 2000
Gap handling : Appended to previous track

Used output format : User Defined Encoder
Selected bitrate : 1024 kBit/s
Quality : High
Add ID3 tag : No
Command line compressor : C:\Program Files (x86)\Exact Audio Copy\Flac\flac.exe
Additional command line options : -8 -V -T "ARTIST=%artist%" -T "TITLE=%title%" -T "ALBUM=%albumtitle%" -T "DATE=%year%" -T "TRACKNUMBER=%tracknr%" -T "GENRE=%genre%" -T "PERFORMER=%albuminterpret%" -T "COMPOSER=%composer%" %haslyrics%–tag-from-file=LYRICS="%lyricsfile%"%haslyrics% -T "ALBUMARTIST=%albumartist%" -T "DISCNUMBER=%cdnumber%" -T "TOTALDISCS=%totalcds%" -T "TOTALTRACKS=%numtracks%" -T "COMMENT=%comment%" %source% -o %dest%


TOC of the extracted CD

Track | Start | Length | Start sector | End sector
––––––––––––––––––––––––––––-
1 | 0:00.00 | 3:15.08 | 0 | 14632
2 | 3:15.08 | 3:07.39 | 14633 | 28696
3 | 6:22.47 | 2:52.02 | 28697 | 41598
4 | 9:14.49 | 3:41.69 | 41599 | 58242
5 | 12:56.43 | 5:41.70 | 58243 | 83887
6 | 18:38.38 | 3:14.07 | 83888 | 98444
7 | 21:52.45 | 4:31.57 | 98445 | 118826
8 | 26:24.27 | 4:54.14 | 118827 | 140890
9 | 31:18.41 | 2:08.19 | 140891 | 150509
10 | 33:26.60 | 2:50.05 | 150510 | 163264
11 | 36:16.65 | 2:53.45 | 163265 | 176284
12 | 39:10.35 | 0:47.68 | 176285 | 179877
13 | 39:58.28 | 2:54.69 | 179878 | 192996
14 | 42:53.22 | 3:40.35 | 192997 | 209531


Track 1

Filename C:\Users\ian\Desktop\Steppenwolf - Magic Carpet Ride - The Dunhill ABC Years 1967-1971(2021) [FLAC] {8CD}\The Second CD2\01 - Faster Than The Speed Of Life.wav

Pre-gap length 0:00:02.00

Peak level 98.8 %
Extraction speed 1.0 X
Track quality 100.0 %
Test CRC 5703AE2D
Copy CRC 5703AE2D
Copy OK

Track 2

Filename C:\Users\ian\Desktop\Steppenwolf - Magic Carpet Ride - The Dunhill ABC Years 1967-1971(2021) [FLAC] {8CD}\The Second CD2\02 - Tighten Up Your Wig.wav

Peak level 98.8 %
Extraction speed 1.1 X
Track quality 100.0 %
Test CRC F1E5BEC1
Copy CRC F1E5BEC1
Copy OK

Track 3

Filename C:\Users\ian\Desktop\Steppenwolf - Magic Carpet Ride - The Dunhill ABC Years 1967-1971(2021) [FLAC] {8CD}\The Second CD2\03 - None Of Your Doing.wav

Peak level 98.8 %
Extraction speed 1.2 X
Track quality 100.0 %
Test CRC CE11E824
Copy CRC CE11E824
Copy OK

Track 4

Filename C:\Users\ian\Desktop\Steppenwolf - Magic Carpet Ride - The Dunhill ABC Years 1967-1971(2021) [FLAC] {8CD}\The Second CD2\04 - Spiritual Fantasy.wav

Peak level 84.7 %
Extraction speed 1.3 X
Track quality 100.0 %
Test CRC 69038696
Copy CRC 69038696
Copy OK

Track 5

Filename C:\Users\ian\Desktop\Steppenwolf - Magic Carpet Ride - The Dunhill ABC Years 1967-1971(2021) [FLAC] {8CD}\The Second CD2\05 - Dont Step On The Grass Sam.wav

Peak level 98.8 %
Extraction speed 1.4 X
Track quality 99.9 %
Test CRC 8FC8EA85
Copy CRC 8FC8EA85
Copy OK

Track 6

Filename C:\Users\ian\Desktop\Steppenwolf - Magic Carpet Ride - The Dunhill ABC Years 1967-1971(2021) [FLAC] {8CD}\The Second CD2\06 - 28.wav

Peak level 98.8 %
Extraction speed 1.5 X
Track quality 100.0 %
Test CRC 0FAC1C22
Copy CRC 0FAC1C22
Copy OK

Track 7

Filename C:\Users\ian\Desktop\Steppenwolf - Magic Carpet Ride - The Dunhill ABC Years 1967-1971(2021) [FLAC] {8CD}\The Second CD2\07 - Magic Carpet Ride.wav

Peak level 98.8 %
Extraction speed 1.6 X
Track quality 100.0 %
Test CRC 15D1246B
Copy CRC 15D1246B
Copy OK

Track 8

Filename C:\Users\ian\Desktop\Steppenwolf - Magic Carpet Ride - The Dunhill ABC Years 1967-1971(2021) [FLAC] {8CD}\The Second CD2\08 - Disappointment Number (Unknown).wav

Peak level 98.8 %
Extraction speed 1.7 X
Track quality 100.0 %
Test CRC A850101A
Copy CRC A850101A
Copy OK

Track 9

Filename C:\Users\ian\Desktop\Steppenwolf - Magic Carpet Ride - The Dunhill ABC Years 1967-1971(2021) [FLAC] {8CD}\The Second CD2\09 - Lost And Found By Trial And Error.wav

Peak level 98.8 %
Extraction speed 1.6 X
Track quality 100.0 %
Test CRC 6D78D1CB
Copy CRC 6D78D1CB
Copy OK

Track 10

Filename C:\Users\ian\Desktop\Steppenwolf - Magic Carpet Ride - The Dunhill ABC Years 1967-1971(2021) [FLAC] {8CD}\The Second CD2\10 - Hodge Podge Strained Through A Leslie.wav

Peak level 98.8 %
Extraction speed 1.7 X
Track quality 100.0 %
Test CRC 9AE2CE80
Copy CRC 9AE2CE80
Copy OK

Track 11

Filename C:\Users\ian\Desktop\Steppenwolf - Magic Carpet Ride - The Dunhill ABC Years 1967-1971(2021) [FLAC] {8CD}\The Second CD2\11 - Resurrection.wav

Peak level 98.8 %
Extraction speed 1.5 X
Track quality 99.9 %
Test CRC 6A2AA71C
Copy CRC 6A2AA71C
Copy OK

Track 12

Filename C:\Users\ian\Desktop\Steppenwolf - Magic Carpet Ride - The Dunhill ABC Years 1967-1971(2021) [FLAC] {8CD}\The Second CD2\12 - Reflections.wav

Peak level 30.5 %
Extraction speed 1.2 X
Track quality 100.0 %
Test CRC 90A633C6
Copy CRC 90A633C6
Copy OK

Track 13

Filename C:\Users\ian\Desktop\Steppenwolf - Magic Carpet Ride - The Dunhill ABC Years 1967-1971(2021) [FLAC] {8CD}\The Second CD2\13 - Magic Carpet Ride (Mono Single Version).wav

Peak level 98.8 %
Extraction speed 1.6 X
Track quality 99.9 %
Test CRC 47F38393
Copy CRC 47F38393
Copy OK

Track 14

Filename C:\Users\ian\Desktop\Steppenwolf - Magic Carpet Ride - The Dunhill ABC Years 1967-1971(2021) [FLAC] {8CD}\The Second CD2\14 - Spiritual Fantasy (Mono Single Version).wav

Peak level 98.8 %
Extraction speed 1.7 X
Track quality 99.9 %
Test CRC F3A2236D
Copy CRC F3A2236D
Copy OK

No errors occurred

End of status report

–– CUETools DB Plugin V2.1.6

[CTDB TOCID: pS9v98bSlRIDsMO_PyynOv5h32w-] found
Submit result: pS9v98bSlRIDsMO_PyynOv5h32w- has been confirmed
Track | CTDB Status
1 | (11/11) Accurately ripped
2 | (11/11) Accurately ripped
3 | (11/11) Accurately ripped
4 | (11/11) Accurately ripped
5 | (11/11) Accurately ripped
6 | (11/11) Accurately ripped
7 | (11/11) Accurately ripped
8 | (11/11) Accurately ripped
9 | (11/11) Accurately ripped
10 | (11/11) Accurately ripped
11 | (11/11) Accurately ripped
12 | (11/11) Accurately ripped
13 | (11/11) Accurately ripped
14 | (11/11) Accurately ripped


==== Log checksum C6D22AC9FD104B376F0F8A4B6DBF36AB0215ED123D0B01781E7C78879C44B89E ====

––-

Exact Audio Copy V1.2 from 12. August 2016

EAC extraction logfile from 28. December 2021, 13:49

Steppenwolf / At Your Birthday Party CD3

Used drive : HL-DT-STDVD+-RW GU90N Adapter: 1 ID: 1

Read mode : Secure
Utilize accurate stream : Yes
Defeat audio cache : Yes
Make use of C2 pointers : No

Read offset correction : 102
Overread into Lead-In and Lead-Out : No
Fill up missing offset samples with silence : Yes
Delete leading and trailing silent blocks : No
Null samples used in CRC calculations : Yes
Used interface : Native Win32 interface for Win NT & 2000
Gap handling : Appended to previous track

Used output format : User Defined Encoder
Selected bitrate : 1024 kBit/s
Quality : High
Add ID3 tag : No
Command line compressor : C:\Program Files (x86)\Exact Audio Copy\Flac\flac.exe
Additional command line options : -8 -V -T "ARTIST=%artist%" -T "TITLE=%title%" -T "ALBUM=%albumtitle%" -T "DATE=%year%" -T "TRACKNUMBER=%tracknr%" -T "GENRE=%genre%" -T "PERFORMER=%albuminterpret%" -T "COMPOSER=%composer%" %haslyrics%–tag-from-file=LYRICS="%lyricsfile%"%haslyrics% -T "ALBUMARTIST=%albumartist%" -T "DISCNUMBER=%cdnumber%" -T "TOTALDISCS=%totalcds%" -T "TOTALTRACKS=%numtracks%" -T "COMMENT=%comment%" %source% -o %dest%


TOC of the extracted CD

Track | Start | Length | Start sector | End sector
––––––––––––––––––––––––––––-
1 | 0:00.00 | 3:09.06 | 0 | 14180
2 | 3:09.06 | 2:56.64 | 14181 | 27444
3 | 6:05.70 | 3:08.16 | 27445 | 41560
4 | 9:14.11 | 3:16.18 | 41561 | 56278
5 | 12:30.29 | 4:05.07 | 56279 | 74660
6 | 16:35.36 | 1:07.37 | 74661 | 79722
7 | 17:42.73 | 3:26.05 | 79723 | 95177
8 | 21:09.03 | 5:28.35 | 95178 | 119812
9 | 26:37.38 | 1:35.45 | 119813 | 126982
10 | 28:13.08 | 3:40.04 | 126983 | 143486
11 | 31:53.12 | 3:52.43 | 143487 | 160929
12 | 35:45.55 | 3:01.43 | 160930 | 174547
13 | 38:47.23 | 2:20.16 | 174548 | 185063
14 | 41:07.39 | 3:39.67 | 185064 | 201555
15 | 44:47.31 | 3:11.15 | 201556 | 215895
16 | 47:58.46 | 3:08.52 | 215896 | 230047
17 | 51:07.23 | 2:23.01 | 230048 | 240773


Track 1

Filename C:\Users\ian\Desktop\Steppenwolf - Magic Carpet Ride - The Dunhill ABC Years 1967-1971(2021) [FLAC] {8CD}\At Your Birthday Party CD3\01 - Dont Cry.wav

Pre-gap length 0:00:02.00

Peak level 98.8 %
Extraction speed 1.0 X
Track quality 100.0 %
Test CRC 23FFFF65
Copy CRC 23FFFF65
Copy OK

Track 2

Filename C:\Users\ian\Desktop\Steppenwolf - Magic Carpet Ride - The Dunhill ABC Years 1967-1971(2021) [FLAC] {8CD}\At Your Birthday Party CD3\02 - Chicken Wolf.wav

Peak level 98.8 %
Extraction speed 1.1 X
Track quality 100.0 %
Test CRC 2F715671
Copy CRC 2F715671
Copy OK

Track 3

Filename C:\Users\ian\Desktop\Steppenwolf - Magic Carpet Ride - The Dunhill ABC Years 1967-1971(2021) [FLAC] {8CD}\At Your Birthday Party CD3\03 - Lovely Meter.wav

Peak level 84.3 %
Extraction speed 1.0 X
Track quality 99.9 %
Test CRC C45730F0
Copy CRC C45730F0
Copy OK

Track 4

Filename C:\Users\ian\Desktop\Steppenwolf - Magic Carpet Ride - The Dunhill ABC Years 1967-1971(2021) [FLAC] {8CD}\At Your Birthday Party CD3\04 - Round And Down.wav

Peak level 98.8 %
Extraction speed 1.2 X
Track quality 100.0 %
Test CRC C8876EEF
Copy CRC C8876EEF
Copy OK

Track 5

Filename C:\Users\ian\Desktop\Steppenwolf - Magic Carpet Ride - The Dunhill ABC Years 1967-1971(2021) [FLAC] {8CD}\At Your Birthday Party CD3\05 - Its Never Too Late.wav

Peak level 98.8 %
Extraction speed 1.4 X
Track quality 100.0 %
Test CRC C80D5F2B
Copy CRC C80D5F2B
Copy OK

Track 6

Filename C:\Users\ian\Desktop\Steppenwolf - Magic Carpet Ride - The Dunhill ABC Years 1967-1971(2021) [FLAC] {8CD}\At Your Birthday Party CD3\06 - Sleeping Dreaming.wav

Peak level 98.8 %
Extraction speed 1.1 X
Track quality 100.0 %
Test CRC 857BB99D
Copy CRC 857BB99D
Copy OK

Track 7

Filename C:\Users\ian\Desktop\Steppenwolf - Magic Carpet Ride - The Dunhill ABC Years 1967-1971(2021) [FLAC] {8CD}\At Your Birthday Party CD3\07 - Jupiter Child.wav

Peak level 98.8 %
Extraction speed 1.5 X
Track quality 100.0 %
Test CRC 1C7D7246
Copy CRC 1C7D7246
Copy OK

Track 8

Filename C:\Users\ian\Desktop\Steppenwolf - Magic Carpet Ride - The Dunhill ABC Years 1967-1971(2021) [FLAC] {8CD}\At Your Birthday Party CD3\08 - She ll Be Better.wav

Peak level 98.8 %
Extraction speed 1.7 X
Track quality 100.0 %
Test CRC 498EF4AD
Copy CRC 498EF4AD
Copy OK

Track 9

Filename C:\Users\ian\Desktop\Steppenwolf - Magic Carpet Ride - The Dunhill ABC Years 1967-1971(2021) [FLAC] {8CD}\At Your Birthday Party CD3\09 - Cat Killer.wav

Peak level 98.8 %
Extraction speed 1.1 X
Track quality 99.8 %
Test CRC D0B1EFCA
Copy CRC D0B1EFCA
Copy OK

Track 10

Filename C:\Users\ian\Desktop\Steppenwolf - Magic Carpet Ride - The Dunhill ABC Years 1967-1971(2021) [FLAC] {8CD}\At Your Birthday Party CD3\10 - Rock Me.wav

Peak level 98.8 %
Extraction speed 1.7 X
Track quality 100.0 %
Test CRC B5AF4563
Copy CRC B5AF4563
Copy OK

Track 11

Filename C:\Users\ian\Desktop\Steppenwolf - Magic Carpet Ride - The Dunhill ABC Years 1967-1971(2021) [FLAC] {8CD}\At Your Birthday Party CD3\11 - God Fearing Man.wav

Peak level 98.8 %
Extraction speed 1.8 X
Track quality 100.0 %
Test CRC EF1AC9D5
Copy CRC EF1AC9D5
Copy OK

Track 12

Filename C:\Users\ian\Desktop\Steppenwolf - Magic Carpet Ride - The Dunhill ABC Years 1967-1971(2021) [FLAC] {8CD}\At Your Birthday Party CD3\12 - Mango Juice.wav

Peak level 98.8 %
Extraction speed 1.5 X
Track quality 99.9 %
Test CRC 6DCDCA85
Copy CRC 6DCDCA85
Copy OK

Track 13

Filename C:\Users\ian\Desktop\Steppenwolf - Magic Carpet Ride - The Dunhill ABC Years 1967-1971(2021) [FLAC] {8CD}\At Your Birthday Party CD3\13 - Happy Birthday.wav

Peak level 98.8 %
Extraction speed 1.7 X
Track quality 100.0 %
Test CRC B3FA30DE
Copy CRC B3FA30DE
Copy OK

Track 14

Filename C:\Users\ian\Desktop\Steppenwolf - Magic Carpet Ride - The Dunhill ABC Years 1967-1971(2021) [FLAC] {8CD}\At Your Birthday Party CD3\14 - Rock Me (Mono Single Version).wav

Peak level 98.8 %
Extraction speed 1.9 X
Track quality 100.0 %
Test CRC 746A9154
Copy CRC 746A9154
Copy OK

Track 15

Filename C:\Users\ian\Desktop\Steppenwolf - Magic Carpet Ride - The Dunhill ABC Years 1967-1971(2021) [FLAC] {8CD}\At Your Birthday Party CD3\15 - Jupiter Child (Mono Single Version).wav

Peak level 98.8 %
Extraction speed 1.7 X
Track quality 99.9 %
Test CRC 6E0A2277
Copy CRC 6E0A2277
Copy OK

Track 16

Filename C:\Users\ian\Desktop\Steppenwolf - Magic Carpet Ride - The Dunhill ABC Years 1967-1971(2021) [FLAC] {8CD}\At Your Birthday Party CD3\16 - Its Never Too Late (Mono Single Version).wav

Peak level 98.8 %
Extraction speed 2.0 X
Track quality 100.0 %
Test CRC 626C2806
Copy CRC 626C2806
Copy OK

Track 17

Filename C:\Users\ian\Desktop\Steppenwolf - Magic Carpet Ride - The Dunhill ABC Years 1967-1971(2021) [FLAC] {8CD}\At Your Birthday Party CD3\17 - Happy Birthday (Mono Single Version).wav

Peak level 98.8 %
Extraction speed 1.9 X
Track quality 100.0 %
Test CRC 4F1BD7A0
Copy CRC 4F1BD7A0
Copy OK

No errors occurred

End of status report

–– CUETools DB Plugin V2.1.6

[CTDB TOCID: XMNxg6ISP.Yhy1t5YUBleKH1qY0-] found
Submit result: already submitted
Track | CTDB Status
1 | (12/12) Accurately ripped
2 | (12/12) Accurately ripped
3 | (12/12) Accurately ripped
4 | (12/12) Accurately ripped
5 | (12/12) Accurately ripped
6 | (12/12) Accurately ripped
7 | (12/12) Accurately ripped
8 | (12/12) Accurately ripped
9 | (12/12) Accurately ripped
10 | (12/12) Accurately ripped
11 | (12/12) Accurately ripped
12 | (12/12) Accurately ripped
13 | (12/12) Accurately ripped
14 | (12/12) Accurately ripped
15 | (12/12) Accurately ripped
16 | (12/12) Accurately ripped
17 | (12/12) Accurately ripped


==== Log checksum CE5E70D41BC57BEF2EEAC437E1411111A17AD24F6487997C8F4D548E9E996CED ====

––-

Exact Audio Copy V1.2 from 12. August 2016

EAC extraction logfile from 24. December 2021, 11:46

Steppenwolf / Early Steppenwolf CD4

Used drive : HL-DT-STDVD+-RW GU90N Adapter: 1 ID: 1

Read mode : Secure
Utilize accurate stream : Yes
Defeat audio cache : Yes
Make use of C2 pointers : No

Read offset correction : 102
Overread into Lead-In and Lead-Out : No
Fill up missing offset samples with silence : Yes
Delete leading and trailing silent blocks : No
Null samples used in CRC calculations : Yes
Used interface : Native Win32 interface for Win NT & 2000
Gap handling : Appended to previous track

Used output format : User Defined Encoder
Selected bitrate : 1024 kBit/s
Quality : High
Add ID3 tag : No
Command line compressor : C:\Program Files (x86)\Exact Audio Copy\Flac\flac.exe
Additional command line options : -8 -V -T "ARTIST=%artist%" -T "TITLE=%title%" -T "ALBUM=%albumtitle%" -T "DATE=%year%" -T "TRACKNUMBER=%tracknr%" -T "GENRE=%genre%" -T "PERFORMER=%albuminterpret%" -T "COMPOSER=%composer%" %haslyrics%–tag-from-file=LYRICS="%lyricsfile%"%haslyrics% -T "ALBUMARTIST=%albumartist%" -T "DISCNUMBER=%cdnumber%" -T "TOTALDISCS=%totalcds%" -T "TOTALTRACKS=%numtracks%" -T "COMMENT=%comment%" %source% -o %dest%


TOC of the extracted CD

Track | Start | Length | Start sector | End sector
––––––––––––––––––––––––––––-
1 | 0:00.00 | 2:57.41 | 0 | 13315
2 | 2:57.41 | 4:53.27 | 13316 | 35317
3 | 7:50.68 | 7:16.25 | 35318 | 68042
4 | 15:07.18 | 3:55.46 | 68043 | 85713
5 | 19:02.64 | 3:16.17 | 85714 | 100430
6 | 22:19.06 | 21:25.09 | 100431 | 196814


Track 1

Filename C:\Users\ian\Desktop\Steppenwolf - Magic Carpet Ride - The Dunhill ABC Years 1967-1971(2021) [FLAC] {8CD}\Early Steppenwolf CD4\01 - Power Play.wav

Pre-gap length 0:00:02.00

Peak level 98.8 %
Extraction speed 1.0 X
Track quality 100.0 %
Test CRC 8BCBA829
Copy CRC 8BCBA829
Copy OK

Track 2

Filename C:\Users\ian\Desktop\Steppenwolf - Magic Carpet Ride - The Dunhill ABC Years 1967-1971(2021) [FLAC] {8CD}\Early Steppenwolf CD4\02 - Howlin For My Baby.wav

Peak level 98.8 %
Extraction speed 1.2 X
Track quality 100.0 %
Test CRC 7F1F7A31
Copy CRC 7F1F7A31
Copy OK

Track 3

Filename C:\Users\ian\Desktop\Steppenwolf - Magic Carpet Ride - The Dunhill ABC Years 1967-1971(2021) [FLAC] {8CD}\Early Steppenwolf CD4\03 - Goin Upstairs.wav

Peak level 98.8 %
Extraction speed 1.5 X
Track quality 100.0 %
Test CRC 6E1A310C
Copy CRC 6E1A310C
Copy OK

Track 4

Filename C:\Users\ian\Desktop\Steppenwolf - Magic Carpet Ride - The Dunhill ABC Years 1967-1971(2021) [FLAC] {8CD}\Early Steppenwolf CD4\04 - Corina Corina.wav

Peak level 80.2 %
Extraction speed 1.5 X
Track quality 100.0 %
Test CRC 4F5AEDD6
Copy CRC 4F5AEDD6
Copy OK

Track 5

Filename C:\Users\ian\Desktop\Steppenwolf - Magic Carpet Ride - The Dunhill ABC Years 1967-1971(2021) [FLAC] {8CD}\Early Steppenwolf CD4\05 - Tighten Up Your Wig.wav

Peak level 98.8 %
Extraction speed 1.3 X
Track quality 99.9 %
Test CRC 682A0D6C
Copy CRC 682A0D6C
Copy OK

Track 6

Filename C:\Users\ian\Desktop\Steppenwolf - Magic Carpet Ride - The Dunhill ABC Years 1967-1971(2021) [FLAC] {8CD}\Early Steppenwolf CD4\06 - The Pusher.wav

Peak level 98.8 %
Extraction speed 2.1 X
Track quality 100.0 %
Test CRC C42BE30C
Copy CRC C42BE30C
Copy OK

No errors occurred

End of status report

–– CUETools DB Plugin V2.1.6

[CTDB TOCID: jWDziekCy1YNyHM4t_xUz.B4H2c-] found
Submit result: jWDziekCy1YNyHM4t_xUz.B4H2c- has been confirmed
Track | CTDB Status
1 | (10/10) Accurately ripped
2 | (10/10) Accurately ripped
3 | (10/10) Accurately ripped
4 | (10/10) Accurately ripped
5 | (10/10) Accurately ripped
6 | (10/10) Accurately ripped


==== Log checksum FA8BD87CA06E368C302551089F8C6D966562921DBA74CD4EFC4D8A12C7554F60 ====

––-

Exact Audio Copy V1.2 from 12. August 2016

EAC extraction logfile from 24. December 2021, 19:00

Steppenwolf / Monster CD5

Used drive : HL-DT-STDVD+-RW GU90N Adapter: 1 ID: 1

Read mode : Secure
Utilize accurate stream : Yes
Defeat audio cache : Yes
Make use of C2 pointers : No

Read offset correction : 102
Overread into Lead-In and Lead-Out : No
Fill up missing offset samples with silence : Yes
Delete leading and trailing silent blocks : No
Null samples used in CRC calculations : Yes
Used interface : Native Win32 interface for Win NT & 2000
Gap handling : Appended to previous track

Used output format : User Defined Encoder
Selected bitrate : 1024 kBit/s
Quality : High
Add ID3 tag : No
Command line compressor : C:\Program Files (x86)\Exact Audio Copy\Flac\flac.exe
Additional command line options : -8 -V -T "ARTIST=%artist%" -T "TITLE=%title%" -T "ALBUM=%albumtitle%" -T "DATE=%year%" -T "TRACKNUMBER=%tracknr%" -T "GENRE=%genre%" -T "PERFORMER=%albuminterpret%" -T "COMPOSER=%composer%" %haslyrics%–tag-from-file=LYRICS="%lyricsfile%"%haslyrics% -T "ALBUMARTIST=%albumartist%" -T "DISCNUMBER=%cdnumber%" -T "TOTALDISCS=%totalcds%" -T "TOTALTRACKS=%numtracks%" -T "COMMENT=%comment%" %source% -o %dest%


TOC of the extracted CD

Track | Start | Length | Start sector | End sector
––––––––––––––––––––––––––––-
1 | 0:00.00 | 9:16.58 | 0 | 41757
2 | 9:16.58 | 3:22.00 | 41758 | 56907
3 | 12:38.58 | 5:28.28 | 56908 | 81535
4 | 18:07.11 | 2:53.25 | 81536 | 94535
5 | 21:00.36 | 3:13.08 | 94536 | 109018
6 | 24:13.44 | 3:20.73 | 109019 | 124091
7 | 27:34.42 | 5:33.56 | 124092 | 149122
8 | 33:08.23 | 3:57.00 | 149123 | 166897
9 | 37:05.23 | 2:58.58 | 166898 | 180305
10 | 40:04.06 | 4:49.31 | 180306 | 202011


Track 1

Filename C:\Users\ian\Desktop\Steppenwolf - Magic Carpet Ride - The Dunhill ABC Years 1967-1971(2021) [FLAC] {8CD}\Monster CD5\01 - Monster - Suicide - America.wav

Pre-gap length 0:00:02.00

Peak level 98.8 %
Extraction speed 1.2 X
Track quality 99.9 %
Test CRC 484134FE
Copy CRC 484134FE
Copy OK

Track 2

Filename C:\Users\ian\Desktop\Steppenwolf - Magic Carpet Ride - The Dunhill ABC Years 1967-1971(2021) [FLAC] {8CD}\Monster CD5\02 - Draft Resister.wav

Peak level 98.8 %
Extraction speed 1.3 X
Track quality 100.0 %
Test CRC 1AE2C7A2
Copy CRC 1AE2C7A2
Copy OK

Track 3

Filename C:\Users\ian\Desktop\Steppenwolf - Magic Carpet Ride - The Dunhill ABC Years 1967-1971(2021) [FLAC] {8CD}\Monster CD5\03 - Power Play.wav

Peak level 97.4 %
Extraction speed 1.5 X
Track quality 100.0 %
Test CRC B4AD84B6
Copy CRC B4AD84B6
Copy OK

Track 4

Filename C:\Users\ian\Desktop\Steppenwolf - Magic Carpet Ride - The Dunhill ABC Years 1967-1971(2021) [FLAC] {8CD}\Monster CD5\04 - Move Over.wav

Peak level 98.8 %
Extraction speed 1.5 X
Track quality 100.0 %
Test CRC 8C06C8CD
Copy CRC 8C06C8CD
Copy OK

Track 5

Filename C:\Users\ian\Desktop\Steppenwolf - Magic Carpet Ride - The Dunhill ABC Years 1967-1971(2021) [FLAC] {8CD}\Monster CD5\05 - Fag.wav

Peak level 98.8 %
Extraction speed 1.6 X
Track quality 100.0 %
Test CRC C1EBFFF7
Copy CRC C1EBFFF7
Copy OK

Track 6

Filename C:\Users\ian\Desktop\Steppenwolf - Magic Carpet Ride - The Dunhill ABC Years 1967-1971(2021) [FLAC] {8CD}\Monster CD5\06 - What Would You Do (If I Did That To You).wav

Peak level 98.8 %
Extraction speed 1.7 X
Track quality 100.0 %
Test CRC C6C05AC6
Copy CRC C6C05AC6
Copy OK

Track 7

Filename C:\Users\ian\Desktop\Steppenwolf - Magic Carpet Ride - The Dunhill ABC Years 1967-1971(2021) [FLAC] {8CD}\Monster CD5\07 - From Here To There Eventually.wav

Peak level 98.4 %
Extraction speed 1.9 X
Track quality 100.0 %
Test CRC 10083156
Copy CRC 10083156
Copy OK

Track 8

Filename C:\Users\ian\Desktop\Steppenwolf - Magic Carpet Ride - The Dunhill ABC Years 1967-1971(2021) [FLAC] {8CD}\Monster CD5\08 - Monster (Single Version).wav

Peak level 98.8 %
Extraction speed 1.9 X
Track quality 100.0 %
Test CRC BBBA4AD4
Copy CRC BBBA4AD4
Copy OK

Track 9

Filename C:\Users\ian\Desktop\Steppenwolf - Magic Carpet Ride - The Dunhill ABC Years 1967-1971(2021) [FLAC] {8CD}\Monster CD5\09 - Move Over (Mono Single Version).wav

Peak level 98.8 %
Extraction speed 1.9 X
Track quality 100.0 %
Test CRC A507A712
Copy CRC A507A712
Copy OK

Track 10

Filename C:\Users\ian\Desktop\Steppenwolf - Magic Carpet Ride - The Dunhill ABC Years 1967-1971(2021) [FLAC] {8CD}\Monster CD5\10 - Power Play (Mono Single Version).wav

Peak level 98.8 %
Extraction speed 2.1 X
Track quality 100.0 %
Test CRC 430493C8
Copy CRC 430493C8
Copy OK

No errors occurred

End of status report

–– CUETools DB Plugin V2.1.6

[CTDB TOCID: JMJuFH6YhDIeRa05RTK2zsD3AKo-] found
Submit result: JMJuFH6YhDIeRa05RTK2zsD3AKo- has been confirmed
Track | CTDB Status
1 | (11/11) Accurately ripped
2 | (11/11) Accurately ripped
3 | (11/11) Accurately ripped
4 | (11/11) Accurately ripped
5 | (11/11) Accurately ripped
6 | (11/11) Accurately ripped
7 | (11/11) Accurately ripped
8 | (11/11) Accurately ripped
9 | (11/11) Accurately ripped
10 | (11/11) Accurately ripped


==== Log checksum C8F7E027AE6A93BA5662C9F8571AEBA3B603B4ECA84788D8B6582327E3D91158 ====

––-

Exact Audio Copy V1.2 from 12. August 2016

EAC extraction logfile from 24. December 2021, 20:30

Steppenwolf / Live CD6

Used drive : HL-DT-STDVD+-RW GU90N Adapter: 1 ID: 1

Read mode : Secure
Utilize accurate stream : Yes
Defeat audio cache : Yes
Make use of C2 pointers : No

Read offset correction : 102
Overread into Lead-In and Lead-Out : No
Fill up missing offset samples with silence : Yes
Delete leading and trailing silent blocks : No
Null samples used in CRC calculations : Yes
Used interface : Native Win32 interface for Win NT & 2000
Gap handling : Appended to previous track

Used output format : User Defined Encoder
Selected bitrate : 1024 kBit/s
Quality : High
Add ID3 tag : No
Command line compressor : C:\Program Files (x86)\Exact Audio Copy\Flac\flac.exe
Additional command line options : -8 -V -T "ARTIST=%artist%" -T "TITLE=%title%" -T "ALBUM=%albumtitle%" -T "DATE=%year%" -T "TRACKNUMBER=%tracknr%" -T "GENRE=%genre%" -T "PERFORMER=%albuminterpret%" -T "COMPOSER=%composer%" %haslyrics%–tag-from-file=LYRICS="%lyricsfile%"%haslyrics% -T "ALBUMARTIST=%albumartist%" -T "DISCNUMBER=%cdnumber%" -T "TOTALDISCS=%totalcds%" -T "TOTALTRACKS=%numtracks%" -T "COMMENT=%comment%" %source% -o %dest%


TOC of the extracted CD

Track | Start | Length | Start sector | End sector
––––––––––––––––––––––––––––-
1 | 0:00.00 | 3:10.53 | 0 | 14302
2 | 3:10.53 | 6:07.60 | 14303 | 41887
3 | 9:18.38 | 4:14.39 | 41888 | 60976
4 | 13:33.02 | 9:55.15 | 60977 | 105616
5 | 23:28.17 | 3:46.41 | 105617 | 122607
6 | 27:14.58 | 5:42.27 | 122608 | 148284
7 | 32:57.10 | 3:47.71 | 148285 | 165380
8 | 36:45.06 | 5:02.20 | 165381 | 188050
9 | 41:47.26 | 6:40.13 | 188051 | 218063
10 | 48:27.39 | 2:58.02 | 218064 | 231415
11 | 51:25.41 | 4:15.72 | 231416 | 250612
12 | 55:41.38 | 5:59.26 | 250613 | 277563
13 | 61:40.64 | 5:46.35 | 277564 | 303548
14 | 67:27.24 | 3:21.21 | 303549 | 318644
15 | 70:48.45 | 3:47.39 | 318645 | 335708
16 | 74:36.09 | 3:49.06 | 335709 | 352889


Track 1

Filename C:\Users\ian\Desktop\Steppenwolf - Magic Carpet Ride - The Dunhill ABC Years 1967-1971(2021) [FLAC] {8CD}\Live CD6\01 - Sookie Sookie.wav

Pre-gap length 0:00:02.00

Peak level 98.8 %
Extraction speed 1.2 X
Track quality 100.0 %
Test CRC A3FC4E96
Copy CRC A3FC4E96
Copy OK

Track 2

Filename C:\Users\ian\Desktop\Steppenwolf - Magic Carpet Ride - The Dunhill ABC Years 1967-1971(2021) [FLAC] {8CD}\Live CD6\02 - Dont Step On The Grass.wav

Peak level 98.8 %
Extraction speed 1.5 X
Track quality 100.0 %
Test CRC C9105EEA
Copy CRC C9105EEA
Copy OK

Track 3

Filename C:\Users\ian\Desktop\Steppenwolf - Magic Carpet Ride - The Dunhill ABC Years 1967-1971(2021) [FLAC] {8CD}\Live CD6\03 - Tighten Up Your Wig.wav

Peak level 98.8 %
Extraction speed 1.5 X
Track quality 100.0 %
Test CRC D7F2082D
Copy CRC D7F2082D
Copy OK

Track 4

Filename C:\Users\ian\Desktop\Steppenwolf - Magic Carpet Ride - The Dunhill ABC Years 1967-1971(2021) [FLAC] {8CD}\Live CD6\04 - Monster.wav

Peak level 98.8 %
Extraction speed 1.9 X
Track quality 100.0 %
Test CRC 5BCBEDD3
Copy CRC 5BCBEDD3
Copy OK

Track 5

Filename C:\Users\ian\Desktop\Steppenwolf - Magic Carpet Ride - The Dunhill ABC Years 1967-1971(2021) [FLAC] {8CD}\Live CD6\05 - Draft Resister.wav

Peak level 98.8 %
Extraction speed 1.8 X
Track quality 100.0 %
Test CRC 785ABC3B
Copy CRC 785ABC3B
Copy OK

Track 6

Filename C:\Users\ian\Desktop\Steppenwolf - Magic Carpet Ride - The Dunhill ABC Years 1967-1971(2021) [FLAC] {8CD}\Live CD6\06 - Power Play.wav

Peak level 98.8 %
Extraction speed 2.0 X
Track quality 100.0 %
Test CRC 7F9AB411
Copy CRC 7F9AB411
Copy OK

Track 7

Filename C:\Users\ian\Desktop\Steppenwolf - Magic Carpet Ride - The Dunhill ABC Years 1967-1971(2021) [FLAC] {8CD}\Live CD6\07 - Corina Corina.wav

Peak level 98.8 %
Extraction speed 2.0 X
Track quality 100.0 %
Test CRC AE030BC6
Copy CRC AE030BC6
Copy OK

Track 8

Filename C:\Users\ian\Desktop\Steppenwolf - Magic Carpet Ride - The Dunhill ABC Years 1967-1971(2021) [FLAC] {8CD}\Live CD6\08 - Twisted.wav

Peak level 98.8 %
Extraction speed 2.2 X
Track quality 100.0 %
Test CRC 86BC00AB
Copy CRC 86BC00AB
Copy OK

Track 9

Filename C:\Users\ian\Desktop\Steppenwolf - Magic Carpet Ride - The Dunhill ABC Years 1967-1971(2021) [FLAC] {8CD}\Live CD6\09 - From Here To There Eventually.wav

Peak level 98.8 %
Extraction speed 2.3 X
Track quality 100.0 %
Test CRC 62466C6A
Copy CRC 62466C6A
Copy OK

Track 10

Filename C:\Users\ian\Desktop\Steppenwolf - Magic Carpet Ride - The Dunhill ABC Years 1967-1971(2021) [FLAC] {8CD}\Live CD6\10 - Hey Lawdy Mama.wav

Peak level 98.8 %
Extraction speed 2.2 X
Track quality 100.0 %
Test CRC 1C214D81
Copy CRC 1C214D81
Copy OK

Track 11

Filename C:\Users\ian\Desktop\Steppenwolf - Magic Carpet Ride - The Dunhill ABC Years 1967-1971(2021) [FLAC] {8CD}\Live CD6\11 - Magic Carpet Ride.wav

Peak level 98.8 %
Extraction speed 2.1 X
Track quality 99.9 %
Test CRC 2890AC8A
Copy CRC 2890AC8A
Copy OK

Track 12

Filename C:\Users\ian\Desktop\Steppenwolf - Magic Carpet Ride - The Dunhill ABC Years 1967-1971(2021) [FLAC] {8CD}\Live CD6\12 - The Pusher.wav

Peak level 98.8 %
Extraction speed 2.6 X
Track quality 100.0 %
Test CRC 1797E052
Copy CRC 1797E052
Copy OK

Track 13

Filename C:\Users\ian\Desktop\Steppenwolf - Magic Carpet Ride - The Dunhill ABC Years 1967-1971(2021) [FLAC] {8CD}\Live CD6\13 - Born To Be Wild.wav

Peak level 98.8 %
Extraction speed 2.7 X
Track quality 100.0 %
Test CRC D8E982FF
Copy CRC D8E982FF
Copy OK

Track 14

Filename C:\Users\ian\Desktop\Steppenwolf - Magic Carpet Ride - The Dunhill ABC Years 1967-1971(2021) [FLAC] {8CD}\Live CD6\14 - Hey Lawdy Mama (Mono Single Version).wav

Peak level 98.8 %
Extraction speed 2.5 X
Track quality 100.0 %
Test CRC 58712A2A
Copy CRC 58712A2A
Copy OK

Track 15

Filename C:\Users\ian\Desktop\Steppenwolf - Magic Carpet Ride - The Dunhill ABC Years 1967-1971(2021) [FLAC] {8CD}\Live CD6\15 - Twisted (Mono Single Version).wav

Peak level 98.8 %
Extraction speed 2.7 X
Track quality 100.0 %
Test CRC 67DC918E
Copy CRC 67DC918E
Copy OK

Track 16

Filename C:\Users\ian\Desktop\Steppenwolf - Magic Carpet Ride - The Dunhill ABC Years 1967-1971(2021) [FLAC] {8CD}\Live CD6\16 - Corina Corina (Mono Single Version).wav

Peak level 98.8 %
Extraction speed 2.4 X
Track quality 99.9 %
Test CRC BAA47B54
Copy CRC BAA47B54
Copy OK

No errors occurred

End of status report

–– CUETools DB Plugin V2.1.6

[CTDB TOCID: udJqomZVRG5WDFze2rmJHsNNZ4U-] found
Submit result: udJqomZVRG5WDFze2rmJHsNNZ4U- has been confirmed
Track | CTDB Status
1 | (10/10) Accurately ripped
2 | (10/10) Accurately ripped
3 | (10/10) Accurately ripped
4 | (10/10) Accurately ripped
5 | (10/10) Accurately ripped
6 | (10/10) Accurately ripped
7 | (10/10) Accurately ripped
8 | (10/10) Accurately ripped
9 | (10/10) Accurately ripped
10 | (10/10) Accurately ripped
11 | (10/10) Accurately ripped
12 | (10/10) Accurately ripped
13 | (10/10) Accurately ripped
14 | (10/10) Accurately ripped
15 | (10/10) Accurately ripped
16 | (10/10) Accurately ripped


==== Log checksum 9C052EBEC623150E2D9632C7F83D944187A346297446BCF732598241963E3814 ====

––-

Exact Audio Copy V1.2 from 12. August 2016

EAC extraction logfile from 26. December 2021, 14:56

Steppenwolf / 7 CD7

Used drive : HL-DT-STDVD+-RW GU90N Adapter: 1 ID: 1

Read mode : Secure
Utilize accurate stream : Yes
Defeat audio cache : Yes
Make use of C2 pointers : No

Read offset correction : 102
Overread into Lead-In and Lead-Out : No
Fill up missing offset samples with silence : Yes
Delete leading and trailing silent blocks : No
Null samples used in CRC calculations : Yes
Used interface : Native Win32 interface for Win NT & 2000
Gap handling : Appended to previous track

Used output format : User Defined Encoder
Selected bitrate : 1024 kBit/s
Quality : High
Add ID3 tag : No
Command line compressor : C:\Program Files (x86)\Exact Audio Copy\Flac\flac.exe
Additional command line options : -8 -V -T "ARTIST=%artist%" -T "TITLE=%title%" -T "ALBUM=%albumtitle%" -T "DATE=%year%" -T "TRACKNUMBER=%tracknr%" -T "GENRE=%genre%" -T "PERFORMER=%albuminterpret%" -T "COMPOSER=%composer%" %haslyrics%–tag-from-file=LYRICS="%lyricsfile%"%haslyrics% -T "ALBUMARTIST=%albumartist%" -T "DISCNUMBER=%cdnumber%" -T "TOTALDISCS=%totalcds%" -T "TOTALTRACKS=%numtracks%" -T "COMMENT=%comment%" %source% -o %dest%


TOC of the extracted CD

Track | Start | Length | Start sector | End sector
––––––––––––––––––––––––––––-
1 | 0:00.00 | 4:52.42 | 0 | 21941
2 | 4:52.42 | 3:03.48 | 21942 | 35714
3 | 7:56.15 | 4:47.09 | 35715 | 57248
4 | 12:43.24 | 6:06.65 | 57249 | 84763
5 | 18:50.14 | 3:53.35 | 84764 | 102273
6 | 22:43.49 | 3:54.15 | 102274 | 119838
7 | 26:37.64 | 2:59.47 | 119839 | 133310
8 | 29:37.36 | 5:01.35 | 133311 | 155920
9 | 34:38.71 | 5:46.57 | 155921 | 181927
10 | 40:25.53 | 3:18.70 | 181928 | 196847
11 | 43:44.48 | 3:18.67 | 196848 | 211764
12 | 47:03.40 | 3:24.42 | 211765 | 227106


Track 1

Filename C:\Users\ian\Desktop\Steppenwolf - Magic Carpet Ride - The Dunhill ABC Years 1967-1971(2021) [FLAC] {8CD}\7 CD7\01 - Ball Crusher.wav

Pre-gap length 0:00:02.00

Peak level 98.8 %
Extraction speed 1.1 X
Track quality 100.0 %
Test CRC 5AE9D2D9
Copy CRC 5AE9D2D9
Copy OK

Track 2

Filename C:\Users\ian\Desktop\Steppenwolf - Magic Carpet Ride - The Dunhill ABC Years 1967-1971(2021) [FLAC] {8CD}\7 CD7\02 - Forty Days And Forty Nights.wav

Peak level 98.8 %
Extraction speed 1.2 X
Track quality 100.0 %
Test CRC 4D7BAAD3
Copy CRC 4D7BAAD3
Copy OK

Track 3

Filename C:\Users\ian\Desktop\Steppenwolf - Magic Carpet Ride - The Dunhill ABC Years 1967-1971(2021) [FLAC] {8CD}\7 CD7\03 - Fat Jack.wav

Peak level 98.8 %
Extraction speed 1.3 X
Track quality 100.0 %
Test CRC D17AA0B0
Copy CRC D17AA0B0
Copy OK

Track 4

Filename C:\Users\ian\Desktop\Steppenwolf - Magic Carpet Ride - The Dunhill ABC Years 1967-1971(2021) [FLAC] {8CD}\7 CD7\04 - Renegade.wav

Peak level 98.8 %
Extraction speed 1.4 X
Track quality 99.9 %
Test CRC 597B4981
Copy CRC 597B4981
Copy OK

Track 5

Filename C:\Users\ian\Desktop\Steppenwolf - Magic Carpet Ride - The Dunhill ABC Years 1967-1971(2021) [FLAC] {8CD}\7 CD7\05 - Foggy Mental Breakdown.wav

Peak level 98.8 %
Extraction speed 1.5 X
Track quality 100.0 %
Test CRC 9F75784E
Copy CRC 9F75784E
Copy OK

Track 6

Filename C:\Users\ian\Desktop\Steppenwolf - Magic Carpet Ride - The Dunhill ABC Years 1967-1971(2021) [FLAC] {8CD}\7 CD7\06 - Snow Blind Friend.wav

Peak level 98.8 %
Extraction speed 1.6 X
Track quality 100.0 %
Test CRC 61522033
Copy CRC 61522033
Copy OK

Track 7

Filename C:\Users\ian\Desktop\Steppenwolf - Magic Carpet Ride - The Dunhill ABC Years 1967-1971(2021) [FLAC] {8CD}\7 CD7\07 - Who Needs Ya.wav

Peak level 98.8 %
Extraction speed 1.4 X
Track quality 99.9 %
Test CRC 6975648F
Copy CRC 6975648F
Copy OK

Track 8

Filename C:\Users\ian\Desktop\Steppenwolf - Magic Carpet Ride - The Dunhill ABC Years 1967-1971(2021) [FLAC] {8CD}\7 CD7\08 - Earschplittenloudenboomer.wav

Peak level 98.8 %
Extraction speed 1.7 X
Track quality 99.9 %
Test CRC AFEFEBBB
Copy CRC AFEFEBBB
Copy OK

Track 9

Filename C:\Users\ian\Desktop\Steppenwolf - Magic Carpet Ride - The Dunhill ABC Years 1967-1971(2021) [FLAC] {8CD}\7 CD7\09 - Hippo Stomp.wav

Peak level 98.8 %
Extraction speed 2.0 X
Track quality 100.0 %
Test CRC FA49FE0C
Copy CRC FA49FE0C
Copy OK

Track 10

Filename C:\Users\ian\Desktop\Steppenwolf - Magic Carpet Ride - The Dunhill ABC Years 1967-1971(2021) [FLAC] {8CD}\7 CD7\10 - Screaming Night Hog.wav

Peak level 98.8 %
Extraction speed 1.9 X
Track quality 100.0 %
Test CRC C9E33894
Copy CRC C9E33894
Copy OK

Track 11

Filename C:\Users\ian\Desktop\Steppenwolf - Magic Carpet Ride - The Dunhill ABC Years 1967-1971(2021) [FLAC] {8CD}\7 CD7\11 - Snowblind Friend (Single Version).wav

Peak level 98.8 %
Extraction speed 1.7 X
Track quality 99.9 %
Test CRC C22A71BD
Copy CRC C22A71BD
Copy OK

Track 12

Filename C:\Users\ian\Desktop\Steppenwolf - Magic Carpet Ride - The Dunhill ABC Years 1967-1971(2021) [FLAC] {8CD}\7 CD7\12 - Hippo Stomp (Single Version).wav

Peak level 98.8 %
Extraction speed 2.0 X
Track quality 100.0 %
Test CRC 589CFED3
Copy CRC 589CFED3
Copy OK

No errors occurred

End of status report

–– CUETools DB Plugin V2.1.6

[CTDB TOCID: adTUsei09uEe5ja5DpMs.V6YLnM-] found
Submit result: adTUsei09uEe5ja5DpMs.V6YLnM- has been confirmed
Track | CTDB Status
1 | (12/12) Accurately ripped
2 | (12/12) Accurately ripped
3 | (12/12) Accurately ripped
4 | (12/12) Accurately ripped
5 | (12/12) Accurately ripped
6 | (12/12) Accurately ripped
7 | (12/12) Accurately ripped
8 | (12/12) Accurately ripped
9 | (12/12) Accurately ripped
10 | (12/12) Accurately ripped
11 | (12/12) Accurately ripped
12 | (12/12) Accurately ripped


==== Log checksum 2E042CFD794E67B666C9DCEE0863803F511F35ADC6D72B70C3AC4295514098DB ====

––-

Exact Audio Copy V1.2 from 12. August 2016

EAC extraction logfile from 26. December 2021, 13:48

Steppenwolf / For Ladies Only CD8

Used drive : HL-DT-STDVD+-RW GU90N Adapter: 1 ID: 1

Read mode : Secure
Utilize accurate stream : Yes
Defeat audio cache : Yes
Make use of C2 pointers : No

Read offset correction : 102
Overread into Lead-In and Lead-Out : No
Fill up missing offset samples with silence : Yes
Delete leading and trailing silent blocks : No
Null samples used in CRC calculations : Yes
Used interface : Native Win32 interface for Win NT & 2000
Gap handling : Appended to previous track

Used output format : User Defined Encoder
Selected bitrate : 1024 kBit/s
Quality : High
Add ID3 tag : No
Command line compressor : C:\Program Files (x86)\Exact Audio Copy\Flac\flac.exe
Additional command line options : -8 -V -T "ARTIST=%artist%" -T "TITLE=%title%" -T "ALBUM=%albumtitle%" -T "DATE=%year%" -T "TRACKNUMBER=%tracknr%" -T "GENRE=%genre%" -T "PERFORMER=%albuminterpret%" -T "COMPOSER=%composer%" %haslyrics%–tag-from-file=LYRICS="%lyricsfile%"%haslyrics% -T "ALBUMARTIST=%albumartist%" -T "DISCNUMBER=%cdnumber%" -T "TOTALDISCS=%totalcds%" -T "TOTALTRACKS=%numtracks%" -T "COMMENT=%comment%" %source% -o %dest%


TOC of the extracted CD

Track | Start | Length | Start sector | End sector
––––––––––––––––––––––––––––-
1 | 0:00.00 | 9:18.42 | 0 | 41891
2 | 9:18.42 | 4:29.32 | 41892 | 62098
3 | 13:47.74 | 4:59.53 | 62099 | 84576
4 | 18:47.52 | 4:55.15 | 84577 | 106716
5 | 23:42.67 | 3:00.32 | 106717 | 120248
6 | 26:43.24 | 4:45.19 | 120249 | 141642
7 | 31:28.43 | 4:33.50 | 141643 | 162167
8 | 36:02.18 | 3:50.72 | 162168 | 179489
9 | 39:53.15 | 3:27.03 | 179490 | 195017
10 | 43:20.18 | 2:14.24 | 195018 | 205091
11 | 45:34.42 | 8:46.39 | 205092 | 244580
12 | 54:21.06 | 3:30.38 | 244581 | 260368
13 | 57:51.44 | 3:22.00 | 260369 | 275518


Track 1

Filename C:\Users\ian\Desktop\Steppenwolf - Magic Carpet Ride - The Dunhill ABC Years 1967-1971(2021) [FLAC] {8CD}\For Ladies Only CD8\01 - For Ladies Only.wav

Pre-gap length 0:00:02.00

Peak level 98.8 %
Extraction speed 1.3 X
Track quality 100.0 %
Test CRC F02B4EEE
Copy CRC F02B4EEE
Copy OK

Track 2

Filename C:\Users\ian\Desktop\Steppenwolf - Magic Carpet Ride - The Dunhill ABC Years 1967-1971(2021) [FLAC] {8CD}\For Ladies Only CD8\02 - Im Asking.wav

Peak level 98.8 %
Extraction speed 1.4 X
Track quality 100.0 %
Test CRC 9604CB5E
Copy CRC 9604CB5E
Copy OK

Track 3

Filename C:\Users\ian\Desktop\Steppenwolf - Magic Carpet Ride - The Dunhill ABC Years 1967-1971(2021) [FLAC] {8CD}\For Ladies Only CD8\03 - Shackles And Chains.wav

Peak level 98.8 %
Extraction speed 1.5 X
Track quality 100.0 %
Test CRC 8536254A
Copy CRC 8536254A
Copy OK

Track 4

Filename C:\Users\ian\Desktop\Steppenwolf - Magic Carpet Ride - The Dunhill ABC Years 1967-1971(2021) [FLAC] {8CD}\For Ladies Only CD8\04 - Tenderness.wav

Peak level 98.8 %
Extraction speed 1.7 X
Track quality 100.0 %
Test CRC FDD93A22
Copy CRC FDD93A22
Copy OK

Track 5

Filename C:\Users\ian\Desktop\Steppenwolf - Magic Carpet Ride - The Dunhill ABC Years 1967-1971(2021) [FLAC] {8CD}\For Ladies Only CD8\05 - The Night Times For You.wav

Peak level 98.8 %
Extraction speed 1.6 X
Track quality 100.0 %
Test CRC ABACFC7D
Copy CRC ABACFC7D
Copy OK

Track 6

Filename C:\Users\ian\Desktop\Steppenwolf - Magic Carpet Ride - The Dunhill ABC Years 1967-1971(2021) [FLAC] {8CD}\For Ladies Only CD8\06 - Jaded Strumpet.wav

Peak level 98.8 %
Extraction speed 1.8 X
Track quality 100.0 %
Test CRC C8CEE8F6
Copy CRC C8CEE8F6
Copy OK

Track 7

Filename C:\Users\ian\Desktop\Steppenwolf - Magic Carpet Ride - The Dunhill ABC Years 1967-1971(2021) [FLAC] {8CD}\For Ladies Only CD8\07 - Sparkle Eyes.wav

Peak level 98.8 %
Extraction speed 1.9 X
Track quality 100.0 %
Test CRC 82A5A2F8
Copy CRC 82A5A2F8
Copy OK

Track 8

Filename C:\Users\ian\Desktop\Steppenwolf - Magic Carpet Ride - The Dunhill ABC Years 1967-1971(2021) [FLAC] {8CD}\For Ladies Only CD8\08 - Black Pit.wav

Peak level 98.8 %
Extraction speed 1.9 X
Track quality 100.0 %
Test CRC 78A62DF3
Copy CRC 78A62DF3
Copy OK

Track 9

Filename C:\Users\ian\Desktop\Steppenwolf - Magic Carpet Ride - The Dunhill ABC Years 1967-1971(2021) [FLAC] {8CD}\For Ladies Only CD8\09 - Ride With Me.wav

Peak level 98.8 %
Extraction speed 2.0 X
Track quality 100.0 %
Test CRC 94AD8C50
Copy CRC 94AD8C50
Copy OK

Track 10

Filename C:\Users\ian\Desktop\Steppenwolf - Magic Carpet Ride - The Dunhill ABC Years 1967-1971(2021) [FLAC] {8CD}\For Ladies Only CD8\10 - In Hopes Of A Garden.wav

Peak level 59.8 %
Extraction speed 1.8 X
Track quality 100.0 %
Test CRC 077D0233
Copy CRC 077D0233
Copy OK

Track 11

Filename C:\Users\ian\Desktop\Steppenwolf - Magic Carpet Ride - The Dunhill ABC Years 1967-1971(2021) [FLAC] {8CD}\For Ladies Only CD8\11 - For Madmen Only.wav

Peak level 98.8 %
Extraction speed 2.2 X
Track quality 99.9 %
Test CRC 47F0B78B
Copy CRC 47F0B78B
Copy OK

Track 12

Filename C:\Users\ian\Desktop\Steppenwolf - Magic Carpet Ride - The Dunhill ABC Years 1967-1971(2021) [FLAC] {8CD}\For Ladies Only CD8\12 - For Ladies Only (Single Version).wav

Peak level 98.8 %
Extraction speed 1.9 X
Track quality 99.9 %
Test CRC 58B028E3
Copy CRC 58B028E3
Copy OK

Track 13

Filename C:\Users\ian\Desktop\Steppenwolf - Magic Carpet Ride - The Dunhill ABC Years 1967-1971(2021) [FLAC] {8CD}\For Ladies Only CD8\13 - Ride With Me (Mono Single Version).wav

Peak level 98.8 %
Extraction speed 2.3 X
Track quality 100.0 %
Test CRC 89489EFC
Copy CRC 89489EFC
Copy OK

No errors occurred

End of status report

–– CUETools DB Plugin V2.1.6

[CTDB TOCID: b40peWhxKi4zcW58Ji4hANO4D7U-] found
Submit result: b40peWhxKi4zcW58Ji4hANO4D7U- has been confirmed
Track | CTDB Status
1 | (12/12) Accurately ripped
2 | (12/12) Accurately ripped
3 | (12/12) Accurately ripped
4 | (12/12) Accurately ripped
5 | (12/12) Accurately ripped
6 | (12/12) Accurately ripped
7 | (12/12) Accurately ripped
8 | (12/12) Accurately ripped
9 | (12/12) Accurately ripped
10 | (12/12) Accurately ripped
11 | (12/12) Accurately ripped
12 | (12/12) Accurately ripped
13 | (12/12) Accurately ripped


==== Log checksum E1E013D791A9B8C8F406CC01733522B66AEBCCE5299FEF8FFEFD586272FA6223 ====