Subcategories

Steve Hackett: Collection (1975-2015)

Posted By: v3122
Steve Hackett: Collection (1975-2015)

Steve Hackett: Collection (1975-2015)
EAC | Flac(Image) + Cue + Log & MP3 CBR 320Kbps
18CD | Label: Various | ~ 4978 or 2164 Mb | Artwork(png) -> 2663 Mb
Progressive Rock

Stephen Richard Hackett (born 12 February 1950) is an English musician, songwriter, singer, and producer who gained prominence as the lead guitarist of the progressive rock band Genesis from 1971 to 1977. Hackett contributed to six Genesis studio albums, three live albums, seven singles and one EP before he left to pursue a solo career. He was inducted into the Rock and Roll Hall of Fame as a member of Genesis in 2010.

Hackett released his first solo album, Voyage of the Acolyte, while still a member of Genesis in 1975. After a series of further solo albums beginning in 1978, Hackett co-founded the supergroup GTR with Steve Howe in 1986. The group released the self-titled album GTR, which peaked at No. 11 on the Billboard 200 in the United States and spawned the Top 20 single "When the Heart Rules the Mind". When Hackett left GTR in 1987, the group disbanded. Hackett then resumed his solo career. He has released albums and toured worldwide on a regular basis since.

Hackett's body of work encompasses many styles; in addition to his work in progressive rock, he has explored pop, blues, world music and classical music on his solo recordings. According to Guitar World: "Hackett's early explorations of two-handed tapping and sweep picking were far ahead of their time, and influenced Eddie Van Halen and Brian May." Other guitarists influenced by Hackett include Alex Lifeson and Steve Rothery…

~ wiki
Steve Hackett: Collection (1975-2015):

Steve Hackett: Collection (1975-2015)

Tracklist CD01 - 1975 - Voyage Of The Acolyte (1991 Caroline Records, CAROL 1863-2, USA):

1. Ace Of Wands 5:25
2. Hands Of The Priestess Part I 3:38
3. A Tower Struck Down 4:52
4. Hands Of The Priestess Part II 1:32
5. The Hermit 4:50
6. Star Of Sirius 7:07
7. The Lovers 1:45
8. Shadow Of The Hierophant 11:45

Exact Audio Copy V1.0 beta 3 from 29. August 2011

EAC extraction logfile from 22. November 2014, 15:46

Steve Hackett / Voyage Of The Acolyte

Used drive : PLEXTOR DVDR PX-891SA Adapter: 0 ID: 2

Read mode : Secure
Utilize accurate stream : Yes
Defeat audio cache : Yes
Make use of C2 pointers : No

Read offset correction : 6
Overread into Lead-In and Lead-Out : No
Fill up missing offset samples with silence : Yes
Delete leading and trailing silent blocks : No
Null samples used in CRC calculations : Yes
Used interface : Installed external ASPI interface

Used output format : User Defined Encoder
Selected bitrate : 320 kBit/s
Quality : High
Add ID3 tag : No
Command line compressor : C:\Program Files\Exact Audio Copy 1.0\Flac\flac.exe
Additional command line options : -V -8 -T "Date=%year%" -T "Genre=%genre%" %source%


TOC of the extracted CD

Track | Start | Length | Start sector | End sector
––––––––––––––––––––––––––––-
1 | 0:00.32 | 5:25.05 | 32 | 24411
2 | 5:25.37 | 3:31.60 | 24412 | 40296
3 | 8:57.22 | 4:49.33 | 40297 | 62004
4 | 13:46.55 | 1:34.22 | 62005 | 69076
5 | 15:21.02 | 4:49.30 | 69077 | 90781
6 | 20:10.32 | 7:07.60 | 90782 | 122866
7 | 27:18.17 | 1:49.43 | 122867 | 131084
8 | 29:07.60 | 11:43.20 | 131085 | 183829


Range status and errors

Selected range

Filename K:\Lossless Temp\Steve Hackett\Steve Hackett - Voyage Of The Acolyte - 1975 (1991 Caroline Records, CAROL 1863-2, USA)\Steve Hackett - Voyage Of The Acolyte.wav

Peak level 93.6 %
Extraction speed 6.0 X
Range quality 100.0 %
Test CRC 2474CEE1
Copy CRC 2474CEE1
Copy OK

No errors occurred


AccurateRip summary

Track 1 accurately ripped (confidence 9) [F1B70A52] (AR v2)
Track 2 accurately ripped (confidence 9) [06F8AF58] (AR v2)
Track 3 accurately ripped (confidence 9) [8139F279] (AR v2)
Track 4 accurately ripped (confidence 8) [9A934CD0] (AR v2)
Track 5 accurately ripped (confidence 9) [A2FE55EA] (AR v2)
Track 6 accurately ripped (confidence 9) [4A193E19] (AR v2)
Track 7 accurately ripped (confidence 9) [F41AFB5B] (AR v2)
Track 8 accurately ripped (confidence 9) [1137441E] (AR v2)

All tracks accurately ripped

End of status report

==== Log checksum 24626F19F4A9C52512C33F7285D9F3FD401AC21CFB243D03A0D2CB6D37625327 ====


[CUETools log; Date: 22.11.2014 15:55:34; Version: 2.0.9]
Pregap length 00:00:32.
[AccurateRip ID: 000b0da3-004a5397-65099308] found.
Track [ CRC ] Status
01 [f7bbcb42] (07/29) Accurately ripped
02 [91049642] (08/30) Accurately ripped
03 [a69f1583] (08/30) Accurately ripped
04 [f320289b] (08/29) Accurately ripped
05 [11df048e] (08/30) Accurately ripped
06 [ff3bdde9] (07/29) Accurately ripped
07 [13b5c85c] (08/30) Accurately ripped
08 [1ea14f5f] (06/28) Accurately ripped
Offsetted by -900:
01 [cb6f9a30] (05/29) Accurately ripped
02 [84661e18] (05/30) Accurately ripped
03 [88548ffe] (05/30) Accurately ripped
04 [0a9fe9c6] (05/29) Accurately ripped
05 [9e75238c] (05/30) Accurately ripped
06 [2bc7aa7a] (05/29) Accurately ripped
07 [356a676d] (05/30) Accurately ripped
08 [a97a5d6a] (05/28) Accurately ripped

Track Peak [ CRC32 ] [W/O NULL] [ LOG ]
– 93,6 [2474CEE1] [5399619E] CRC32
01 93,6 [6BC58010] [332B70EA]
02 48,6 [CD4BE0D9] [AFCCA616]
03 72,8 [91ECA7C6] [0A83D0F5]
04 44,3 [53888DEE] [9A956DEC]
05 34,8 [04C24566] [46106023]
06 75,9 [45F8CC38] [538F157E]
07 18,1 [647F4E50] [39B91126]
08 91,0 [25497294] [DE507D12]


Steve Hackett: Collection (1975-2015)

Tracklist CD02 - 1978 - Please Don't Touch (1988 Virgin Records, CDSCD 4012, UK):

1 Narnia 3:55
2 Carry On Up The Vicarage (A Musical Tribute To Agatha Christie) 3:03
3 Racing In A 4:53
4 Kim 2:06
5 How Can I? 4:28
6 Hoping Love Will Last 4:04
7 Land Of A Thousand Autumns 1:40
8 Please Don't Touch 3:32
9 The Voice Of Necam 3:04
10 Icarus Ascending 6:06

Exact Audio Copy V1.0 beta 1 from 15. November 2010

EAC extraction logfile from 19. January 2011, 22:38

Steve Hackett / Please Don't Touch (CDSCD 4012)

Used drive : TEAC DV-W516GDM Adapter: 0 ID: 1

Read mode : Secure
Utilize accurate stream : Yes
Defeat audio cache : Yes
Make use of C2 pointers : No

Read offset correction : 6
Overread into Lead-In and Lead-Out : No
Fill up missing offset samples with silence : Yes
Delete leading and trailing silent blocks : No
Null samples used in CRC calculations : Yes
Used interface : Native Win32 interface for Win NT & 2000

Used output format : User Defined Encoder
Selected bitrate : 896 kBit/s
Quality : High
Add ID3 tag : No
Command line compressor : C:\Program Files\Exact Audio Copy 1.0\Flac\flac.exe
Additional command line options : -8 -V %s


TOC of the extracted CD

Track | Start | Length | Start sector | End sector
––––––––––––––––––––––––––––-
1 | 0:00.33 | 4:06.52 | 33 | 18534
2 | 4:07.10 | 3:10.73 | 18535 | 32857
3 | 7:18.08 | 5:07.20 | 32858 | 55902
4 | 12:25.28 | 2:13.10 | 55903 | 65887
5 | 14:38.38 | 4:41.00 | 65888 | 86962
6 | 19:19.38 | 4:24.42 | 86963 | 106804
7 | 23:44.05 | 1:40.58 | 106805 | 114362
8 | 25:24.63 | 3:39.05 | 114363 | 130792
9 | 29:03.68 | 3:10.67 | 130793 | 145109
10 | 32:14.60 | 6:22.48 | 145110 | 173807


Range status and errors

Selected range

Filename C:\Olaf der Weisse\Steve Hackett . 1978 . Please Don't Touch (CDSCD 4012)\Steve Hackett - Please Don't Touch (CDSCD 4012).wav

Peak level 76.5 %
Extraction speed 0.2 X
Range quality 100.0 %
Test CRC 1702A853
Copy CRC 1702A853
Copy OK

No errors occurred


AccurateRip summary

Track 1 not present in database
Track 2 not present in database
Track 3 not present in database
Track 4 not present in database
Track 5 not present in database
Track 6 not present in database
Track 7 not present in database
Track 8 not present in database
Track 9 not present in database
Track 10 not present in database

None of the tracks are present in the AccurateRip database

End of status report

==== Log checksum 1D24F3B4C9F56E1BB9247DA5A4A79690F934AD05FA6EB8A0981637C787B8A6CD ====


[CUETools log; Date: 19.01.2011 23:07:35; Version: 2.0.9]
Pregap length 00:00:33.
[AccurateRip ID: 000e34f3-00711db3-83090d0a] found.
Track [ CRC ] Status
01 [133caca6] (5/5) Accurately ripped
02 [05cad569] (5/5) Accurately ripped
03 [5369c845] (6/6) Accurately ripped
04 [a6030c4c] (6/6) Accurately ripped
05 [4e5519cd] (6/6) Accurately ripped
06 [473c0c40] (5/5) Accurately ripped
07 [98f964ea] (6/6) Accurately ripped
08 [a32f1f0c] (6/6) Accurately ripped
09 [d1bead5b] (6/6) Accurately ripped
10 [a42afc28] (5/5) Accurately ripped

Track Peak [ CRC32 ] [W/O NULL] [ LOG ]
– 76,5 [1702A853] [4471AD47] CRC32
01 72,7 [6558C6E2] [58C36649]
02 76,0 [5700537A] [BC697FB4]
03 69,6 [C029EBD5] [9B160856]
04 31,2 [8DDFDF68] [F3F51469]
05 55,2 [26EA6C3D] [51A74096]
06 71,2 [6578501B] [8DC43191]
07 51,5 [F05C9399] [A596CF44]
08 76,5 [978E5959] [FF5AA222]
09 37,7 [B795FE6C] [71AF7AAB]
10 64,5 [9547E804] [173132BD]


Steve Hackett: Collection (1975-2015)

Tracklist CD03 - 1979 - Spectral Mornings (1989 Virgin Records, CDSCD 4017, UK):

1. Every Day
2. The Virgin And The Gypsy
3. The Red Flowers Of Tachai Blooms Everywhere
4. Clocks - The Angel Of Mons
5. The Ballad Of The Decomposing Man (Featuring "The Office Party")
6. Lost Time In Córdoba
7. Tigermoth
8. Spectral Mornings

Exact Audio Copy V1.0 beta 1 from 15. November 2010

EAC extraction logfile from 20. January 2011, 0:05

Steve Hackett / Spectral Mornings (CDSCD 4017)

Used drive : TEAC DV-W516GDM Adapter: 0 ID: 1

Read mode : Secure
Utilize accurate stream : Yes
Defeat audio cache : Yes
Make use of C2 pointers : No

Read offset correction : 6
Overread into Lead-In and Lead-Out : No
Fill up missing offset samples with silence : Yes
Delete leading and trailing silent blocks : No
Null samples used in CRC calculations : Yes
Used interface : Native Win32 interface for Win NT & 2000

Used output format : User Defined Encoder
Selected bitrate : 896 kBit/s
Quality : High
Add ID3 tag : No
Command line compressor : C:\Program Files\Exact Audio Copy 1.0\Flac\flac.exe
Additional command line options : -8 -V %s


TOC of the extracted CD

Track | Start | Length | Start sector | End sector
––––––––––––––––––––––––––––-
1 | 0:00.00 | 6:14.57 | 0 | 28106
2 | 6:14.57 | 4:28.35 | 28107 | 48241
3 | 10:43.17 | 2:05.48 | 48242 | 57664
4 | 12:48.65 | 4:16.62 | 57665 | 76926
5 | 17:05.52 | 3:48.23 | 76927 | 94049
6 | 20:54.00 | 4:03.32 | 94050 | 112306
7 | 24:57.32 | 7:35.18 | 112307 | 146449
8 | 32:32.50 | 6:32.67 | 146450 | 175916


Range status and errors

Selected range

Filename C:\Olaf der Weisse\Steve Hackett . 1979 . Spectral Mornings (CDSCD 4017)\Steve Hackett - Spectral Mornings (CDSCD 4017).wav

Peak level 100.0 %
Extraction speed 0.2 X
Range quality 100.0 %
Test CRC BA8F6D73
Copy CRC BA8F6D73
Copy OK

No errors occurred


AccurateRip summary

Track 1 accurately ripped (confidence 11) [954EC3AB]
Track 2 accurately ripped (confidence 9) [001A5A55]
Track 3 accurately ripped (confidence 10) [CBFCE7D6]
Track 4 accurately ripped (confidence 10) [2C520C90]
Track 5 accurately ripped (confidence 10) [FF01E8FC]
Track 6 accurately ripped (confidence 10) [25987336]
Track 7 accurately ripped (confidence 10) [FC25EF5C]
Track 8 accurately ripped (confidence 10) [0D892716]

All tracks accurately ripped

End of status report

==== Log checksum EBD2F61CEDF0ACFC11EBB778D1A6969EFC281290D9502C51EA84E50EA25370FE ====


[CUETools log; Date: 20.01.2011 2:15:49; Version: 2.0.9]
[AccurateRip ID: 000b4951-004b18c2-71092908] found.
Track [ CRC ] Status
01 [954ec3ab] (11/18) Accurately ripped
02 [001a5a55] (09/16) Accurately ripped
03 [cbfce7d6] (10/17) Accurately ripped
04 [2c520c90] (10/17) Accurately ripped
05 [ff01e8fc] (10/17) Accurately ripped
06 [25987336] (10/17) Accurately ripped
07 [fc25ef5c] (10/17) Accurately ripped
08 [0d892716] (10/16) Accurately ripped
Offsetted by 272:
01 [dafe79d6] (07/18) Accurately ripped
02 [aea702b7] (07/16) Accurately ripped
03 [5db23bb2] (07/17) Accurately ripped
04 [8ca38804] (07/17) Accurately ripped
05 [fd9b4086] (07/17) Accurately ripped
06 [2dbcabb4] (07/17) Accurately ripped
07 [8a9d77a8] (07/17) Accurately ripped
08 [dbb4d59d] (06/16) Accurately ripped

Track Peak [ CRC32 ] [W/O NULL] [ LOG ]
– 100,0 [BA8F6D73] [E9737EC7] CRC32
01 100,0 [457CD67F] [5070F198]
02 58,7 [5E109174] [491F7801]
03 62,2 [D1F170FB] [2CBE07E3]
04 91,4 [F65C4DF7] [E8440D1F]
05 70,9 [7C5EEABF] [6658EC5F]
06 52,4 [FAC0DF3E] [797746DE]
07 86,5 [64725831] [C7387444]
08 84,3 [FCD95219] [793AE292]


Steve Hackett: Collection (1975-2015)

Tracklist CD04 - 1980 - Defector (1989 Virgin Records, CDSCD 4018, UK):

1. The Steps 6:06
2. Time To Get Out 4:12
3. Slogans 3:57
4. Leaving 3:04
5. Two Vamps As Guests 1:53
6. Jacuzzi 4:36
7. Hammer In The Sand 3:11
8. The Toast 3:42
9. The Show 3:41
10. Sentimental Institution 2:33

Exact Audio Copy V1.0 beta 1 from 15. November 2010

EAC extraction logfile from 20. January 2011, 2:22

Steve Hackett / Defector (CDSCD 4018)

Used drive : TEAC DV-W516GDM Adapter: 0 ID: 1

Read mode : Secure
Utilize accurate stream : Yes
Defeat audio cache : Yes
Make use of C2 pointers : No

Read offset correction : 6
Overread into Lead-In and Lead-Out : No
Fill up missing offset samples with silence : Yes
Delete leading and trailing silent blocks : No
Null samples used in CRC calculations : Yes
Used interface : Native Win32 interface for Win NT & 2000

Used output format : User Defined Encoder
Selected bitrate : 896 kBit/s
Quality : High
Add ID3 tag : No
Command line compressor : C:\Program Files\Exact Audio Copy 1.0\Flac\flac.exe
Additional command line options : -8 -V %s


TOC of the extracted CD

Track | Start | Length | Start sector | End sector
––––––––––––––––––––––––––––-
1 | 0:00.33 | 6:05.42 | 33 | 27449
2 | 6:06.00 | 4:12.08 | 27450 | 46357
3 | 10:18.08 | 3:57.30 | 46358 | 64162
4 | 14:15.38 | 3:04.30 | 64163 | 77992
5 | 17:19.68 | 1:53.30 | 77993 | 86497
6 | 19:13.23 | 4:36.12 | 86498 | 107209
7 | 23:49.35 | 3:10.50 | 107210 | 121509
8 | 27:00.10 | 3:42.45 | 121510 | 138204
9 | 30:42.55 | 3:40.58 | 138205 | 154762
10 | 34:23.38 | 2:33.30 | 154763 | 166267


Range status and errors

Selected range

Filename C:\Olaf der Weisse\Steve Hackett . 1980 . Defector (CDSCD 4018)\Steve Hackett - Defector (CDSCD 4018).wav

Peak level 89.2 %
Extraction speed 0.0 X
Range quality 99.9 %
Test CRC 813B9944
Copy CRC 813B9944
Copy OK

No errors occurred


AccurateRip summary

Track 1 accurately ripped (confidence 7) [98C70591]
Track 2 accurately ripped (confidence 7) [D132E77A]
Track 3 accurately ripped (confidence 7) [29B1F987]
Track 4 accurately ripped (confidence 7) [19939FE3]
Track 5 accurately ripped (confidence 7) [116B3067]
Track 6 accurately ripped (confidence 7) [8905EE29]
Track 7 accurately ripped (confidence 7) [AFEAE9BD]
Track 8 accurately ripped (confidence 7) [140789C5]
Track 9 accurately ripped (confidence 7) [29F20FC8]
Track 10 accurately ripped (confidence 7) [23D87661]

All tracks accurately ripped

End of status report

==== Log checksum 0B206329D13920F6F08DCB44C3D34718F7774DEC692EDB18FBEE19E8F47DAE2F ====


[CUETools log; Date: 20.01.2011 2:50:39; Version: 2.0.9]
Pregap length 00:00:33.
[AccurateRip ID: 000f1cf3-00758839-7308a80a] found.
Track [ CRC ] Status
01 [98c70591] (7/7) Accurately ripped
02 [d132e77a] (7/7) Accurately ripped
03 [29b1f987] (7/7) Accurately ripped
04 [19939fe3] (7/7) Accurately ripped
05 [116b3067] (7/7) Accurately ripped
06 [8905ee29] (7/7) Accurately ripped
07 [afeae9bd] (7/7) Accurately ripped
08 [140789c5] (7/7) Accurately ripped
09 [29f20fc8] (7/7) Accurately ripped
10 [23d87661] (7/7) Accurately ripped

Track Peak [ CRC32 ] [W/O NULL] [ LOG ]
– 89,2 [813B9944] [2F6CD78A] CRC32
01 81,9 [4AAA1EA7] [EFCE4D11]
02 85,0 [B77135A1] [1A02538C]
03 88,9 [785E7B67] [B57B2E16]
04 62,0 [AA39B8C3] [093391F3]
05 47,0 [D0D7CE7B] [33B38AB6]
06 80,7 [F91C300B] [CD22EA4D]
07 49,2 [86819387] [662F37B8]
08 62,6 [A5AC7217] [D30C4CC8]
09 89,2 [09904DB9] [777C30B4]
10 58,7 [083B76BE] [2413BD96]


Steve Hackett: Collection (1975-2015)

Tracklist CD05 - 1983 - Highly Strung (1989 Virgin Records, HACKCD1, UK):

01 - Camino Royale
02 - Cell 151
03 - Always Somewhere Else
04 - Walking Through Walls
05 - Give It Away
06 - Weightless
07 - Group Therapy
08 - India Rubber Man
09 - Hackett To Pieces

Exact Audio Copy V0.99 prebeta 5 from 4. May 2009

Отчёт EAC об извлечении, выполненном 17. января 2011, 14:28

Steve Hackett / Highly Strung

Дисковод: PIONEER DVD-RW DVR-115D Adapter: 1 ID: 0

Режим чтения : Достоверность
Использование точного потока : Да
Отключение кэша аудио : Да
Использование указателей C2 : Нет

Коррекция смещения при чтении : 48
Способность читать области Lead-in и Lead-out : Нет
Заполнение пропущенных сэмплов тишиной : Да
Удаление блоков с тишиной в начале и конце : Нет
При вычислениях CRC использовались нулевые сэмплы : Да
Интерфейс : Установленный внешний ASPI-интерфейс

Выходной формат : Внутренние WAV-операции
Формат сэмплов : 44.100 Гц; 16 бит; стерео


TOC извлечённого CD

Трек | Старт | Длительность | Начальный сектор | Конечный сектор
––––––––––––––––––––––––––––––––––-
1 | 0:00.02 | 5:25.65 | 2 | 24441
2 | 5:25.67 | 6:25.53 | 24442 | 53369
3 | 11:51.45 | 3:58.27 | 53370 | 71246
4 | 15:49.72 | 3:45.40 | 71247 | 88161
5 | 19:35.37 | 4:05.65 | 88162 | 106601
6 | 23:41.27 | 3:29.73 | 106602 | 122349
7 | 27:11.25 | 5:44.65 | 122350 | 148214
8 | 32:56.15 | 2:29.42 | 148215 | 159431
9 | 35:25.57 | 2:38.10 | 159432 | 171291


Характеристики диапазона извлечения и сообщения об ошибках

Выбранный диапазон

Имя файла K:\Lossless MUSIC Archive\Art Rock\England\Steve Hackett\Steve Hackett - Highly Strung - 1983 (Virgin Records 1989, HACKCD1)\Steve Hackett - Highly Strung.wav

Пиковый уровень 100.0 %
Качество диапазона 100.0 %
CRC теста D00BDCD2
CRC копии D00BDCD2
Копирование… OK

Ошибок не произошло


AccurateRip: сводка

Трек 1 точное извлечение (доверие 12) [06A8106A]
Трек 2 точное извлечение (доверие 12) [056D522B]
Трек 3 точное извлечение (доверие 12) [AF189674]
Трек 4 точное извлечение (доверие 12) [0F657D90]
Трек 5 точное извлечение (доверие 12) [6D687764]
Трек 6 точное извлечение (доверие 12) [5F4D38C6]
Трек 7 точное извлечение (доверие 12) [BCA4314C]
Трек 8 точное извлечение (доверие 12) [9C6BB22A]
Трек 9 точное извлечение (доверие 12) [4A48FC7F]

Все треки извлечены точно

Конец отчёта


[CUETools log; Date: 07.07.2015 10:15:52; Version: 2.0.9]
Pregap length 00:00:02.
[AccurateRip ID: 000e6bda-00673760-7408eb09] found.
Track [ CRC ] Status
01 [06a8106a] (16/33) Accurately ripped
02 [056d522b] (16/33) Accurately ripped
03 [af189674] (16/33) Accurately ripped
04 [0f657d90] (16/33) Accurately ripped
05 [6d687764] (16/33) Accurately ripped
06 [5f4d38c6] (16/33) Accurately ripped
07 [bca4314c] (16/32) Accurately ripped
08 [9c6bb22a] (16/32) Accurately ripped
09 [4a48fc7f] (16/33) Accurately ripped
Offsetted by -492:
01 [8174eff2] (03/33) Accurately ripped
02 [848fc432] (03/33) Accurately ripped
03 [caad5a65] (03/33) Accurately ripped
04 [ec26dd64] (03/33) Accurately ripped
05 [0ffd434d] (03/33) Accurately ripped
06 [f8559fff] (03/33) Accurately ripped
07 [c0ff258a] (03/32) Accurately ripped
08 [0fc734c1] (03/32) Accurately ripped
09 [fc0051cf] (11/33) No match but offset

Track Peak [ CRC32 ] [W/O NULL] [ LOG ]
– 100,0 [D00BDCD2] [3ABC9AA5] CRC32
01 98,8 [3AEA4F62] [02207936]
02 88,8 [AE02EE10] [822BD061]
03 84,2 [398B9195] [088D76B6]
04 100,0 [56C5BDAB] [E1B9C1EC]
05 87,7 [B2FCD670] [D25DABCC]
06 91,1 [8D33CA0F] [5B764B67]
07 83,4 [C302A3DD] [3F924493]
08 39,8 [48739100] [AD9C80CD]
09 78,9 [4A6F267A] [59D96455]


Steve Hackett: Collection (1975-2015)

Tracklist CD06 - 1983 - Bay Of Kings (1994 WHD Entertainment Inc., IECP - 10101, Japan):

01 - Bay Of Kings
02 - The Journey
03 - Kim
04 - Marigold
05 - St Elmo's Fire
06 - Petropolis
07 - Second Chance
08 - Cast Adrift
09 - Horizons
10 - Black Light
11 - The Barren Land
12 - Calmaria
13 - Time Lapse At Milton Keynes
14 - Tales Of The Riverbank
15 - Skye Boat Song

Exact Audio Copy V0.99 prebeta 5 from 4. May 2009

Отчёт EAC об извлечении, выполненном 17. января 2011, 14:51

Steve Hackett / Bay Of Kings

Дисковод: PIONEER DVD-RW DVR-115D Adapter: 1 ID: 0

Режим чтения : Достоверность
Использование точного потока : Да
Отключение кэша аудио : Да
Использование указателей C2 : Нет

Коррекция смещения при чтении : 48
Способность читать области Lead-in и Lead-out : Нет
Заполнение пропущенных сэмплов тишиной : Да
Удаление блоков с тишиной в начале и конце : Нет
При вычислениях CRC использовались нулевые сэмплы : Да
Интерфейс : Установленный внешний ASPI-интерфейс

Выходной формат : Внутренние WAV-операции
Формат сэмплов : 44.100 Гц; 16 бит; стерео


TOC извлечённого CD

Трек | Старт | Длительность | Начальный сектор | Конечный сектор
––––––––––––––––––––––––––––––––––-
1 | 0:00.00 | 4:56.66 | 0 | 22265
2 | 4:56.66 | 4:14.56 | 22266 | 41371
3 | 9:11.47 | 2:25.14 | 41372 | 52260
4 | 11:36.61 | 3:36.35 | 52261 | 68495
5 | 15:13.21 | 3:08.58 | 68496 | 82653
6 | 18:22.04 | 2:45.56 | 82654 | 95084
7 | 21:07.60 | 1:58.10 | 95085 | 103944
8 | 23:05.70 | 2:15.21 | 103945 | 114090
9 | 25:21.16 | 1:47.60 | 114091 | 122175
10 | 27:09.01 | 2:31.07 | 122176 | 133507
11 | 29:40.08 | 3:46.40 | 133508 | 150497
12 | 33:26.48 | 3:23.08 | 150498 | 165730
13 | 36:49.56 | 3:56.33 | 165731 | 183463
14 | 40:46.14 | 2:02.51 | 183464 | 192664
15 | 42:48.65 | 1:35.68 | 192665 | 199857


Характеристики диапазона извлечения и сообщения об ошибках

Выбранный диапазон

Имя файла K:\Lossless MUSIC Archive\Art Rock\England\Steve Hackett\Steve Hackett - Bay Of Kings - 1983 (Japan, 1994, IECP - 10101)\Steve Hackett - Bay Of Kings.wav

Пиковый уровень 100.0 %
Качество диапазона 100.0 %
CRC теста 336ECCF1
CRC копии 336ECCF1
Копирование… OK

Ошибок не произошло


AccurateRip: сводка

Трек 1 точное извлечение (доверие 1) [0CDA5D20]
Трек 2 точное извлечение (доверие 1) [C7606AD4]
Трек 3 точное извлечение (доверие 1) [E1FC0285]
Трек 4 точное извлечение (доверие 1) [22CC6258]
Трек 5 точное извлечение (доверие 1) [E725AB84]
Трек 6 точное извлечение (доверие 1) [D6570646]
Трек 7 точное извлечение (доверие 1) [E1E17566]
Трек 8 точное извлечение (доверие 1) [4FA83123]
Трек 9 точное извлечение (доверие 1) [86364558]
Трек 10 точное извлечение (доверие 1) [06B74D75]
Трек 11 точное извлечение (доверие 1) [6D8AE0C5]
Трек 12 точное извлечение (доверие 1) [7A35096D]
Трек 13 точное извлечение (доверие 1) [A854F141]
Трек 14 точное извлечение (доверие 1) [ADFF17C5]
Трек 15 точное извлечение (доверие 1) [71A68197]

Все треки извлечены точно

Конец отчёта


[CUETools log; Date: 07.07.2015 10:17:40; Version: 2.0.9]
[AccurateRip ID: 001a5e46-0122a2b9-cb0a680f] found.
Track [ CRC ] Status
01 [0cda5d20] (3/9) Accurately ripped
02 [c7606ad4] (3/9) Accurately ripped
03 [e1fc0285] (3/9) Accurately ripped
04 [22cc6258] (3/9) Accurately ripped
05 [e725ab84] (3/9) Accurately ripped
06 [d6570646] (3/9) Accurately ripped
07 [e1e17566] (3/9) Accurately ripped
08 [4fa83123] (3/9) Accurately ripped
09 [86364558] (3/9) Accurately ripped
10 [06b74d75] (3/9) Accurately ripped
11 [6d8ae0c5] (3/9) Accurately ripped
12 [7a35096d] (3/9) Accurately ripped
13 [a854f141] (3/9) Accurately ripped
14 [adff17c5] (3/9) Accurately ripped
15 [71a68197] (3/9) Accurately ripped

Track Peak [ CRC32 ] [W/O NULL] [ LOG ]
– 100,0 [336ECCF1] [7AD38FC0] CRC32
01 92,8 [6B032A8C] [97B3AAF3]
02 96,6 [93EB2EE4] [FA4E7E59]
03 61,0 [8E11DFA3] [21FFC053]
04 100,0 [6914C639] [CC773989]
05 95,6 [39B1C175] [6665981E]
06 96,2 [40091CA6] [F1B0376C]
07 57,1 [5B9A4CA3] [91B9E31A]
08 84,0 [D52F9648] [89E70A63]
09 80,3 [7623C302] [4ACA0DAA]
10 70,2 [33E3398E] [69C4A3F5]
11 77,3 [16EDE349] [C9749FB6]
12 60,3 [B79A84B3] [9DD2F31D]
13 91,5 [EE7B559E] [5E18D673]
14 60,0 [AF8CD75B] [552036EB]
15 57,2 [803EC763] [CEA4686F]


Steve Hackett: Collection (1975-2015)

Tracklist CD07 - 1984 - Till We Have Faces (1990 Castle, CLC 5004, Germany):

1 Duel (Based On The Film By Steven Spielberg) 4:50
2 Matilda Smith-Williams Home For The Aged 8:03
3 Let Me Count The Ways 6:05
4 A Doll That's Made In Japan 3:57
5 Myopia 2:56
6 What's My Name 7:05
7 The Rio Connection 3:23
8 Taking The Easy Way Out 3:49
9 When You Wish Upon A Star 0:52

Exact Audio Copy V1.0 beta 1 from 15. November 2010

EAC extraction logfile from 20. January 2011, 3:46

Steve Hackett / Till We Have Faces (CLC 5004)

Used drive : TEAC DV-W516GDM Adapter: 0 ID: 1

Read mode : Secure
Utilize accurate stream : Yes
Defeat audio cache : Yes
Make use of C2 pointers : No

Read offset correction : 6
Overread into Lead-In and Lead-Out : No
Fill up missing offset samples with silence : Yes
Delete leading and trailing silent blocks : No
Null samples used in CRC calculations : Yes
Used interface : Native Win32 interface for Win NT & 2000

Used output format : User Defined Encoder
Selected bitrate : 896 kBit/s
Quality : High
Add ID3 tag : No
Command line compressor : C:\Program Files\Exact Audio Copy 1.0\Flac\flac.exe
Additional command line options : -8 -V %s


TOC of the extracted CD

Track | Start | Length | Start sector | End sector
––––––––––––––––––––––––––––-
1 | 0:00.00 | 4:50.30 | 0 | 21779
2 | 4:50.30 | 8:03.57 | 21780 | 58061
3 | 12:54.12 | 6:05.63 | 58062 | 85499
4 | 19:00.00 | 3:57.37 | 85500 | 103311
5 | 22:57.37 | 2:56.05 | 103312 | 116516
6 | 25:53.42 | 7:05.20 | 116517 | 148411
7 | 32:58.62 | 3:23.73 | 148412 | 163709
8 | 36:22.60 | 3:49.10 | 163710 | 180894
9 | 40:11.70 | 0:52.05 | 180895 | 184799


Range status and errors

Selected range

Filename C:\Olaf der Weisse\Steve Hackett . 1984 . Till We Have Faces (CLC 5004)\Steve Hackett - Till We Have Faces (CLC 5004).wav

Peak level 86.5 %
Extraction speed 0.0 X
Range quality 100.0 %
Test CRC 500458AB
Copy CRC 500458AB
Copy OK

No errors occurred


AccurateRip summary

Track 1 accurately ripped (confidence 1) [EC0A0AB8]
Track 2 accurately ripped (confidence 1) [DDCE77A9]
Track 3 accurately ripped (confidence 1) [06D54A25]
Track 4 accurately ripped (confidence 1) [D3E4BD31]
Track 5 accurately ripped (confidence 1) [7952EEDD]
Track 6 accurately ripped (confidence 1) [285024F5]
Track 7 accurately ripped (confidence 1) [8C5F70BD]
Track 8 accurately ripped (confidence 1) [0377E193]
Track 9 accurately ripped (confidence 1) [631BD64E]

All tracks accurately ripped

End of status report

==== Log checksum EA57C6A342ECF7D32FE7982348E6EE30E5BE30DB56750F1331ED08F90687C0CA ====


[CUETools log; Date: 20.01.2011 15:05:32; Version: 2.0.9]
[AccurateRip ID: 0010384c-0073f79c-7a09a009] found.
Track [ CRC ] Status
01 [ec0a0ab8] (1/1) Accurately ripped
02 [ddce77a9] (1/1) Accurately ripped
03 [06d54a25] (1/1) Accurately ripped
04 [d3e4bd31] (1/1) Accurately ripped
05 [7952eedd] (1/1) Accurately ripped
06 [285024f5] (1/1) Accurately ripped
07 [8c5f70bd] (1/1) Accurately ripped
08 [0377e193] (1/1) Accurately ripped
09 [631bd64e] (1/1) Accurately ripped

Track Peak [ CRC32 ] [W/O NULL] [ LOG ]
– 86,5 [500458AB] [2E32CEC8] CRC32
01 86,5 [9D316FDB] [02092DF4]
02 78,1 [B5DEE889] [DB6C4FF9]
03 78,2 [49AC91D5] [1066BE51]
04 70,4 [1990D3D2] [0FFE4720]
05 84,1 [FFDAB765] [453F96E8]
06 77,4 [F11779D1] [7D28F88E]
07 79,7 [CDFF87E6] [7371CABA]
08 56,4 [899F47CA] [1C26E399]
09 21,7 [8B95F860] [9B8BC727]


Steve Hackett: Collection (1975-2015)

Tracklist CD08 - 1986 - Feedback 86 (2000 Camino Records, CAMCD21, UK):

01 - Cassandra
02 - Prizefighters
03 - Slot Machine
04 - Stadiums of the Damned
05 - Don't Fall
06 - Oh How I Love You
07 - Notre Dame Les Fleurs
08 - The Gulf

Exact Audio Copy V1.0 beta 3 from 29. August 2011

EAC extraction logfile from 21. June 2012, 14:28

Steve Hackett / Feedback 86

Used drive : PIONEER DVD-RW DVR-115D Adapter: 1 ID: 0

Read mode : Secure
Utilize accurate stream : Yes
Defeat audio cache : Yes
Make use of C2 pointers : No

Read offset correction : 48
Overread into Lead-In and Lead-Out : No
Fill up missing offset samples with silence : Yes
Delete leading and trailing silent blocks : No
Null samples used in CRC calculations : Yes
Used interface : Installed external ASPI interface

Used output format : User Defined Encoder
Selected bitrate : 320 kBit/s
Quality : High
Add ID3 tag : No
Command line compressor : C:\Program Files\Exact Audio Copy 1.0\Flac\flac.exe
Additional command line options : -V -8 -T "Genre=%genre%" -T "Artist=%artist%" -T "Title=%title%" -T "Album=%albumtitle%" -T "Date=%year%" -T "Tracknumber=%tracknr%" -T "Comment=%comment%" %source%


TOC of the extracted CD

Track | Start | Length | Start sector | End sector
––––––––––––––––––––––––––––-
1 | 0:00.00 | 4:07.50 | 0 | 18574
2 | 4:07.50 | 5:13.20 | 18575 | 42069
3 | 9:20.70 | 4:23.05 | 42070 | 61799
4 | 13:44.00 | 4:42.52 | 61800 | 83001
5 | 18:26.52 | 4:25.58 | 83002 | 102934
6 | 22:52.35 | 3:58.27 | 102935 | 120811
7 | 26:50.62 | 3:11.73 | 120812 | 135209
8 | 30:02.60 | 7:19.32 | 135210 | 168166
9 | 39:54.17 | 36:27.72 | 179567 | 343663


Range status and errors

Selected range

Filename K:\Lossless Temp\Steve Hackett\Steve Hackett - Feedback 86 - 1986 (2000 Camino Records, CAMCD21)\Steve Hackett - Feedback 86.wav

Peak level 99.0 %
Extraction speed 5.8 X
Range quality 100.0 %
Test CRC 089EDB78
Copy CRC 089EDB78
Copy OK

No errors occurred


AccurateRip summary

Track 1 accurately ripped (confidence 13) [8132628D] (AR v1)
Track 2 accurately ripped (confidence 13) [6DE4ABF9] (AR v1)
Track 3 accurately ripped (confidence 13) [D28E13BA] (AR v1)
Track 4 accurately ripped (confidence 13) [DC4AC24F] (AR v1)
Track 5 accurately ripped (confidence 13) [5224D570] (AR v1)
Track 6 accurately ripped (confidence 13) [4A602743] (AR v1)
Track 7 accurately ripped (confidence 13) [7AC37D96] (AR v1)
Track 8 accurately ripped (confidence 13) [CC63A569] (AR v1)

All tracks accurately ripped

End of status report

==== Log checksum 002E48321817367B6C14CFB44C7A4A5AB85BFFA4D1DF14411BFBBE627F5FE24C ====


[CUETools log; Date: 07.07.2015 10:44:49; Version: 2.0.9]
CD-Extra data track length 36:27:72.
[AccurateRip ID: 000ddb24-0062a021-7211e609] found.
Track [ CRC ] Status
01 [8132628d] (13/33) Accurately ripped
02 [6de4abf9] (13/34) Accurately ripped
03 [d28e13ba] (13/34) Accurately ripped
04 [dc4ac24f] (13/34) Accurately ripped
05 [5224d570] (13/34) Accurately ripped
06 [4a602743] (13/34) Accurately ripped
07 [7ac37d96] (13/34) Accurately ripped
08 [cc63a569] (13/33) Accurately ripped
Offsetted by -917:
01 [27697f9e] (03/33) Accurately ripped
02 [1d2dec6d] (04/34) Accurately ripped
03 [0c947651] (04/34) Accurately ripped
04 [6af988c9] (04/34) Accurately ripped
05 [89aa178b] (04/34) Accurately ripped
06 [13ebd2a7] (04/34) Accurately ripped
07 [7e732571] (04/34) Accurately ripped
08 [f001d832] (04/33) Accurately ripped
Offsetted by -664:
01 [205bb045] (03/33) Accurately ripped
02 [2965ed59] (03/34) Accurately ripped
03 [f50882c2] (03/34) Accurately ripped
04 [2e6440ff] (03/34) Accurately ripped
05 [415e3d72] (03/34) Accurately ripped
06 [19a8073d] (03/34) Accurately ripped
07 [c24c36f3] (03/34) Accurately ripped
08 [28642e8c] (03/33) Accurately ripped

Track Peak [ CRC32 ] [W/O NULL] [ LOG ]
– 99,0 [089EDB78] [E7607119] CRC32
01 97,5 [4294F547] [189A88A0]
02 96,7 [815A4C47] [9D34AB8F]
03 99,0 [4DB86FF4] [4EAC9261]
04 96,3 [11071A51] [8FC86A28]
05 96,1 [9E47D159] [E490446B]
06 94,5 [28A98F14] [12E609D6]
07 59,2 [7FF092FC] [3DDB9EC6]
08 96,2 [DF2F6DAA] [294FDDE1]


Steve Hackett: Collection (1975-2015)

Tracklist CD09 - 1996 - Watcher of the Skies (2003 Snapper Classic, Watcher Ltd. SDPCD126, UK):

01 - Watcher of the Skies
02 - Dance on a Volcano
03 - Valley of the Kings
04 - Deja Vu
05 - Firth of Fifth
06 - For Absent Friends
07 - Your Own Special Way
08 - Fountain of Salmacis
09 - Waiting Room Only
10 - I Know What I Like
11 - Los Endos

Exact Audio Copy V0.99 prebeta 5 from 4. May 2009

Отчёт EAC об извлечении, выполненном 19. января 2011, 2:24

Steve Hackett / Watcher of the Skies (Genesis Revisited)

Дисковод: PIONEER DVD-RW DVR-115D Adapter: 1 ID: 0

Режим чтения : Достоверность
Использование точного потока : Да
Отключение кэша аудио : Да
Использование указателей C2 : Нет

Коррекция смещения при чтении : 48
Способность читать области Lead-in и Lead-out : Нет
Заполнение пропущенных сэмплов тишиной : Да
Удаление блоков с тишиной в начале и конце : Нет
При вычислениях CRC использовались нулевые сэмплы : Да
Интерфейс : Установленный внешний ASPI-интерфейс

Выходной формат : Внутренние WAV-операции
Формат сэмплов : 44.100 Гц; 16 бит; стерео


TOC извлечённого CD

Трек | Старт | Длительность | Начальный сектор | Конечный сектор
––––––––––––––––––––––––––––––––––-
1 | 0:00.00 | 8:39.35 | 0 | 38959
2 | 8:39.35 | 7:27.20 | 38960 | 72504
3 | 16:06.55 | 6:31.40 | 72505 | 101869
4 | 22:38.20 | 5:53.00 | 101870 | 128344
5 | 28:31.20 | 9:39.57 | 128345 | 171826
6 | 38:11.02 | 3:02.55 | 171827 | 185531
7 | 41:13.57 | 4:18.18 | 185532 | 204899
8 | 45:32.00 | 9:53.57 | 204900 | 249431
9 | 55:25.57 | 6:53.18 | 249432 | 280424
10 | 62:19.00 | 5:37.12 | 280425 | 305711
11 | 67:56.12 | 8:46.05 | 305712 | 345166


Характеристики диапазона извлечения и сообщения об ошибках

Выбранный диапазон

Имя файла K:\Lossless MUSIC Archive\Art Rock\England\Steve Hackett\12 - Steve Hackett - Genesis Revisited - 1996\Steve Hackett - Watcher of the Skies (Genesis Revisited).wav

Пиковый уровень 95.5 %
Качество диапазона 100.0 %
CRC теста 57287E27
CRC копии 57287E27
Копирование… OK

Ошибок не произошло


AccurateRip: сводка

Трек 1 точность не определена (достоверность 5) [2CB00416], AccurateRip вернул [09CA2E71]
Трек 2 точность не определена (достоверность 5) [5BFE3FAB], AccurateRip вернул [91AAD7F2]
Трек 3 точность не определена (достоверность 5) [B77E3D30], AccurateRip вернул [EF73BE3E]
Трек 4 точность не определена (достоверность 5) [EC17683D], AccurateRip вернул [3916D49C]
Трек 5 точность не определена (достоверность 5) [43A5BA8D], AccurateRip вернул [F6617EB4]
Трек 6 точность не определена (достоверность 5) [7ABCC807], AccurateRip вернул [6EF861F3]
Трек 7 точность не определена (достоверность 5) [64826154], AccurateRip вернул [2C1D203A]
Трек 8 точность не определена (достоверность 5) [BD2D3694], AccurateRip вернул [D2235D62]
Трек 9 точность не определена (достоверность 5) [1C5B4679], AccurateRip вернул [584DC035]
Трек 10 точность не определена (достоверность 5) [21B59FD6], AccurateRip вернул [90C38B95]
Трек 11 точность не определена (достоверность 5) [D322E6FA], AccurateRip вернул [0F86C82A]

Ни один трек не прошёл проверки на точность
В вашей базе может быть иной вариант штамповки диска

Конец отчёта


[CUETools log; Date: 07.07.2015 10:30:44; Version: 2.0.9]
[AccurateRip ID: 001fcf43-0110a2ed-9a11fa0b] found.
Track [ CRC ] Status
01 [2cb00416] (03/35) Accurately ripped
02 [5bfe3fab] (03/35) Accurately ripped
03 [b77e3d30] (03/35) Accurately ripped
04 [ec17683d] (03/36) Accurately ripped
05 [43a5ba8d] (03/35) Accurately ripped
06 [7abcc807] (03/35) Accurately ripped
07 [64826154] (03/35) Accurately ripped
08 [bd2d3694] (03/35) Accurately ripped
09 [1c5b4679] (03/34) Accurately ripped
10 [21b59fd6] (03/34) Accurately ripped
11 [d322e6fa] (03/32) Accurately ripped
Offsetted by 78:
01 [7536b26d] (02/35) Accurately ripped
02 [d7f9baaa] (02/35) Accurately ripped
03 [085bf5e7] (02/35) Accurately ripped
04 [4186d038] (03/36) Accurately ripped
05 [dcaa0e79] (02/35) Accurately ripped
06 [7a43833d] (02/35) Accurately ripped
07 [98dbeff3] (02/35) Accurately ripped
08 [8906c213] (02/35) Accurately ripped
09 [87dee3e0] (02/34) Accurately ripped
10 [ba50ab26] (02/34) Accurately ripped
11 [7a2ba31d] (02/32) Accurately ripped
Offsetted by 83:
01 [09ca2e71] (05/35) Accurately ripped
02 [91aad7f2] (05/35) Accurately ripped
03 [ef73be3e] (05/35) Accurately ripped
04 [3916d49c] (05/36) Accurately ripped
05 [f6617eb4] (05/35) Accurately ripped
06 [6ef861f3] (05/35) Accurately ripped
07 [2c1d203a] (05/35) Accurately ripped
08 [d2235d62] (05/35) Accurately ripped
09 [584dc035] (05/34) Accurately ripped
10 [90c38b95] (05/34) Accurately ripped
11 [7c0a644e] (05/32) No match but offset
Offsetted by 742:
01 [503d33a6] (02/35) Accurately ripped
02 [803c087d] (02/35) Accurately ripped
03 [85977d5a] (02/35) Accurately ripped
04 [a7e8ad7e] (02/36) Accurately ripped
05 [0e529dd5] (02/35) Accurately ripped
06 [fc774396] (02/35) Accurately ripped
07 [98810cc0] (02/35) Accurately ripped
08 [2d4788c8] (02/35) Accurately ripped
09 [a26f61ef] (02/34) Accurately ripped
10 [91955c50] (02/34) Accurately ripped
11 [90f68400] (04/32) No match but offset

Track Peak [ CRC32 ] [W/O NULL] [ LOG ]
– 95,5 [57287E27] [FEC92B64] CRC32
01 82,8 [BE385BF4] [814EB256]
02 73,3 [7454EC43] [5850E20D]
03 87,9 [5B11D7C5] [81DA6D78]
04 84,1 [0309F69E] [9FA6F3A4]
05 95,5 [D676EF43] [78F480CD]
06 39,9 [75051EDB] [74919300]
07 79,4 [18FD609C] [5828AFDC]
08 92,8 [FA82ED3C] [3D8B042F]
09 87,2 [31B41136] [14FAC74D]
10 82,5 [B85DB5B1] [5AF14435]
11 92,8 [1466BB39] [D0E06B52]


Steve Hackett: Collection (1975-2015)

Tracklist CD10 - 1997 - A Midsummer Night's Dream (1997 Camino Records, CAMCD22, UK):

01 - The Palace of Theseus
02 - A Form In Wax
03 - By Paved Fountain
04 - Titania
05 - Set Your Heart At Rest
06 - Oberon
07 - Within This Wood
08 - In The Beached Margent Of The Sea
09 - Between The Cold Moon & The Earth
10 - Puck
11 - Helena
12 - Peaseblossom, Cobweb, Moth & Mustardseed
13 - Mountains Turned Into Clouds
14 - The Lunatic, The Lover & The Poet
15 - Starlight
16 - Lysander & Demetrius
17 - Celebration
18 - All Is Mended

Exact Audio Copy V0.99 prebeta 5 from 4. May 2009

Отчёт EAC об извлечении, выполненном 6. мая 2011, 17:56

Steve Hackett / A Midsummer Night's Dream

Дисковод: PIONEER DVD-RW DVR-115D Adapter: 1 ID: 0

Режим чтения : Достоверность
Использование точного потока : Да
Отключение кэша аудио : Да
Использование указателей C2 : Нет

Коррекция смещения при чтении : 48
Способность читать области Lead-in и Lead-out : Нет
Заполнение пропущенных сэмплов тишиной : Да
Удаление блоков с тишиной в начале и конце : Нет
При вычислениях CRC использовались нулевые сэмплы : Да
Интерфейс : Установленный внешний ASPI-интерфейс

Выходной формат : Внутренние WAV-операции
Формат сэмплов : 44.100 Гц; 16 бит; стерео


TOC извлечённого CD

Трек | Старт | Длительность | Начальный сектор | Конечный сектор
––––––––––––––––––––––––––––––––––-
1 | 0:00.00 | 2:46.17 | 0 | 12466
2 | 2:46.17 | 4:40.61 | 12467 | 33527
3 | 7:27.03 | 2:00.45 | 33528 | 42572
4 | 9:27.48 | 2:24.07 | 42573 | 53379
5 | 11:51.55 | 3:31.28 | 53380 | 69232
6 | 15:23.08 | 2:31.70 | 69233 | 80627
7 | 17:55.03 | 2:36.12 | 80628 | 92339
8 | 20:31.15 | 2:38.61 | 92340 | 104250
9 | 23:10.01 | 2:44.65 | 104251 | 116615
10 | 25:54.66 | 1:52.67 | 116616 | 125082
11 | 27:47.58 | 4:21.41 | 125083 | 144698
12 | 32:09.24 | 4:28.50 | 144699 | 164848
13 | 36:37.74 | 4:36.60 | 164849 | 185608
14 | 41:14.59 | 4:14.36 | 185609 | 204694
15 | 45:29.20 | 4:47.73 | 204695 | 226292
16 | 50:17.18 | 2:45.54 | 226293 | 238721
17 | 53:02.72 | 6:15.23 | 238722 | 266869
18 | 59:18.20 | 3:13.62 | 266870 | 281406
19 | 65:04.07 | 8:01.58 | 292807 | 328939


Характеристики диапазона извлечения и сообщения об ошибках

Выбранный диапазон

Имя файла K:\Lossless MUSIC Archive\Art Rock\England\Steve Hackett\13 - Steve Hackett - A Midsummer Night's Dream - 1997 (Camino Records 1997, CAMCD22)\Steve Hackett - A Midsummer Night's Dream.wav

Пиковый уровень 98.5 %
Качество диапазона 99.9 %
CRC теста EFFCE6F3
CRC копии EFFCE6F3
Копирование… OK

Ошибок не произошло


AccurateRip: сводка

Трек 1 точное извлечение (доверие 3) [18837551]
Трек 2 точное извлечение (доверие 3) [843ABCB1]
Трек 3 точное извлечение (доверие 3) [74D7B9AC]
Трек 4 точное извлечение (доверие 3) [DB23F41E]
Трек 5 точное извлечение (доверие 3) [F9FF99B4]
Трек 6 точное извлечение (доверие 3) [7339C8D8]
Трек 7 точное извлечение (доверие 3) [2C5C664F]
Трек 8 точное извлечение (доверие 3) [30F29960]
Трек 9 точное извлечение (доверие 3) [BF94B289]
Трек 10 точное извлечение (доверие 3) [6606F989]
Трек 11 точное извлечение (доверие 3) [9B1EB1F2]
Трек 12 точное извлечение (доверие 3) [EAAF7CC4]
Трек 13 точное извлечение (доверие 3) [E6B4D948]
Трек 14 точное извлечение (доверие 3) [AC4E047F]
Трек 15 точное извлечение (доверие 3) [710A7C5D]
Трек 16 точное извлечение (доверие 3) [F8B1530B]
Трек 17 точное извлечение (доверие 3) [D0C6F84D]
Трек 18 точное извлечение (доверие 2) [F6AE7B30]

Все треки извлечены точно

Конец отчёта


[CUETools log; Date: 07.07.2015 10:32:15; Version: 2.0.9]
CD-Extra data track length 08:01:58.
[AccurateRip ID: 00260198-0207722f-20112113] found.
Track [ CRC ] Status
01 [18837551] (04/36) Accurately ripped
02 [843abcb1] (04/36) Accurately ripped
03 [74d7b9ac] (04/36) Accurately ripped
04 [db23f41e] (04/36) Accurately ripped
05 [f9ff99b4] (04/36) Accurately ripped
06 [7339c8d8] (04/36) Accurately ripped
07 [2c5c664f] (04/36) Accurately ripped
08 [30f29960] (04/36) Accurately ripped
09 [bf94b289] (04/36) Accurately ripped
10 [6606f989] (04/36) Accurately ripped
11 [9b1eb1f2] (04/36) Accurately ripped
12 [eaaf7cc4] (04/36) Accurately ripped
13 [e6b4d948] (04/36) Accurately ripped
14 [ac4e047f] (04/36) Accurately ripped
15 [710a7c5d] (04/36) Accurately ripped
16 [f8b1530b] (04/36) Accurately ripped
17 [d0c6f84d] (04/35) Accurately ripped
18 [f6ae7b30] (03/34) Accurately ripped
Offsetted by -664:
01 [2f60cd66] (07/36) Accurately ripped
02 [6771de33] (07/36) Accurately ripped
03 [3476bcfb] (07/36) Accurately ripped
04 [02f35ad8] (07/36) Accurately ripped
05 [1d39c68e] (07/36) Accurately ripped
06 [8a6feb03] (07/36) Accurately ripped
07 [d55b6025] (07/36) Accurately ripped
08 [2fea1664] (07/36) Accurately ripped
09 [89eab9a3] (07/36) Accurately ripped
10 [064dba72] (07/36) Accurately ripped
11 [1f53c989] (07/36) Accurately ripped
12 [c3dcb043] (07/36) Accurately ripped
13 [01c9621f] (07/36) Accurately ripped
14 [b5cf8628] (07/36) Accurately ripped
15 [b94cc80e] (07/36) Accurately ripped
16 [adca6e04] (07/36) Accurately ripped
17 [4781bfad] (07/35) Accurately ripped
18 [1088632a] (07/34) Accurately ripped
Offsetted by 664:
01 [a522b4e8] (13/36) Accurately ripped
02 [a054abfc] (13/36) Accurately ripped
03 [52396921] (13/36) Accurately ripped
04 [ced1eaac] (13/36) Accurately ripped
05 [bdb8ba0f] (13/36) Accurately ripped
06 [c1cd1abe] (13/36) Accurately ripped
07 [2b5914c1] (13/36) Accurately ripped
08 [75bf7a99] (13/36) Accurately ripped
09 [a09c9604] (13/36) Accurately ripped
10 [a6b3d450] (13/36) Accurately ripped
11 [890b4615] (13/36) Accurately ripped
12 [bbd84b78] (13/36) Accurately ripped
13 [424741cd] (13/36) Accurately ripped
14 [578357bc] (13/36) Accurately ripped
15 [f1071426] (13/36) Accurately ripped
16 [ef5d4466] (13/36) Accurately ripped
17 [74c4b5f1] (13/35) Accurately ripped
18 [f4a5f760] (13/34) Accurately ripped

Track Peak [ CRC32 ] [W/O NULL] [ LOG ]
– 98,5 [EFFCE6F3] [4B759548] CRC32
01 75,4 [5E8A9915] [0492B9EA]
02 81,3 [DC6CE4A3] [78CAABEC]
03 23,8 [4BB95B0F] [77052842]
04 47,8 [A75C68B6] [533CFE14]
05 40,8 [ADFBAB10] [B75B67DC]
06 42,2 [61370837] [134E1996]
07 44,6 [453F5766] [CBBDAA9A]
08 91,9 [A9704CA7] [CED14150]
09 75,6 [5D37C3F6] [DE737516]
10 31,1 [331701F4] [C990A7C2]
11 46,1 [7989E8CB] [904E1510]
12 37,8 [EFBDF22B] [9560EB4D]
13 69,5 [6DE07853] [E9DEA4ED]
14 28,4 [49965D3F] [02EE329E]
15 44,2 [A0F1AB58] [41E28FA0]
16 57,0 [A91F4105] [535C22F0]
17 98,5 [6D7A5274] [DB6E257F]
18 45,0 [48E5C2EF] [DE81FC12]


Steve Hackett: Collection (1975-2015)

Tracklist CD11 - 1999 - Darktown (1999 Camino Records, CAMCD17, UK):

01 - Omega Metallicus
02 - Darktown
03 - Man Overboard
04 - The Golden Age Of Steam
05 - Days Of Long Ago
06 - Dreaming With Open Eyes
07 - Twice Around The Sun
08 - Rise Again
09 - Jane Austen's Door
10 - Darktown Riot
11 - In Memoriam

Exact Audio Copy V0.99 prebeta 5 from 4. May 2009

Отчёт EAC об извлечении, выполненном 6. мая 2011, 19:12

Steve Hackett / Darktown

Дисковод: PIONEER DVD-RW DVR-115D Adapter: 1 ID: 0

Режим чтения : Достоверность
Использование точного потока : Да
Отключение кэша аудио : Да
Использование указателей C2 : Нет

Коррекция смещения при чтении : 48
Способность читать области Lead-in и Lead-out : Нет
Заполнение пропущенных сэмплов тишиной : Да
Удаление блоков с тишиной в начале и конце : Нет
При вычислениях CRC использовались нулевые сэмплы : Да
Интерфейс : Установленный внешний ASPI-интерфейс

Выходной формат : Внутренние WAV-операции
Формат сэмплов : 44.100 Гц; 16 бит; стерео


TOC извлечённого CD

Трек | Старт | Длительность | Начальный сектор | Конечный сектор
––––––––––––––––––––––––––––––––––-
1 | 0:00.00 | 3:48.21 | 0 | 17120
2 | 3:48.21 | 4:59.44 | 17121 | 39589
3 | 8:47.65 | 4:17.36 | 39590 | 58900
4 | 13:05.26 | 4:09.19 | 58901 | 77594
5 | 17:14.45 | 3:23.15 | 77595 | 92834
6 | 20:37.60 | 6:54.59 | 92835 | 123943
7 | 27:32.44 | 7:15.17 | 123944 | 156585
8 | 34:47.61 | 4:26.30 | 156586 | 176565
9 | 39:14.16 | 6:13.04 | 176566 | 204544
10 | 45:27.20 | 3:10.33 | 204545 | 218827
11 | 48:37.53 | 7:59.65 | 218828 | 254817


Характеристики диапазона извлечения и сообщения об ошибках

Выбранный диапазон

Имя файла K:\Lossless MUSIC Archive\Art Rock\England\Steve Hackett\14 - Steve Hackett - Darktown - 1999 (Camino Records 1999, CAMCD17)\Steve Hackett - Darktown.wav

Пиковый уровень 94.4 %
Качество диапазона 100.0 %
CRC теста 62D76E31
CRC копии 62D76E31
Копирование… OK

Ошибок не произошло


AccurateRip: сводка

Трек 1 точное извлечение (доверие 39) [0E2EAAD4]
Трек 2 точное извлечение (доверие 39) [75EE058C]
Трек 3 точное извлечение (доверие 39) [D3E505FD]
Трек 4 точное извлечение (доверие 39) [30DE2A4C]
Трек 5 точное извлечение (доверие 39) [2FF8BFA1]
Трек 6 точное извлечение (доверие 39) [3661C5C0]
Трек 7 точное извлечение (доверие 39) [1AC45CFB]
Трек 8 точное извлечение (доверие 39) [8BA09813]
Трек 9 точное извлечение (доверие 39) [EF047ED9]
Трек 10 точное извлечение (доверие 39) [AA2C8834]
Трек 11 точное извлечение (доверие 39) [132A23A3]

Все треки извлечены точно

Конец отчёта


[CUETools log; Date: 07.07.2015 10:33:39; Version: 2.0.9]
[AccurateRip ID: 0015b011-00bf8c96-a20d450b] found.
Track [ CRC ] Status
01 [0e2eaad4] (45/98) Accurately ripped
02 [75ee058c] (45/98) Accurately ripped
03 [d3e505fd] (45/98) Accurately ripped
04 [30de2a4c] (45/97) Accurately ripped
05 [2ff8bfa1] (45/98) Accurately ripped
06 [3661c5c0] (45/98) Accurately ripped
07 [1ac45cfb] (45/98) Accurately ripped
08 [8ba09813] (45/98) Accurately ripped
09 [ef047ed9] (45/98) Accurately ripped
10 [aa2c8834] (45/98) Accurately ripped
11 [132a23a3] (46/97) Accurately ripped
Offsetted by -669:
01 [1992b486] (04/98) Accurately ripped
02 [47867a10] (04/98) Accurately ripped
03 [1d20de23] (04/98) Accurately ripped
04 [7eea699a] (04/97) Accurately ripped
05 [4de3cbf3] (04/98) Accurately ripped
06 [f80286c6] (04/98) Accurately ripped
07 [99642a04] (04/98) Accurately ripped
08 [cedd20cc] (04/98) Accurately ripped
09 [685b03ac] (04/98) Accurately ripped
10 [c3de3bb5] (04/98) Accurately ripped
11 [253b813b] (04/97) Accurately ripped
Offsetted by -664:
01 [d55d62a5] (02/98) Accurately ripped
02 [131ad5ef] (02/98) Accurately ripped
03 [452ca9eb] (02/98) Accurately ripped
04 [58e42500] (02/97) Accurately ripped
05 [098d79ed] (02/98) Accurately ripped
06 [2a834df0] (02/98) Accurately ripped
07 [e0bb9312] (02/98) Accurately ripped
08 [7219433a] (02/98) Accurately ripped
09 [be8f0046] (02/98) Accurately ripped
10 [0042b134] (02/98) Accurately ripped
11 [27865087] (02/97) Accurately ripped
Offsetted by -274:
01 [1234d889] (04/98) Accurately ripped
02 [150b6dd7] (04/98) Accurately ripped
03 [99880eb3] (04/98) Accurately ripped
04 [c15e6279] (04/97) Accurately ripped
05 [013b516c] (04/98) Accurately ripped
06 [1b5b97d9] (04/98) Accurately ripped
07 [7e45c57a] (04/98) Accurately ripped
08 [b9b1f91c] (04/98) Accurately ripped
09 [170bafc5] (04/98) Accurately ripped
10 [f9226771] (04/98) Accurately ripped
11 [4dcc2a16] (04/97) Accurately ripped
Offsetted by -685:
01 [2aa37821] (03/98) No match but offset
02 [fbdf056a] (03/98) No match but offset
03 [1cd146d5] (03/98) No match but offset
04 [81cde6ff] (03/97) No match but offset
05 [79d21c22] (03/98) No match but offset
06 [8b0d5610] (03/98) No match but offset
07 [8c0b5e53] (03/98) No match but offset
08 [9fa23ac6] (03/98) No match but offset
09 [a931c969] (03/98) No match but offset
10 [4ec8f86f] (03/98) No match but offset
11 [d9cfd3ee] (03/97) No match but offset
Offsetted by -18:
01 [6a209e90] (02/98) No match but offset
02 [99f8f79d] (02/98) No match but offset
03 [2e588398] (02/98) No match but offset
04 [fe4b5fb7] (02/97) No match but offset
05 [8a446e70] (02/98) No match but offset
06 [e778f354] (02/98) No match but offset
07 [65001453] (02/98) No match but offset
08 [86117c86] (02/98) No match but offset
09 [9b8901ce] (02/98) No match but offset
10 [ba939e2c] (02/98) No match but offset
11 [015bfa50] (02/97) No match but offset
Offsetted by 17:
01 [4b95b36e] (02/98) No match but offset
02 [acf8a1b2] (02/98) No match but offset
03 [61ef5101] (02/98) No match but offset
04 [5c392910] (02/97) No match but offset
05 [14f182db] (02/98) No match but offset
06 [db604d3a] (02/98) No match but offset
07 [a1e687a2] (02/98) No match but offset
08 [4ae2fdb8] (02/98) No match but offset
09 [99e84c27] (02/98) No match but offset
10 [3fd13438] (02/98) No match but offset
11 [9ccf1dce] (02/97) No match but offset

Track Peak [ CRC32 ] [W/O NULL] [ LOG ]
– 94,4 [62D76E31] [4B3D5552] CRC32
01 94,4 [D6BC43E1] [7CA1B0F2]
02 94,4 [63E7AC3C] [F242C40E]
03 94,3 [7286CD7A] [5B8B4EE2]
04 94,4 [3C35CA88] [FB12AEEB]
05 94,4 [5199E3DD] [B5FC3BCD]
06 94,4 [E6517B29] [6E40277F]
07 94,4 [D00D4310] [8FEEBFFD]
08 94,4 [B5F55536] [CCCF6DE1]
09 94,4 [D4ACDD2E] [C3B68FB7]
10 94,4 [380BBF04] [B0B3EF51]
11 94,4 [DF3898C4] [767B6087]


Steve Hackett: Collection (1975-2015)

Tracklist CD12 - 2005 - Metamorpheus (2005 Camino Records, CAMCD35, UK):

01 - The Pool Of Memory And The Pool Of Forgetfulness
02 - To Earth Like Rain
03 - Song To Nature
04 - One Real Flower
05 - The Dancing Ground
06 - That Vast Life
07 - Eurydice Taken
08 - Charon's Call
09 - Cerberus At Peace
10 - Under The World - Orpheus Looks Back
11 - The Broken Lyre
12 - Severance
13 - Elegy
14 - Return To The Realm Of Eternal Renewal
15 - Lyra

Exact Audio Copy V0.99 prebeta 5 from 4. May 2009

Отчёт EAC об извлечении, выполненном 7. мая 2011, 1:01

Steve Hackett / Metamorpheus

Дисковод: PIONEER DVD-RW DVR-115D Adapter: 1 ID: 0

Режим чтения : Достоверность
Использование точного потока : Да
Отключение кэша аудио : Да
Использование указателей C2 : Нет

Коррекция смещения при чтении : 48
Способность читать области Lead-in и Lead-out : Нет
Заполнение пропущенных сэмплов тишиной : Да
Удаление блоков с тишиной в начале и конце : Нет
При вычислениях CRC использовались нулевые сэмплы : Да
Интерфейс : Установленный внешний ASPI-интерфейс

Выходной формат : Внутренние WAV-операции
Формат сэмплов : 44.100 Гц; 16 бит; стерео


TOC извлечённого CD

Трек | Старт | Длительность | Начальный сектор | Конечный сектор
––––––––––––––––––––––––––––––––––-
1 | 0:00.00 | 2:14.62 | 0 | 10111
2 | 2:14.62 | 1:32.13 | 10112 | 17024
3 | 3:47.00 | 3:02.30 | 17025 | 30704
4 | 6:49.30 | 3:11.50 | 30705 | 45079
5 | 10:01.05 | 3:01.69 | 45080 | 58723
6 | 13:02.74 | 12:26.27 | 58724 | 114700
7 | 25:29.26 | 1:47.38 | 114701 | 122763
8 | 27:16.64 | 3:14.40 | 122764 | 137353
9 | 30:31.29 | 2:05.56 | 137354 | 146784
10 | 32:37.10 | 5:15.38 | 146785 | 170447
11 | 37:52.48 | 3:17.08 | 170448 | 185230
12 | 41:09.56 | 3:04.17 | 185231 | 199047
13 | 44:13.73 | 3:17.27 | 199048 | 213849
14 | 47:31.25 | 2:56.12 | 213850 | 227061
15 | 50:27.37 | 6:35.37 | 227062 | 256723


Характеристики диапазона извлечения и сообщения об ошибках

Выбранный диапазон

Имя файла K:\Lossless MUSIC Archive\Art Rock\England\Steve Hackett\16 - Steve Hackett - Metamorpheus - 2005 (Camino Records 2005, CAMCD35)\Steve Hackett - Metamorpheus.wav

Пиковый уровень 94.4 %
Качество диапазона 100.0 %
CRC теста 93EA3F89
CRC копии 93EA3F89
Копирование… OK

Ошибок не произошло


AccurateRip: сводка

Трек 1 точное извлечение (доверие 16) [245385D3]
Трек 2 точное извлечение (доверие 16) [EAB993FD]
Трек 3 точное извлечение (доверие 16) [09CCFDFE]
Трек 4 точное извлечение (доверие 16) [7D54B1CD]
Трек 5 точное извлечение (доверие 16) [DFBF0068]
Трек 6 точное извлечение (доверие 16) [8B40CD8B]
Трек 7 точное извлечение (доверие 16) [DC245D51]
Трек 8 точное извлечение (доверие 16) [08BDEFC7]
Трек 9 точное извлечение (доверие 16) [84343E8C]
Трек 10 точное извлечение (доверие 16) [04932C2A]
Трек 11 точное извлечение (доверие 16) [FD03C847]
Трек 12 точное извлечение (доверие 16) [57505456]
Трек 13 точное извлечение (доверие 16) [6A294AB8]
Трек 14 точное извлечение (доверие 16) [1352A6B4]
Трек 15 точное извлечение (доверие 15) [CC5A3598]

Все треки извлечены точно

Конец отчёта


[CUETools log; Date: 07.07.2015 10:37:58; Version: 2.0.9]
[AccurateRip ID: 001d88fd-01569d99-cd0d5e0f] found.
Track [ CRC ] Status
01 [245385d3] (19/57) Accurately ripped
02 [eab993fd] (19/57) Accurately ripped
03 [09ccfdfe] (19/57) Accurately ripped
04 [7d54b1cd] (19/57) Accurately ripped
05 [dfbf0068] (19/57) Accurately ripped
06 [8b40cd8b] (19/57) Accurately ripped
07 [dc245d51] (19/57) Accurately ripped
08 [08bdefc7] (19/58) Accurately ripped
09 [84343e8c] (19/57) Accurately ripped
10 [04932c2a] (19/57) Accurately ripped
11 [fd03c847] (19/58) Accurately ripped
12 [57505456] (19/57) Accurately ripped
13 [6a294ab8] (19/57) Accurately ripped
14 [1352a6b4] (19/57) Accurately ripped
15 [cc5a3598] (18/54) Accurately ripped
Offsetted by -676:
01 [f9410d13] (13/57) Accurately ripped
02 [29c1c26a] (13/57) Accurately ripped
03 [5459cc37] (13/57) Accurately ripped
04 [7942fa5e] (13/57) Accurately ripped
05 [00894893] (13/57) Accurately ripped
06 [bd5deceb] (13/57) Accurately ripped
07 [3d14d996] (13/57) Accurately ripped
08 [d01af954] (13/58) Accurately ripped
09 [d5e79455] (13/57) Accurately ripped
10 [c6b13a36] (13/57) Accurately ripped
11 [fa0fd773] (13/58) Accurately ripped
12 [43b14214] (13/57) Accurately ripped
13 [5dd645fb] (13/57) Accurately ripped
14 [dc8987b5] (13/57) Accurately ripped
15 [26f94400] (13/54) Accurately ripped
Offsetted by -664:
01 [f853a6f3] (04/57) Accurately ripped
02 [c5cd3cad] (04/57) Accurately ripped
03 [9edf6338] (04/57) Accurately ripped
04 [e12825c6] (04/57) Accurately ripped
05 [42f8fbc8] (04/57) Accurately ripped
06 [0216fa9a] (04/57) Accurately ripped
07 [a6a5af35] (04/57) Accurately ripped
08 [a917570e] (04/58) Accurately ripped
09 [85ef6123] (04/57) Accurately ripped
10 [2f12e829] (04/57) Accurately ripped
11 [ec78352b] (04/58) Accurately ripped
12 [42587476] (04/57) Accurately ripped
13 [bd03b5ae] (04/57) Accurately ripped
14 [a1297719] (04/57) Accurately ripped
15 [9724eac8] (04/54) Accurately ripped
Offsetted by 5:
01 [7273eb7e] (05/57) No match but offset
02 [ef7fd1bf] (05/57) No match but offset
03 [8e4fd324] (05/57) No match but offset
04 [d16b11cb] (05/57) No match but offset
05 [7852dbd5] (05/57) No match but offset
06 [ea03387a] (05/57) No match but offset
07 [765b8f56] (05/57) No match but offset
08 [2f6e31d5] (05/58) No match but offset
09 [a362ffbd] (05/57) No match but offset
10 [be93b3cb] (05/57) No match but offset
11 [043f6f1c] (05/58) No match but offset
12 [4059df2e] (05/57) No match but offset
13 [cfc7871c] (05/57) No match but offset
14 [f406b178] (05/57) No match but offset
15 [d5d81305] (05/54) No match but offset

Track Peak [ CRC32 ] [W/O NULL] [ LOG ]
– 94,4 [93EA3F89] [B4040000] CRC32
01 92,5 [44D66161] [2B1FC860]
02 65,7 [9A38D74E] [97421C7E]
03 79,4 [F20A2F23] [A0F50335]
04 81,8 [678FB669] [111A697E]
05 94,4 [BC4A914C] [C1298EAF]
06 94,4 [51894CC4] [26ACD9BF]
07 58,3 [1A0DF8BE] [FAD35FF5]
08 72,4 [FEA4CF6D] [63F8A9A5]
09 41,2 [59626E34] [AB3605BA]
10 94,4 [DC977181] [F701E4F2]
11 61,8 [B25D8338] [D5959C2B]
12 94,4 [970C4A11] [89798E24]
13 94,4 [86C97B2F] [09B5005F]
14 68,8 [EE14D7E6] [3DEF9BC8]
15 94,4 [9F37A818] [D93093BB]


Steve Hackett: Collection (1975-2015)

Tracklist CD13 - 2006 - Wild Orchids (2006 Inside Out Music 2006, SPV 79172 CD, USA):

01 - A Dark Night In Toytown
02 - Waters Of The Wild
03 - Set Your Compass
04 - Down Street
05 - A Girl Called Linda
06 - To A Close
07 - Ego And Id
08 - Man In The Long Black Coat
09 - Wolfwork
10 - Why
11 - She Moves In Memories
12 - The Fundamentals Of Brainwashing
13 - Howl

Exact Audio Copy V0.99 prebeta 5 from 4. May 2009

Отчёт EAC об извлечении, выполненном 7. сентября 2011, 16:14

Steve Hackett / Wild Orchids

Дисковод: PIONEER DVD-RW DVR-115D Adapter: 1 ID: 0

Режим чтения : Достоверность
Использование точного потока : Да
Отключение кэша аудио : Да
Использование указателей C2 : Нет

Коррекция смещения при чтении : 48
Способность читать области Lead-in и Lead-out : Нет
Заполнение пропущенных сэмплов тишиной : Да
Удаление блоков с тишиной в начале и конце : Нет
При вычислениях CRC использовались нулевые сэмплы : Да
Интерфейс : Установленный внешний ASPI-интерфейс

Выходной формат : Внутренние WAV-операции
Формат сэмплов : 44.100 Гц; 16 бит; стерео


TOC извлечённого CD

Трек | Старт | Длительность | Начальный сектор | Конечный сектор
––––––––––––––––––––––––––––––––––-
1 | 0:00.00 | 3:38.63 | 0 | 16412
2 | 3:38.63 | 5:35.29 | 16413 | 41566
3 | 9:14.17 | 3:37.48 | 41567 | 57889
4 | 12:51.65 | 7:33.66 | 57890 | 91930
5 | 20:25.56 | 4:46.35 | 91931 | 113415
6 | 25:12.16 | 4:48.47 | 113416 | 135062
7 | 30:00.63 | 4:07.73 | 135063 | 153660
8 | 34:08.61 | 5:09.37 | 153661 | 176872
9 | 39:18.23 | 4:49.22 | 176873 | 198569
10 | 44:07.45 | 0:46.70 | 198570 | 202089
11 | 44:54.40 | 4:59.50 | 202090 | 224564
12 | 49:54.15 | 3:00.66 | 224565 | 238130
13 | 52:55.06 | 4:31.59 | 238131 | 258514


Характеристики диапазона извлечения и сообщения об ошибках

Выбранный диапазон

Имя файла M:\Lossless Temp\Steve Hackett\17 - Steve Hackett - Wild Orchids - 2006 (Inside Out Music 2006, SPV 79172 CD)\Steve Hackett - Wild Orchids.wav

Пиковый уровень 92.1 %
Качество диапазона 100.0 %
CRC теста F429B1DD
CRC копии F429B1DD
Копирование… OK

Ошибок не произошло


AccurateRip: сводка

Трек 1 точное извлечение (доверие 4) [3664FA50]
Трек 2 точное извлечение (доверие 4) [7ED70E64]
Трек 3 точное извлечение (доверие 4) [E6FAAEFD]
Трек 4 точное извлечение (доверие 4) [8A9D63F9]
Трек 5 точное извлечение (доверие 4) [F6C16AEA]
Трек 6 точное извлечение (доверие 4) [6120152C]
Трек 7 точное извлечение (доверие 4) [188099B7]
Трек 8 точное извлечение (доверие 4) [2B7EFC5D]
Трек 9 точное извлечение (доверие 4) [FF6ED75D]
Трек 10 точное извлечение (доверие 4) [D4A00F5E]
Трек 11 точное извлечение (доверие 4) [C898C158]
Трек 12 точное извлечение (доверие 4) [711DFEE3]
Трек 13 точное извлечение (доверие 4) [22154ACA]

Все треки извлечены точно

Конец отчёта


[CUETools log; Date: 07.07.2015 10:39:46; Version: 2.0.9]
[AccurateRip ID: 001d1fcd-01209ba0-b30d760d] found.
Track [ CRC ] Status
01 [3664fa50] (04/35) Accurately ripped
02 [7ed70e64] (04/35) Accurately ripped
03 [e6faaefd] (04/35) Accurately ripped
04 [8a9d63f9] (04/35) Accurately ripped
05 [f6c16aea] (04/35) Accurately ripped
06 [6120152c] (04/35) Accurately ripped
07 [188099b7] (04/35) Accurately ripped
08 [2b7efc5d] (04/35) Accurately ripped
09 [ff6ed75d] (04/35) Accurately ripped
10 [d4a00f5e] (04/34) Accurately ripped
11 [c898c158] (04/34) Accurately ripped
12 [711dfee3] (04/34) Accurately ripped
13 [22154aca] (04/35) Accurately ripped
Offsetted by -676:
01 [59e70f9d] (06/35) Accurately ripped
02 [964fb3d6] (06/35) Accurately ripped
03 [a2c615c2] (06/35) Accurately ripped
04 [9ea0ccdb] (06/35) Accurately ripped
05 [247c97ed] (06/35) Accurately ripped
06 [4eeffdbf] (06/35) Accurately ripped
07 [189eed3f] (06/35) Accurately ripped
08 [1db3e070] (06/35) Accurately ripped
09 [8a90df64] (06/35) Accurately ripped
10 [21bf7971] (06/34) Accurately ripped
11 [1b8072a5] (06/34) Accurately ripped
12 [f11accf1] (06/34) Accurately ripped
13 [df157aa4] (06/35) Accurately ripped
Offsetted by -12:
01 [070c39bc] (11/35) Accurately ripped
02 [43c69d3c] (11/35) Accurately ripped
03 [c40d4533] (11/35) Accurately ripped
04 [d7c4a809] (11/35) Accurately ripped
05 [f9db5dea] (11/35) Accurately ripped
06 [6ab55449] (11/35) Accurately ripped
07 [5f9b3249] (11/35) Accurately ripped
08 [5500ad70] (11/35) Accurately ripped
09 [23327687] (11/35) Accurately ripped
10 [06d9d73a] (10/34) Accurately ripped
11 [7f3973b1] (10/34) Accurately ripped
12 [d42c731d] (10/34) Accurately ripped
13 [015978c9] (11/35) Accurately ripped

Track Peak [ CRC32 ] [W/O NULL] [ LOG ]
– 92,1 [F429B1DD] [56D601AC] CRC32
01 87,8 [1895BC68] [85DB6DCF]
02 92,1 [FC93009F] [C9C7B2AF]
03 76,5 [8D3A7ABC] [A411156A]
04 91,4 [70E75436] [AD5F939B]
05 58,4 [6B3BCEF3] [D0EA891C]
06 68,1 [D8F94246] [C49A5FE4]
07 86,2 [62A115B1] [23B0F617]
08 91,1 [ABA75348] [49B31AFA]
09 84,2 [4DBE204F] [5FEC919E]
10 22,7 [A35C4321] [B42367EF]
11 92,1 [FB5E9306] [79F14B7C]
12 90,2 [1F24031B] [0B868E9D]
13 90,5 [646F5F86] [3FA46C67]


Steve Hackett: Collection (1975-2015)

Tracklist CD14 - 2007 - Tribute (2007 Camino Records, 0187382ERE, Germany):

01 - Two Gavottes, BWV 1012
02 - Courante, BWV 1009
03 - Jesu Joy, BWV 147
04 - The Fountain Suite
05 - The Earle of Salisbury
06 - La Catedral
07 - El Noy de La Mare
08 - Cascada
09 - Sapphires
10 - Prelude in D, BWV 998
11 - Prelude in C Minor, BWV 999
12 - Chaconne, BWV 1004
13 - La Maja de Goya

Exact Audio Copy V0.99 prebeta 5 from 4. May 2009

Отчёт EAC об извлечении, выполненном 7. мая 2011, 1:56

Hackett, Steve / Tribute

Дисковод: PIONEER DVD-RW DVR-115D Adapter: 1 ID: 0

Режим чтения : Достоверность
Использование точного потока : Да
Отключение кэша аудио : Да
Использование указателей C2 : Нет

Коррекция смещения при чтении : 48
Способность читать области Lead-in и Lead-out : Нет
Заполнение пропущенных сэмплов тишиной : Да
Удаление блоков с тишиной в начале и конце : Нет
При вычислениях CRC использовались нулевые сэмплы : Да
Интерфейс : Установленный внешний ASPI-интерфейс

Выходной формат : Внутренние WAV-операции
Формат сэмплов : 44.100 Гц; 16 бит; стерео


TOC извлечённого CD

Трек | Старт | Длительность | Начальный сектор | Конечный сектор
––––––––––––––––––––––––––––––––––-
1 | 0:00.00 | 3:59.00 | 0 | 17924
2 | 3:59.00 | 3:05.00 | 17925 | 31799
3 | 7:04.00 | 3:25.61 | 31800 | 47235
4 | 10:29.61 | 8:19.18 | 47236 | 84678
5 | 18:49.04 | 1:29.71 | 84679 | 91424
6 | 20:19.00 | 2:53.00 | 91425 | 104399
7 | 23:12.00 | 2:13.08 | 104400 | 114382
8 | 25:25.08 | 3:03.67 | 114383 | 128174
9 | 28:29.00 | 1:41.44 | 128175 | 135793
10 | 30:10.44 | 1:49.52 | 135794 | 144020
11 | 32:00.21 | 1:13.72 | 144021 | 149567
12 | 33:14.18 | 12:34.40 | 149568 | 206157
13 | 45:48.58 | 4:59.17 | 206158 | 228599


Характеристики диапазона извлечения и сообщения об ошибках

Выбранный диапазон

Имя файла K:\Lossless MUSIC Archive\Art Rock\England\Steve Hackett\18 - Steve Hackett - Tribute - 2007 (Camino Records 2007, Edel Records 0187382ERE, Germany)\Hackett, Steve - Tribute.wav

Пиковый уровень 71.5 %
Качество диапазона 99.9 %
CRC теста 6FDF34CE
CRC копии 6FDF34CE
Копирование… OK

Ошибок не произошло


AccurateRip: сводка

Трек 1 точность не определена (достоверность 10) [99EBBD54], AccurateRip вернул [4FA4EC81]
Трек 2 точность не определена (достоверность 10) [B4615480], AccurateRip вернул [1C5DB505]
Трек 3 точное извлечение (доверие 2) [E85F3DB8]
Трек 4 точность не определена (достоверность 10) [D13851C9], AccurateRip вернул [C951B121]
Трек 5 точность не определена (достоверность 10) [E5FE449A], AccurateRip вернул [942C4EA0]
Трек 6 точность не определена (достоверность 10) [D9F0899F], AccurateRip вернул [35E88A39]
Трек 7 точность не определена (достоверность 10) [A68243E7], AccurateRip вернул [9C230445]
Трек 8 точность не определена (достоверность 10) [8CDD298F], AccurateRip вернул [0F49A598]
Трек 9 точность не определена (достоверность 10) [F19F1211], AccurateRip вернул [C5FC8E32]
Трек 10 точность не определена (достоверность 10) [B33E2900], AccurateRip вернул [E84D02B2]
Трек 11 точность не определена (достоверность 10) [E79DD580], AccurateRip вернул [264799A3]
Трек 12 точность не определена (достоверность 10) [40F83F7F], AccurateRip вернул [C9BD6CF4]
Трек 13 точность не определена (достоверность 10) [DB623756], AccurateRip вернул [04F62A61]

1 трек(и) скопированы точно
12 трек(и) не удалось проверить на точность

Некоторые треки не прошли проверку на точность

Конец отчёта


[CUETools log; Date: 07.07.2015 10:43:27; Version: 2.0.9]
[AccurateRip ID: 0016a584-00e0711c-960be80d] found.
Track [ CRC ] Status
01 [99ebbd54] (04/23) Accurately ripped
02 [b4615480] (04/23) Accurately ripped
03 [e85f3db8] (05/22) Accurately ripped
04 [d13851c9] (04/23) Accurately ripped
05 [e5fe449a] (04/23) Accurately ripped
06 [d9f0899f] (04/23) Accurately ripped
07 [a68243e7] (04/23) Accurately ripped
08 [8cdd298f] (04/23) Accurately ripped
09 [f19f1211] (04/23) Accurately ripped
10 [b33e2900] (04/23) Accurately ripped
11 [e79dd580] (04/23) Accurately ripped
12 [40f83f7f] (04/23) Accurately ripped
13 [db623756] (04/23) Accurately ripped
Offsetted by -640:
01 [4fa4ec81] (10/23) Accurately ripped
02 [1c5db505] (10/23) Accurately ripped
03 [96608215] (10/22) Accurately ripped
04 [c951b121] (10/23) Accurately ripped
05 [942c4ea0] (10/23) Accurately ripped
06 [35e88a39] (10/23) Accurately ripped
07 [9c230445] (10/23) Accurately ripped
08 [0f49a598] (10/23) Accurately ripped
09 [c5fc8e32] (10/23) Accurately ripped
10 [e84d02b2] (10/23) Accurately ripped
11 [264799a3] (10/23) Accurately ripped
12 [c9bd6cf4] (10/23) Accurately ripped
13 [04f62a61] (10/23) Accurately ripped

Track Peak [ CRC32 ] [W/O NULL] [ LOG ]
– 71,5 [6FDF34CE] [C7E653E9] CRC32
01 71,1 [AEDB7963] [0584BB8F]
02 42,7 [49844426] [A6B1348B]
03 67,6 [4638A3D5] [029D32BE]
04 57,1 [54D7A59D] [2B10C49C]
05 47,0 [849D7088] [6997F268]
06 41,3 [4CA064B5] [F89EEE9F]
07 56,1 [FD98FC1F] [DFEF9985]
08 62,1 [3897F6A1] [CA792D8D]
09 50,5 [A3B6CDF3] [E9D8F24D]
10 44,6 [180E078F] [F0FD5236]
11 53,6 [6096CAF7] [C882DA97]
12 71,5 [081126A5] [098BA146]
13 52,8 [63017689] [33E3C975]


Steve Hackett: Collection (1975-2015)

Tracklist CD15 - 2009 - Out of the Tunnel's Mouth (2010 Inside Out Music, 0505382, Germany):

01 - Fire on the Moon
02 - Nomads
03 - Emerald and Ash
04 - Tubehead
05 - Sleepers
06 - Ghost in the Glass
07 - Still Waters
08 - Last Train to Istanbul

Exact Audio Copy V0.99 prebeta 5 from 4. May 2009

Отчёт EAC об извлечении, выполненном 7. мая 2011, 2:16

Steve Hackett / Out of the Tunnel's Mouth

Дисковод: PIONEER DVD-RW DVR-115D Adapter: 1 ID: 0

Режим чтения : Достоверность
Использование точного потока : Да
Отключение кэша аудио : Да
Использование указателей C2 : Нет

Коррекция смещения при чтении : 48
Способность читать области Lead-in и Lead-out : Нет
Заполнение пропущенных сэмплов тишиной : Да
Удаление блоков с тишиной в начале и конце : Нет
При вычислениях CRC использовались нулевые сэмплы : Да
Интерфейс : Установленный внешний ASPI-интерфейс

Выходной формат : Внутренние WAV-операции
Формат сэмплов : 44.100 Гц; 16 бит; стерео


TOC извлечённого CD

Трек | Старт | Длительность | Начальный сектор | Конечный сектор
––––––––––––––––––––––––––––––––––-
1 | 0:00.00 | 6:11.51 | 0 | 27875
2 | 6:11.51 | 4:31.48 | 27876 | 48248
3 | 10:43.24 | 8:59.27 | 48249 | 88700
4 | 19:42.51 | 3:36.61 | 88701 | 104961
5 | 23:19.37 | 8:50.53 | 104962 | 144764
6 | 32:10.15 | 2:59.63 | 144765 | 158252
7 | 35:10.03 | 4:35.38 | 158253 | 178915
8 | 39:45.41 | 5:56.54 | 178916 | 205669


Характеристики диапазона извлечения и сообщения об ошибках

Выбранный диапазон

Имя файла K:\Lossless MUSIC Archive\Art Rock\England\Steve Hackett\19 - Steve Hackett - Out of the Tunnel's Mouth - 2009 (Inside Out Music 2010, 0505382)\Steve Hackett - Out of the Tunnel's Mouth.wav

Пиковый уровень 96.0 %
Качество диапазона 100.0 %
CRC теста 0499117C
CRC копии 0499117C
Копирование… OK

Ошибок не произошло


AccurateRip: сводка

Трек 1 точное извлечение (доверие 34) [7D9C2333]
Трек 2 точное извлечение (доверие 34) [7ADC9259]
Трек 3 точное извлечение (доверие 34) [A311C3AD]
Трек 4 точное извлечение (доверие 34) [5D62755D]
Трек 5 точное извлечение (доверие 34) [010DD4EB]
Трек 6 точное извлечение (доверие 33) [7BFFC07D]
Трек 7 точное извлечение (доверие 34) [947AE821]
Трек 8 точное извлечение (доверие 34) [25582F12]

Все треки извлечены точно

Конец отчёта


[CUETools log; Date: 07.07.2015 10:46:17; Version: 2.0.9]
[AccurateRip ID: 000e9bd0-0060b911-5b0ab608] found.
Track [ CRC ] Status
01 [7d9c2333] (049/107) Accurately ripped
02 [7adc9259] (049/108) Accurately ripped
03 [a311c3ad] (049/107) Accurately ripped
04 [5d62755d] (049/107) Accurately ripped
05 [010dd4eb] (049/107) Accurately ripped
06 [7bffc07d] (048/106) Accurately ripped
07 [947ae821] (049/107) Accurately ripped
08 [25582f12] (049/107) Accurately ripped
Offsetted by -918:
01 [efbe1af4] (003/107) Accurately ripped
02 [9e9dc6af] (003/108) Accurately ripped
03 [d5941481] (003/107) Accurately ripped
04 [ee4f749c] (003/107) Accurately ripped
05 [e72c7409] (003/107) Accurately ripped
06 [f0fe2e88] (003/106) Accurately ripped
07 [7b8694eb] (003/107) Accurately ripped
08 [88df9d9f] (003/107) Accurately ripped
Offsetted by -870:
01 [21eac9a4] (007/107) Accurately ripped
02 [0fe7e87c] (007/108) Accurately ripped
03 [d178a182] (007/107) Accurately ripped
04 [22d94c33] (007/107) Accurately ripped
05 [b786e591] (007/107) Accurately ripped
06 [df3ee935] (007/106) Accurately ripped
07 [645dce2d] (007/107) Accurately ripped
08 [b622d07d] (007/107) Accurately ripped
Offsetted by -30:
01 [354b9d2b] (007/107) No match but offset
02 [15360484] (007/108) No match but offset
03 [622d0bc7] (007/107) No match but offset
04 [4fe0cbeb] (007/107) No match but offset
05 [8e59f373] (007/107) No match but offset
06 [7361e20a] (007/106) No match but offset
07 [9862b97a] (007/107) No match but offset
08 [1da7b13a] (007/107) No match but offset

Track Peak [ CRC32 ] [W/O NULL] [ LOG ]
– 96,0 [0499117C] [24A3DB4B] CRC32
01 96,0 [F56F7B64] [B6E1D978]
02 96,0 [8DF45CD5] [E5984405]
03 96,0 [C553100D] [CD5FBDE7]
04 96,0 [724119B0] [FBA56AB9]
05 96,0 [A1E1E0DE] [D41F1EAB]
06 95,5 [C5B7E8E9] [4A77B94D]
07 96,0 [2E0E0450] [05515487]
08 96,0 [18D9E988] [C57160BA]


Steve Hackett: Collection (1975-2015)

Tracklist CD16 - 2012 - Genesis Revisited II (2012 Inside Out Music, 0624-2, USA) CD1:

The Chamber Of 32 Doors
Horizons
Supper's Ready
The Lamia
Dancing With The Moonlit Knight
Fly On A Windshield
Broadway Melody Of 1974
The Musical Box
Can-utility And The Coastliners
Please Don't Touch

Exact Audio Copy V1.0 beta 3 from 29. August 2011

EAC extraction logfile from 2. April 2013, 2:48

Steve Hackett / Genesis Revisited II - Disc 1

Used drive : PLEXTOR DVDR PX-891SA Adapter: 0 ID: 2

Read mode : Secure
Utilize accurate stream : Yes
Defeat audio cache : Yes
Make use of C2 pointers : No

Read offset correction : 6
Overread into Lead-In and Lead-Out : No
Fill up missing offset samples with silence : Yes
Delete leading and trailing silent blocks : No
Null samples used in CRC calculations : Yes
Used interface : Installed external ASPI interface

Used output format : User Defined Encoder
Selected bitrate : 320 kBit/s
Quality : High
Add ID3 tag : No
Command line compressor : C:\Program Files\Exact Audio Copy 1.0\Flac\flac.exe
Additional command line options : -V -8 -T "Genre=%genre%" -T "Artist=%artist%" -T "Title=%title%" -T "Album=%albumtitle%" -T "Date=%year%" -T "Tracknumber=%tracknr%" -T "Comment=%comment%" %source%


TOC of the extracted CD

Track | Start | Length | Start sector | End sector
––––––––––––––––––––––––––––-
1 | 0:00.00 | 6:00.25 | 0 | 27024
2 | 6:00.25 | 1:40.53 | 27025 | 34577
3 | 7:41.03 | 23:34.38 | 34578 | 140665
4 | 31:15.41 | 7:47.01 | 140666 | 175691
5 | 39:02.42 | 8:09.38 | 175692 | 212404
6 | 47:12.05 | 2:53.33 | 212405 | 225412
7 | 50:05.38 | 2:23.00 | 225413 | 236137
8 | 52:28.38 | 10:57.00 | 236138 | 285412
9 | 63:25.38 | 5:49.35 | 285413 | 311622
10 | 69:14.73 | 4:03.15 | 311623 | 329862


Range status and errors

Selected range

Filename K:\Lossless Temp\Steve Hackett\Steve Hackett - Genesis Revisited II - 2012 (Inside Out Music, 0624-2)\Disc 1\Steve Hackett - Genesis Revisited II - Disc 1.wav

Peak level 94.3 %
Extraction speed 6.9 X
Range quality 100.0 %
Test CRC 022A9632
Copy CRC 022A9632
Copy OK

No errors occurred


AccurateRip summary

Track 1 accurately ripped (confidence 2) [FA093610] (AR v1)
Track 2 accurately ripped (confidence 2) [03FA043B] (AR v1)
Track 3 accurately ripped (confidence 2) [FF6E44EF] (AR v1)
Track 4 cannot be verified as accurate (confidence 11) [995D64BC], AccurateRip returned [B3BA943D] (AR v2)
Track 5 accurately ripped (confidence 2) [52B26F05] (AR v1)
Track 6 accurately ripped (confidence 2) [ED616F39] (AR v1)
Track 7 accurately ripped (confidence 2) [9FD57E23] (AR v1)
Track 8 accurately ripped (confidence 2) [19A93DCF] (AR v1)
Track 9 accurately ripped (confidence 2) [D3837614] (AR v1)
Track 10 accurately ripped (confidence 2) [F632EF39] (AR v1)

9 трек(и) скопированы точно
1 трек(и) не удалось проверить на точность

Some tracks could not be verified as accurate

End of status report

==== Log checksum F6839BB9CF5A6EE892C2631DE354F2A120E8A3509E538DC33637C7BBB926C460 ====


[CUETools log; Date: 07.07.2015 10:50:07; Version: 2.0.9]
[AccurateRip ID: 001e31c0-00eedb8e-84112e0a] found.
Track [ CRC ] Status
01 [fa093610] (003/176) Accurately ripped
02 [03fa043b] (003/175) Accurately ripped
03 [ff6e44ef] (003/176) Accurately ripped
04 [122d3796] (002/176) Accurately ripped
05 [52b26f05] (003/177) Accurately ripped
06 [ed616f39] (003/177) Accurately ripped
07 [9fd57e23] (003/177) Accurately ripped
08 [19a93dcf] (003/177) Accurately ripped
09 [d3837614] (003/177) Accurately ripped
10 [f632ef39] (003/170) Accurately ripped
Offsetted by -12:
01 [086d684d] (017/176) Accurately ripped
02 [a3238c40] (016/175) Accurately ripped
03 [9a8ab2bd] (017/176) Accurately ripped
04 [b3ba943d] (018/176) Accurately ripped
05 [e09bd1f7] (018/177) Accurately ripped
06 [f89ce414] (018/177) Accurately ripped
07 [c20c9234] (018/177) Accurately ripped
08 [846064e6] (019/177) Accurately ripped
09 [87a9add8] (018/177) Accurately ripped
10 [37dea4db] (017/170) Accurately ripped
Offsetted by -6:
01 [156404da] (017/176) No match but offset
02 [b56703fa] (016/175) No match but offset
03 [e9360b9b] (017/176) No match but offset
04 [28a723b0] (018/176) No match but offset
05 [1c1bb57f] (018/177) No match but offset
06 [0c6f63e6] (018/177) No match but offset
07 [ee4ecb4c] (018/177) No match but offset
08 [61050eca] (019/177) No match but offset
09 [9afd4676] (018/177) No match but offset
10 [c9a417a0] (017/170) No match but offset

Track Peak [ CRC32 ] [W/O NULL] [ LOG ]
– 94,3 [022A9632] [9964B67B] CRC32
01 94,3 [8829EEB2] [E630ABC7]
02 37,7 [4BBFF604] [BCA5B220]
03 94,3 [2FEAD4F6] [8A4600CF]
04 94,3 [873C3927] [0BD77FED]
05 94,3 [FE54F0E0] [76DCB024]
06 94,3 [F1A86824] [4119221E]
07 94,3 [F7C496E0] [92421F17]
08 94,3 [4012D181] [81A8CB08]
09 94,3 [025F7A9E] [809D2268]
10 94,3 [C2B531F4] [E8F800F6]


Steve Hackett: Collection (1975-2015)

Tracklist CD17 - 2012 - Genesis Revisited II (2012 Inside Out Music, 0624-2, USA) CD2:

Blood On The Rooftops
The Return Of The Giant Hogweed
Entangled
Eleventh Earl Of Mar
Ripples
Unquiet Slumbers For The Sleepers…
…In That Quiet Earth
Afterglow
A Tower Struck Down
Camino Royale
Shadow Of The Hierophant

Exact Audio Copy V1.0 beta 3 from 29. August 2011

EAC extraction logfile from 4. April 2013, 13:59

Steve Hackett / Genesis Revisited - Disc 2

Used drive : PLEXTOR DVDR PX-891SA Adapter: 0 ID: 2

Read mode : Secure
Utilize accurate stream : Yes
Defeat audio cache : Yes
Make use of C2 pointers : No

Read offset correction : 6
Overread into Lead-In and Lead-Out : No
Fill up missing offset samples with silence : Yes
Delete leading and trailing silent blocks : No
Null samples used in CRC calculations : Yes
Used interface : Installed external ASPI interface

Used output format : User Defined Encoder
Selected bitrate : 320 kBit/s
Quality : High
Add ID3 tag : No
Command line compressor : C:\Program Files\Exact Audio Copy 1.0\Flac\flac.exe
Additional command line options : -V -8 -T "Genre=%genre%" -T "Artist=%artist%" -T "Title=%title%" -T "Album=%albumtitle%" -T "Date=%year%" -T "Tracknumber=%tracknr%" -T "Comment=%comment%" %source%


TOC of the extracted CD

Track | Start | Length | Start sector | End sector
––––––––––––––––––––––––––––-
1 | 0:00.00 | 6:56.17 | 0 | 31216
2 | 6:56.17 | 8:45.34 | 31217 | 70625
3 | 15:41.51 | 6:35.28 | 70626 | 100278
4 | 22:17.04 | 7:50.33 | 100279 | 135561
5 | 30:07.37 | 8:14.17 | 135562 | 172628
6 | 38:21.54 | 2:21.12 | 172629 | 183215
7 | 40:42.66 | 4:46.47 | 183216 | 204712
8 | 45:29.38 | 4:08.48 | 204713 | 223360
9 | 49:38.11 | 4:45.20 | 223361 | 244755
10 | 54:23.31 | 6:19.11 | 244756 | 273191
11 | 60:42.42 | 10:44.50 | 273192 | 321541


Range status and errors

Selected range

Filename K:\Lossless Temp\Steve Hackett\Steve Hackett - Genesis Revisited II - 2012 (Inside Out Music, 0624-2)\Disc 2\Steve Hackett - Genesis Revisited - Disc 2.wav

Peak level 94.3 %
Extraction speed 1.8 X
Range quality 100.0 %
Test CRC 6CE6A6DB
Copy CRC 6CE6A6DB
Copy OK

No errors occurred


AccurateRip summary

Track 1 accurately ripped (confidence 2) [E1AE668F] (AR v1)
Track 2 accurately ripped (confidence 2) [6CB86C5A] (AR v1)
Track 3 accurately ripped (confidence 2) [D0BA4170] (AR v1)
Track 4 accurately ripped (confidence 2) [135A8974] (AR v1)
Track 5 accurately ripped (confidence 2) [2B58F994] (AR v1)
Track 6 accurately ripped (confidence 2) [251CEDA5] (AR v1)
Track 7 accurately ripped (confidence 2) [AE9D33F3] (AR v1)
Track 8 accurately ripped (confidence 2) [76D174F4] (AR v1)
Track 9 accurately ripped (confidence 2) [F16DDB2B] (AR v1)
Track 10 accurately ripped (confidence 2) [B70D5DAC] (AR v1)
Track 11 accurately ripped (confidence 2) [E78D8B77] (AR v1)

All tracks accurately ripped

End of status report

==== Log checksum 8479E1B94E9763B4632323E74777334F9DD29419E80D76B0088382530C40C94A ====


[CUETools log; Date: 07.07.2015 10:50:57; Version: 2.0.9]
[AccurateRip ID: 001dec85-00fdc37e-9810bf0b] found.
Track [ CRC ] Status
01 [e1ae668f] (003/168) Accurately ripped
02 [6cb86c5a] (003/169) Accurately ripped
03 [d0ba4170] (003/168) Accurately ripped
04 [135a8974] (003/169) Accurately ripped
05 [2b58f994] (003/169) Accurately ripped
06 [251ceda5] (003/169) Accurately ripped
07 [ae9d33f3] (003/169) Accurately ripped
08 [76d174f4] (003/168) Accurately ripped
09 [f16ddb2b] (003/169) Accurately ripped
10 [b70d5dac] (003/168) Accurately ripped
11 [e78d8b77] (003/165) Accurately ripped
Offsetted by -12:
01 [6e0df072] (017/168) Accurately ripped
02 [96117fa3] (018/169) Accurately ripped
03 [2c5cdb1a] (016/168) Accurately ripped
04 [c6149e89] (017/169) Accurately ripped
05 [df855611] (017/169) Accurately ripped
06 [aed10150] (017/169) Accurately ripped
07 [a0acb329] (017/169) Accurately ripped
08 [4159d754] (016/168) Accurately ripped
09 [b3b15cd4] (017/169) Accurately ripped
10 [5a1969b5] (017/168) Accurately ripped
11 [547f5670] (015/165) Accurately ripped
Offsetted by -6:
01 [82914a82] (017/168) No match but offset
02 [8b6be08e] (018/169) No match but offset
03 [0236bc85] (016/168) No match but offset
04 [4a4e034c] (017/169) No match but offset
05 [02d2833d] (017/169) No match but offset
06 [e71395a3] (017/169) No match but offset
07 [c26125ab] (017/169) No match but offset
08 [d1c74efc] (016/168) No match but offset
09 [3afe5287] (017/169) No match but offset
10 [df6a37da] (017/168) No match but offset
11 [9e1a70d0] (015/165) No match but offset

Track Peak [ CRC32 ] [W/O NULL] [ LOG ]
– 94,3 [6CE6A6DB] [0FB577B9] CRC32
01 94,3 [E99C388C] [D1A7ACBB]
02 94,3 [9CDC77C0] [7F5F7453]
03 94,3 [C717EE2C] [4C1B2C65]
04 94,3 [5B55DE0C] [820D3B46]
05 94,3 [3C5F85BE] [0C54E958]
06 70,7 [C06E5660] [02DC0E6F]
07 94,3 [1C5EB199] [A6908CD2]
08 94,3 [34A7121D] [20D09127]
09 94,3 [F54ACD47] [F1118689]
10 94,3 [79E29AA8] [0BC1854F]
11 94,3 [D3DE5018] [8D574C76]


Steve Hackett: Collection (1975-2015)

Tracklist CD18 - 2015 - Wolflight (2015 Inside Out Music, 0507072, Germany):

01. Out of the Body (2.29)
02. Wolflight (8.00)
03. Love Song to a Vampire (9.18)
04. The Wheel's Turning (7.24)
05. Corycian Fire (5.47)
06. Earthshine (3.20)
07. Loving Sea (3.22)
08. Black Thunder (7.32)
09. Dust and Dreams (5.33)
10. Heart Song (2.51)

Exact Audio Copy V1.0 beta 6 from 9. April 2015

EAC extraction logfile from 3. July 2015, 11:35

Steve Hackett / Wolflight

Used drive : PLEXTOR DVDR PX-891SA Adapter: 0 ID: 2

Read mode : Secure
Utilize accurate stream : Yes
Defeat audio cache : Yes
Make use of C2 pointers : No

Read offset correction : 6
Overread into Lead-In and Lead-Out : No
Fill up missing offset samples with silence : Yes
Delete leading and trailing silent blocks : No
Null samples used in CRC calculations : Yes
Used interface : Installed external ASPI interface

Used output format : User Defined Encoder
Selected bitrate : 320 kBit/s
Quality : High
Add ID3 tag : No
Command line compressor : C:\Program Files\Exact Audio Copy 1.0 b6\Exact Audio Copy\Flac\flac.exe
Additional command line options : -V -8 -T "Date=%year%" -T "Genre=%genre%" %source%


TOC of the extracted CD

Track | Start | Length | Start sector | End sector
––––––––––––––––––––––––––––-
1 | 0:00.00 | 2:29.20 | 0 | 11194
2 | 2:29.20 | 8:00.08 | 11195 | 47202
3 | 10:29.28 | 9:17.57 | 47203 | 89034
4 | 19:47.10 | 7:23.56 | 89035 | 122315
5 | 27:10.66 | 5:46.55 | 122316 | 148320
6 | 32:57.46 | 3:20.29 | 148321 | 163349
7 | 36:18.00 | 3:22.34 | 163350 | 178533
8 | 39:40.34 | 7:32.37 | 178534 | 212470
9 | 47:12.71 | 5:33.01 | 212471 | 237446
10 | 52:45.72 | 2:51.01 | 237447 | 250272


Range status and errors

Selected range

Filename L:\Lossless Temp\Steve Hackett\2015. Steve Hackett - Wolflight (2015 Inside Out Music, 0507072, Germany)\Steve Hackett - Wolflight.wav

Peak level 94.4 %
Extraction speed 8.3 X
Range quality 100.0 %
Test CRC 07AA457D
Copy CRC 07AA457D
Copy OK

No errors occurred


AccurateRip summary

Track 1 accurately ripped (confidence 8) [CB496568] (AR v2)
Track 2 accurately ripped (confidence 8) [93620EC3] (AR v2)
Track 3 accurately ripped (confidence 8) [EAE7674F] (AR v2)
Track 4 accurately ripped (confidence 8) [D103350A] (AR v2)
Track 5 accurately ripped (confidence 8) [92834956] (AR v2)
Track 6 accurately ripped (confidence 8) [D006EC34] (AR v2)
Track 7 accurately ripped (confidence 8) [6275B6AA] (AR v2)
Track 8 accurately ripped (confidence 8) [F734FEE4] (AR v2)
Track 9 accurately ripped (confidence 8) [250D4A2E] (AR v2)
Track 10 accurately ripped (confidence 8) [4F29B755] (AR v2)

All tracks accurately ripped

End of status report

==== Log checksum F6496F28AC3DDFCECDA334F7C11F71B42BF60E91BCB71DACCF8656DF694B6036 ====


[CUETools log; Date: 03.07.2015 11:48:43; Version: 2.0.9]
[AccurateRip ID: 001647b1-00b181b8-880d080a] found.
Track [ CRC ] Status
01 [8e66aae8] (02/10) Accurately ripped
02 [fdb887cc] (02/10) Accurately ripped
03 [85bc5ae8] (02/10) Accurately ripped
04 [9fce5fa6] (02/10) Accurately ripped
05 [5200ba39] (02/10) Accurately ripped
06 [da0e6439] (02/10) Accurately ripped
07 [9e5e11d7] (02/10) Accurately ripped
08 [affc8f45] (02/10) Accurately ripped
09 [8004ce9b] (02/10) Accurately ripped
10 [5def9ec7] (08/08) No match but offset

Track Peak [ CRC32 ] [W/O NULL] [ LOG ]
– 94,4 [07AA457D] [A562F698] CRC32
01 94,4 [9DDB0C8D] [133F1D67]
02 94,4 [3FD8CD6C] [382CC4D6]
03 94,4 [0EADA910] [04B4E08E]
04 94,3 [3B7D9D60] [0CF9C9A8]
05 94,4 [7B0B4DAA] [66910318]
06 87,6 [21ECA9E4] [BB4E6525]
07 94,4 [4F70CA6C] [E46C3062]
08 94,4 [C86840CD] [1A3C658C]
09 94,2 [01DEBEF0] [AC3328E2]
10 94,3 [F4E674C9] [705A48A5]



All thanks go to the original releasers

Steve Hackett in my Blog

Download Steve Hackett: Collection (1975-2015):