Tags
Language
Tags

Steve Lukather - I Found The Sun Again (2021)

Posted By: popsakov
Steve Lukather - I Found The Sun Again (2021)

Steve Lukather - I Found The Sun Again (2021)
EAC Rip | FLAC (Img) + Cue + Log ~ 385 Mb | Full Scans | 00:50:21 | RAR 5% Recovery
Classic Rock, Blues Rock, Jazz Rock | The Players Club #TPC78312

Steve Lukather aka “Luke” and Joseph Williams will release individual solo albums on February 26, 2021 via The Players Club / Mascot Label Group. Both artists have made significant contributions to the other’s album. Over the course of five decades Steve Lukather has placed an indelible stamp on pop culture. Alongside his tenure as the only member of Toto to never take a hiatus from the band, he has performed on thousands of albums as a session musician. He continues to be Toto’s band leader, a member of Ringo’s All-Starr Band, and a solo artist performing with multiple ensembles. Steve Lukather’s new solo album "I Found The Sun Again" was co-produced by Ken Freeman, who also both engineered and mixed. The players feature many dignitaries that have been in Luke’s life for decades. Amongst those are drummer Greg Bissonette, keyboardist Jeff Babko, and bassists Jorgen Carlsson and John Pierce. Life-long friend and Toto band-mate David Paich performs piano and organ across the album, while Joseph Williams sang on multiple tracks alongside writing string and horn arrangements and tracking keys on “Run To Me.” Both Paich and Williams co-wrote that specific composition, while friend and band leader of the All-Starrs, Ringo Starr makes a special appearance on the recording and in the video. "I Found The Sun Again" features five new original compositions, and three covers personally selected by Luke. Those are Traffic’s “Low Spark of High Heeled Boys,” Joe Walsh’s “Welcome To The Club,” and Robin Trower’s “Bridge of Sighs.” Lukather offers in the liner notes, “ALL these tracks were cut LIVE - no clix - no fix - No rehearsal - one run thru - and record and the whole record was take 2."

***************

Track List:

01. Along For The Ride [4:57]
02. Serpent Soul [4:56]
03. The Low Spark of High Heeled Boys [10:36]
04. Journey Through [5:55]
05. Welcome To The Club [5:58]
06. I Found The Sun Again [6:19]
07. Run To Me [3:19]
08. Bridge Of Sighs [8:25]

Exact Audio Copy V1.6 from 23. October 2020

EAC extraction logfile from 1. March 2021, 12:27

Steve Lukather / I Found The Sun Again

Used drive : PIONEER BD-RW BDR-212M Adapter: 1 ID: 0

Read mode : Secure
Utilize accurate stream : Yes
Defeat audio cache : Yes
Make use of C2 pointers : No

Read offset correction : 667
Overread into Lead-In and Lead-Out : No
Fill up missing offset samples with silence : Yes
Delete leading and trailing silent blocks : No
Null samples used in CRC calculations : Yes
Used interface : Native Win32 interface for Win NT & 2000

Used output format : Internal WAV Routines
Sample format : 44.100 Hz; 16 Bit; Stereo


TOC of the extracted CD

Track | Start | Length | Start sector | End sector
––––––––––––––––––––––––––––-
1 | 0:00.00 | 4:56.19 | 0 | 22218
2 | 4:56.19 | 4:55.13 | 22219 | 44356
3 | 9:51.32 | 10:35.47 | 44357 | 92028
4 | 20:27.04 | 5:54.73 | 92029 | 118651
5 | 26:22.02 | 5:57.20 | 118652 | 145446
6 | 32:19.22 | 6:18.01 | 145447 | 173797
7 | 38:37.23 | 3:18.62 | 173798 | 188709
8 | 41:56.10 | 8:24.02 | 188710 | 226511


Range status and errors

Selected range

Filename C:\Users\LondonW1\Desktop\Steve Lukather - I Found The Sun Again.wav

Peak level 100.0 %
Extraction speed 7.2 X
Range quality 100.0 %
Test CRC 719FB4A9
Copy CRC 719FB4A9
Copy OK

No errors occurred


AccurateRip summary

Track 1 not present in database
Track 2 not present in database
Track 3 not present in database
Track 4 not present in database
Track 5 not present in database
Track 6 not present in database
Track 7 not present in database
Track 8 not present in database

None of the tracks are present in the AccurateRip database

End of status report

–– CUETools DB Plugin V2.1.6

[CTDB TOCID: LG.VXTXpCsSBR346nmU9cxA0c28-] found
Submit result: LG.VXTXpCsSBR346nmU9cxA0c28- has been confirmed
Track | CTDB Status
1 | (21/21) Accurately ripped
2 | (21/21) Accurately ripped
3 | (21/21) Accurately ripped
4 | (21/21) Accurately ripped
5 | (21/21) Accurately ripped
6 | (21/21) Accurately ripped
7 | (21/21) Accurately ripped
8 | (21/21) Accurately ripped


==== Log checksum 1706409842C6535F68253BD73FED8CEB4234DBC308099B7E7083298308057F89 ====

All thanks go to London

>>> My Blog <<<