Steve Miller Band - The Joker (1973) {Reissue, Remastered}

Posted By: popsakov
Steve Miller Band - The Joker (1973) {Reissue, Remastered}

Steve Miller Band - The Joker (1973) {Reissue, Remastered}
EAC Rip | FLAC (Img) + Cue + Log ~ 214 Mb | MP3 CBR320 ~ 87 Mb
Scans (JPG, 600 dpi) ~ 34 Mb | RAR 5% Recovery
Classic Rock, Blues Rock, Alternative Rock, Art Rock | Capitol Records #CDP 7 94445 2

The Joker is, without question, the turning point in Steve Miller's career, the album where he infused his blues with a big, bright dose of pop and got exactly what he deserved: Top Ten hits and stardom. He also lost a lot of fans, the ones who dug his winding improvs, because those spacy jams were driven by chops and revealed new worlds. The Joker isn't mind-expanding, it's party music, filled with good vibes, never laying a heavy trip, always keeping things light, relaxed and easygoing. Sometimes, the vibes are interrupted, but not in a harsh way – the second side slows a bit, largely due to the sludgy "Come in My Kitchen" and "Evil," the two songs that were recorded live but lacking any kinetic energy – but for the most part, this is all bright and fun, occasionally truly silly, as on "Shu Ba Da Du Ma Ma Ma Ma." This silliness, of course, alienated old fans all the more, but that sense of fun is both the most appealing thing about The Joker and it set a touchstone for the rest of his career. Here, it's best heard on the terrific opener "Sugar Babe" and, of course, the timeless title track, which is sunny and ridiculous in equal measure. If nothing else is quite up to that standard in terms of songs – certainly, it's not as jammed-pack as its successor, Fly Like an Eagle – The Joker nevertheless maintains its good-time vibe so well that it's hard not to smile along…provided you're on the same wavelength as Miller, of course.
~ Stephen Thomas Erlewine, All Music

***************

Steve Miller Band - The Joker (1973) {Reissue, Remastered}

Steve Miller Band - The Joker (1973) {Reissue, Remastered}

Track List:

01. Sugar Babe [4:02]
02. Mary Lou [2:57]
03. Shu Ba Da Du Ma Ma Ma Ma [5:42]
04. Your Cash Ain't Nothin' But Trash [3:22]
05. The Joker [4:26]
06. The Lovin' Cup [2:12]
07. Come On In My Kitchen [4:07]
08. Evil [4:35]
09. Something To Believe In [4:43]

Personnel:
Vocals, Guitar, Harmonica - Steve Miller
Drums - John King
Bass - Gerald Johnson
Organ, Clavinet - Dickie Thompson

Exact Audio Copy V1.3 from 2. September 2016

EAC extraction logfile from 7. September 2017, 21:12

Steve Miller Band / The Joker

Used drive : ATAPI iHAS122 C Adapter: 1 ID: 0

Read mode : Secure
Utilize accurate stream : Yes
Defeat audio cache : Yes
Make use of C2 pointers : No

Read offset correction : 6
Overread into Lead-In and Lead-Out : No
Fill up missing offset samples with silence : Yes
Delete leading and trailing silent blocks : No
Null samples used in CRC calculations : Yes
Used interface : Native Win32 interface for Win NT & 2000

Used output format : Internal WAV Routines
Sample format : 44.100 Hz; 16 Bit; Stereo


TOC of the extracted CD

Track | Start | Length | Start sector | End sector
––––––––––––––––––––––––––––-
1 | 0:00.32 | 4:02.03 | 32 | 18184
2 | 4:02.35 | 2:56.70 | 18185 | 31454
3 | 6:59.30 | 5:42.05 | 31455 | 57109
4 | 12:41.35 | 3:22.05 | 57110 | 72264
5 | 16:03.40 | 4:26.07 | 72265 | 92221
6 | 20:29.47 | 2:11.50 | 92222 | 102096
7 | 22:41.22 | 4:06.38 | 102097 | 120584
8 | 26:47.60 | 4:34.70 | 120585 | 141204
9 | 31:22.55 | 4:42.65 | 141205 | 162419


Range status and errors

Selected range

Filename C:\Users\London\Desktop\Steve Miller Band - The Joker.wav

Peak level 93.2 %
Extraction speed 7.9 X
Range quality 99.9 %
Test CRC ADBB3E39
Copy CRC ADBB3E39
Copy OK

No errors occurred


AccurateRip summary

Track 1 accurately ripped (confidence 17) [7F55F12A] (AR v2)
Track 2 accurately ripped (confidence 17) [C33400E7] (AR v2)
Track 3 accurately ripped (confidence 17) [D9C67946] (AR v2)
Track 4 accurately ripped (confidence 17) [87A64291] (AR v2)
Track 5 accurately ripped (confidence 17) [F99D89EE] (AR v2)
Track 6 accurately ripped (confidence 17) [E3ADB2C6] (AR v2)
Track 7 accurately ripped (confidence 17) [2EEFF9A5] (AR v2)
Track 8 accurately ripped (confidence 17) [0D104BEC] (AR v2)
Track 9 accurately ripped (confidence 17) [47549C82] (AR v2)

All tracks accurately ripped

End of status report

–– CUETools DB Plugin V2.1.6

[CTDB TOCID: AUVrxRoX72r.TkKhDeoHuuhkih0-] found
Submit result: AUVrxRoX72r.TkKhDeoHuuhkih0- has been confirmed
Track | CTDB Status
1 | (41/41) Accurately ripped
2 | (41/41) Accurately ripped
3 | (41/41) Accurately ripped
4 | (40/41) Accurately ripped
5 | (41/41) Accurately ripped
6 | (41/41) Accurately ripped
7 | (41/41) Accurately ripped
8 | (41/41) Accurately ripped
9 | (40/41) Accurately ripped


==== Log checksum 5255A8716A3572D4E09661C9F85FC4E7475180220DF82F88ED1BC7957E8246E8 ====

foobar2000 1.2.6 / Dynamic Range Meter 1.1.1
log date: 2017-10-08 20:18:00

––––––––––––––––––––––––––––––––––––––––
Analyzed: Steve Miller Band / The Joker
––––––––––––––––––––––––––––––––––––––––

DR Peak RMS Duration Track
––––––––––––––––––––––––––––––––––––––––
DR11 -1.56 dB -15.08 dB 4:02 01-Sugar Babe
DR13 -2.17 dB -17.53 dB 2:57 02-Mary Lou
DR12 -0.93 dB -15.97 dB 5:42 03-Shu Ba Da Du Ma Ma Ma Ma
DR14 -0.83 dB -17.43 dB 3:22 04-Your Cash Ain't Nothin' But Trash
DR12 -0.61 dB -15.43 dB 4:26 05-The Joker
DR12 -2.35 dB -16.26 dB 2:12 06-The Lovin' Cup
DR10 -2.80 dB -15.04 dB 4:07 07-Come On In My Kitchen
DR10 -3.01 dB -14.73 dB 4:35 08-Evil
DR11 -1.87 dB -15.01 dB 4:43 09-Something To Believe In
––––––––––––––––––––––––––––––––––––––––

Number of tracks: 9
Official DR value: DR12

Samplerate: 44100 Hz
Channels: 2
Bits per sample: 16
Bitrate: 792 kbps
Codec: FLAC
================================================================================

[CUETools log; Date: 08.10.2017 20:18:02; Version: 2.1.5]
Pregap length 00:00:32.
[CTDB TOCID: AUVrxRoX72r.TkKhDeoHuuhkih0-] found.
Track | CTDB Status
1 | (43/43) Accurately ripped
2 | (43/43) Accurately ripped
3 | (43/43) Accurately ripped
4 | (42/43) Accurately ripped
5 | (43/43) Accurately ripped
6 | (43/43) Accurately ripped
7 | (43/43) Accurately ripped
8 | (43/43) Accurately ripped
9 | (42/43) Accurately ripped
[AccurateRip ID: 000c2b88-00593ccc-70087509] found.
Track [ CRC | V2 ] Status
01 [b7c8e6ea|7f55f12a] (04+19/76) Accurately ripped
02 [f5ba3131|c33400e7] (04+19/75) Accurately ripped
03 [8953b02f|d9c67946] (04+19/76) Accurately ripped
04 [ba0573d4|87a64291] (04+19/76) Accurately ripped
05 [d67a0200|f99d89ee] (04+19/76) Accurately ripped
06 [7edcdb44|e3adb2c6] (04+19/75) Accurately ripped
07 [18c6adae|2eeff9a5] (04+19/75) Accurately ripped
08 [f57890c1|0d104bec] (03+19/74) Accurately ripped
09 [68066258|47549c82] (04+19/74) Accurately ripped
Offsetted by 646:
01 [af2858f6] (02/76) Accurately ripped
02 [56525113] (02/75) Accurately ripped
03 [cb1810c1] (02/76) Accurately ripped
04 [5bbc65de] (02/76) Accurately ripped
05 [603c867a] (02/76) Accurately ripped
06 [f4dfac5e] (02/75) Accurately ripped
07 [1016b3bb] (02/75) Accurately ripped
08 [0b34c514] (02/74) Accurately ripped
09 [a2cea3d6] (02/74) Accurately ripped
Offsetted by 664:
01 [64846ba9] (06/76) Accurately ripped
02 [90bf04ee] (06/75) Accurately ripped
03 [6aa5dbf7] (06/76) Accurately ripped
04 [e6fa8f7c] (06/76) Accurately ripped
05 [24ab5b68] (06/76) Accurately ripped
06 [066d9f2c] (06/75) Accurately ripped
07 [2c784c12] (06/75) Accurately ripped
08 [82997e7d] (06/74) Accurately ripped
09 [9aef2ad0] (06/74) Accurately ripped
Offsetted by 1578:
01 [45604e48] (11/76) Accurately ripped
02 [17b4a429] (11/75) Accurately ripped
03 [d78cf1ad] (11/76) Accurately ripped
04 [be4f099a] (12/76) Accurately ripped
05 [1b18ecd6] (11/76) Accurately ripped
06 [81ce567a] (11/75) Accurately ripped
07 [900046e4] (11/75) Accurately ripped
08 [3d2a068b] (11/74) Accurately ripped
09 [b5d49b4a] (11/74) Accurately ripped

Track Peak [ CRC32 ] [W/O NULL] [ LOG ]
– 93,2 [ADBB3E39] [1BAA9087] CRC32
01 83,5 [B941D0A8] [7C5D03D7]
02 77,8 [CEC85C0B] [28F8D5AB]
03 89,8 [F0E5DA5A] [3EC27D6D]
04 90,8 [04A2D46D] [3E89EB3C]
05 93,2 [5768C977] [FA4A0A70]
06 76,2 [2705573C] [DCDE2FB9]
07 72,4 [D74AB8AB] [B38B6A6A]
08 70,6 [92B32798] [9C0666FF]
09 80,6 [AF7F618B] [39226488]

Steve Miller Band - The Joker (1973) {Reissue, Remastered}

All thanks go to London

>>> My Blog <<<

Download from icerbox.com: