Subcategories

Steve Vai - Modern Primitive / Passion And Warfare (25th Anniversary Edition) (2016)

Posted By: v3122
Steve Vai - Modern Primitive / Passion And Warfare (25th Anniversary Edition) (2016)

Steve Vai - Modern Primitive / Passion And Warfare (25th Anniversary Edition) (2016)
EAC | Flac(Image) + Cue + Log
2CD | Epic, 88985309092 | ~ 1008 Mb | Scans Included
Instrumental Rock

Commemorating the 25th anniversary of Passion and Warfare comes a special 2CD edition of the album which includes the first-ever release of Vai's Modern Primitive songs and recordings. Based on song sketches and works-in-progress penned, and recorded, by Vai following the release of Flex-Able, the artist's debut album, in January 1984, the music on Modern Primitive has been completed by Steve for release as a full album bonus disc in the Passion and Warfare 25th Anniversary Edition.

~ amazon
Steve Vai - Modern Primitive / Passion And Warfare (25th Anniversary Edition) (2016):

Steve Vai - Modern Primitive / Passion And Warfare (25th Anniversary Edition) (2016)

Tracklist CD1 - Modern Primitive:

01. Bop! (5:38)
02. Dark Matter (3:53)
03. Mighty Messengers (3:57)
04. The Lost Chord (4:09)
05. Upanishads (4:38)
06. Fast Note People (5:54)
07. And We Are One (5:22)
08. Never Forever (5:17)
09. Lights Are On (6:27)
10. No Pockets (4:54)
Pink And Blows Over
11. Pink And Blows Over Pt I (3:21)
12. Pink And Blows Over Pt II Mars Attack (13:14)
13. Pink And Blows Over Pt III (3:31)

Converted to Image (CUETools 2.1.4)

Exact Audio Copy V1.1 from 23. June 2015

EAC extraction logfile from 25. June 2016, 17:47

Steve Vai / Modern Primitive

Used drive : HL-DT-STBD-RE WH16NS40 Adapter: 1 ID: 0

Read mode : Secure
Utilize accurate stream : Yes
Defeat audio cache : Yes
Make use of C2 pointers : No

Read offset correction : 6
Overread into Lead-In and Lead-Out : No
Fill up missing offset samples with silence : Yes
Delete leading and trailing silent blocks : No
Null samples used in CRC calculations : Yes
Used interface : Native Win32 interface for Win NT & 2000
Gap handling : Appended to previous track

Used output format : User Defined Encoder
Selected bitrate : 1024 kBit/s
Quality : High
Add ID3 tag : No
Command line compressor : C:\My Downloads\Music and Videos\What.CD Toolbox 6 for Windows\Codecs\flac-1.3.1-win\win64\flac.exe
Additional command line options : -8 -e -V -T "ARTIST=%artist%" -T "TITLE=%title%" -T "ALBUM=%albumtitle%" -T "DATE=%year%" -T "TRACKNUMBER=%tracknr%" -T "GENRE=%genre%" -T "PERFORMER=%albuminterpret%" -T "COMPOSER=%composer%" %haslyrics%–tag-from-file=LYRICS="%lyricsfile%"%haslyrics% -T "ALBUMARTIST=%albumartist%" -T "DISCNUMBER=%cdnumber%" -T "TOTALDISCS=%totalcds%" -T "TOTALTRACKS=%numtracks%" -T "COMMENT=%comment%" %source% -o %dest%


TOC of the extracted CD

Track | Start | Length | Start sector | End sector
––––––––––––––––––––––––––––-
1 | 0:00.00 | 5:37.40 | 0 | 25314
2 | 5:37.40 | 3:53.18 | 25315 | 42807
3 | 9:30.58 | 3:57.16 | 42808 | 60598
4 | 13:27.74 | 4:08.45 | 60599 | 79243
5 | 17:36.44 | 4:37.54 | 79244 | 100072
6 | 22:14.23 | 5:53.45 | 100073 | 126592
7 | 28:07.68 | 5:22.17 | 126593 | 150759
8 | 33:30.10 | 5:17.05 | 150760 | 174539
9 | 38:47.15 | 6:26.69 | 174540 | 203558
10 | 45:14.09 | 4:54.23 | 203559 | 225631
11 | 50:08.32 | 3:21.15 | 225632 | 240721
12 | 53:29.47 | 13:13.54 | 240722 | 300250
13 | 66:43.26 | 3:30.59 | 300251 | 316059


Track 1

Filename D:\Torrents\Steve Vai - Modern Primative-Passion and Warfare [FLAC]\Modern Primative\01 - Bop!.wav

Pre-gap length 0:00:02.00

Peak level 98.9 %
Extraction speed 3.5 X
Track quality 100.0 %
Test CRC 5D26FF06
Copy CRC 5D26FF06
Track not present in AccurateRip database
Copy OK

Track 2

Filename D:\Torrents\Steve Vai - Modern Primative-Passion and Warfare [FLAC]\Modern Primative\02 - Dark Matter.wav

Peak level 98.9 %
Extraction speed 1.4 X
Track quality 100.0 %
Test CRC 28579D9B
Copy CRC 28579D9B
Track not present in AccurateRip database
Copy OK

Track 3

Filename D:\Torrents\Steve Vai - Modern Primative-Passion and Warfare [FLAC]\Modern Primative\03 - Mighty Messengers.wav

Peak level 98.9 %
Extraction speed 1.4 X
Track quality 100.0 %
Test CRC 9D92C59E
Copy CRC 9D92C59E
Track not present in AccurateRip database
Copy OK

Track 4

Filename D:\Torrents\Steve Vai - Modern Primative-Passion and Warfare [FLAC]\Modern Primative\04 - The Lost Chord.wav

Peak level 98.9 %
Extraction speed 1.5 X
Track quality 100.0 %
Test CRC BE03BCE5
Copy CRC BE03BCE5
Track not present in AccurateRip database
Copy OK

Track 5

Filename D:\Torrents\Steve Vai - Modern Primative-Passion and Warfare [FLAC]\Modern Primative\05 - Upanishads.wav

Peak level 98.9 %
Extraction speed 1.6 X
Track quality 100.0 %
Test CRC B2362938
Copy CRC B2362938
Track not present in AccurateRip database
Copy OK

Track 6

Filename D:\Torrents\Steve Vai - Modern Primative-Passion and Warfare [FLAC]\Modern Primative\06 - Fast Note People.wav

Peak level 98.9 %
Extraction speed 1.8 X
Track quality 100.0 %
Test CRC 24EB62E3
Copy CRC 24EB62E3
Track not present in AccurateRip database
Copy OK

Track 7

Filename D:\Torrents\Steve Vai - Modern Primative-Passion and Warfare [FLAC]\Modern Primative\07 - And We Are One.wav

Peak level 98.9 %
Extraction speed 1.9 X
Track quality 100.0 %
Test CRC BEDF90A2
Copy CRC BEDF90A2
Track not present in AccurateRip database
Copy OK

Track 8

Filename D:\Torrents\Steve Vai - Modern Primative-Passion and Warfare [FLAC]\Modern Primative\08 - Never Forever.wav

Peak level 98.9 %
Extraction speed 1.7 X
Track quality 99.9 %
Test CRC 8F94DB66
Copy CRC 8F94DB66
Track not present in AccurateRip database
Copy OK

Track 9

Filename D:\Torrents\Steve Vai - Modern Primative-Passion and Warfare [FLAC]\Modern Primative\09 - Lights Are On.wav

Peak level 98.9 %
Extraction speed 2.1 X
Track quality 100.0 %
Test CRC 166F7CB4
Copy CRC 166F7CB4
Track not present in AccurateRip database
Copy OK

Track 10

Filename D:\Torrents\Steve Vai - Modern Primative-Passion and Warfare [FLAC]\Modern Primative\10 - No Pockets.wav

Peak level 98.9 %
Extraction speed 2.2 X
Track quality 100.0 %
Test CRC A75F8952
Copy CRC A75F8952
Track not present in AccurateRip database
Copy OK

Track 11

Filename D:\Torrents\Steve Vai - Modern Primative-Passion and Warfare [FLAC]\Modern Primative\11 - Pink And Blows Over Pt I.wav

Peak level 98.9 %
Extraction speed 1.8 X
Track quality 99.9 %
Test CRC EE5F82FB
Copy CRC EE5F82FB
Track not present in AccurateRip database
Copy OK

Track 12

Filename D:\Torrents\Steve Vai - Modern Primative-Passion and Warfare [FLAC]\Modern Primative\12 - Pink And Blows Over Pt II Mars Attack.wav

Peak level 98.9 %
Extraction speed 2.5 X
Track quality 100.0 %
Test CRC BE667D17
Copy CRC BE667D17
Track not present in AccurateRip database
Copy OK

Track 13

Filename D:\Torrents\Steve Vai - Modern Primative-Passion and Warfare [FLAC]\Modern Primative\13 - Pink And Blows Over Pt III.wav

Peak level 98.9 %
Extraction speed 2.4 X
Track quality 100.0 %
Test CRC ABFEBB06
Copy CRC ABFEBB06
Track not present in AccurateRip database
Copy OK


None of the tracks are present in the AccurateRip database

No errors occurred

End of status report

–– CUETools DB Plugin V2.1.6

[CTDB TOCID: vo.dyZVxGLeWosZOUdIujZuIy38-] found
Submit result: vo.dyZVxGLeWosZOUdIujZuIy38- has been confirmed
Track | CTDB Status
1 | (6/6) Accurately ripped
2 | (6/6) Accurately ripped
3 | (6/6) Accurately ripped
4 | (6/6) Accurately ripped
5 | (6/6) Accurately ripped
6 | (6/6) Accurately ripped
7 | (6/6) Accurately ripped
8 | (6/6) Accurately ripped
9 | (6/6) Accurately ripped
10 | (6/6) Accurately ripped
11 | (6/6) Accurately ripped
12 | (6/6) Accurately ripped
13 | (6/6) Accurately ripped


==== Log checksum DB082FDA712D4C00154D87B5B592E354ECD2CCE6267F264B53890C582CD3F457 ====

foobar2000 1.2.9 / Dynamic Range Meter 1.1.1
log date: 2016-06-27 03:23:41

––––––––––––––––––––––––––––––––––––––––
Analyzed: Steve Vai / Modern Primitive
––––––––––––––––––––––––––––––––––––––––

DR Peak RMS Duration Track
––––––––––––––––––––––––––––––––––––––––
DR7 -0.09 dB -8.81 dB 5:38 01-Bop!
DR6 -0.09 dB -7.76 dB 3:53 02-Dark Matter
DR6 -0.09 dB -7.21 dB 3:57 03-Mighty Messengers
DR7 -0.09 dB -8.73 dB 4:09 04-The Lost Chord
DR6 -0.09 dB -7.64 dB 4:38 05-Upanishads
DR7 -0.09 dB -8.82 dB 5:54 06-Fast Note People
DR9 -0.09 dB -11.01 dB 5:22 07-And We Are One
DR6 -0.09 dB -7.28 dB 5:17 08-Never Forever
DR7 -0.09 dB -8.09 dB 6:27 09-Lights Are On
DR7 -0.09 dB -8.80 dB 4:54 10-No Pockets
DR6 -0.09 dB -9.62 dB 3:21 11-Pink And Blows Over Pt I
DR8 -0.09 dB -11.63 dB 13:14 12-Pink And Blows Over Pt II Mars Attack
DR5 -0.09 dB -6.75 dB 3:31 13-Pink And Blows Over Pt III
––––––––––––––––––––––––––––––––––––––––

Number of tracks: 13
Official DR value: DR7

Samplerate: 44100 Hz
Channels: 2
Bits per sample: 16
Bitrate: 972 kbps
Codec: FLAC

[CUETools log; Date: 27.06.2016 3:23:30; Version: 2.1.4]
[CTDB TOCID: vo.dyZVxGLeWosZOUdIujZuIy38-] found.
Track | CTDB Status
1 | (10/10) Accurately ripped
2 | (10/10) Accurately ripped
3 | (10/10) Accurately ripped
4 | (10/10) Accurately ripped
5 | (10/10) Accurately ripped
6 | (10/10) Accurately ripped
7 | (10/10) Accurately ripped
8 | (10/10) Accurately ripped
9 | (10/10) Accurately ripped
10 | (10/10) Accurately ripped
11 | (10/10) Accurately ripped
12 | (10/10) Accurately ripped
13 | (10/10) Accurately ripped
[AccurateRip ID: 001f38cc-013d9e95-9c10760d] disk not present in database.

Track Peak [ CRC32 ] [W/O NULL] [ LOG ]
– 98,9 [AAECBF5F] [34D0FCA5]
01 98,9 [5D26FF06] [DFFB64DE] CRC32
02 98,9 [28579D9B] [161602EB] CRC32
03 98,9 [9D92C59E] [3EE4A986] CRC32
04 98,9 [BE03BCE5] [3F47A3D9] CRC32
05 98,9 [B2362938] [9A7F7842] CRC32
06 98,9 [24EB62E3] [833E7120] CRC32
07 98,9 [BEDF90A2] [BCE8C5AF] CRC32
08 98,9 [8F94DB66] [D03097BE] CRC32
09 98,9 [166F7CB4] [7CA8931F] CRC32
10 98,9 [A75F8952] [DD447E02] CRC32
11 98,9 [EE5F82FB] [63B5F938] CRC32
12 98,9 [BE667D17] [5BFDB73B] CRC32
13 98,9 [ABFEBB06] [368057A4] CRC32

Steve Vai - Modern Primitive / Passion And Warfare (25th Anniversary Edition) (2016)

Tracklist CD2 - Passion & Warfare (25th Anniversary Edition):

01. Liberty (2:03)
02. Erotic Nightmares (4:15)
03. The Animal (4:01)
04. Answers (2:56)
05. The Riddle (6:25)
06. Ballerina 12_24 (1:43)
07. For The Love Of God (6:04)
08. The Audience Is Listening (5:30)
09. I would Love To (3:41)
10. Blue Powder (4:44)
11. Greasy Kid's Stuff (2:58)
12. Alien Water Kiss (1:11)
13. Sisters (4:08)
14. Love Secrets (3:41)

Bonus Tracks:
15. Lovely Elixir (5:08)
16. And We Are One Solo #2 (3:31)
17. As Above (2:03)
18. So Below (2:15)

Converted to Image (CUETools 2.1.4)

Exact Audio Copy V1.1 from 23. June 2015

EAC extraction logfile from 25. June 2016, 18:59

Steve Vai / Passion & Warfare 25th An Ed

Used drive : HL-DT-STBD-RE WH16NS40 Adapter: 1 ID: 0

Read mode : Secure
Utilize accurate stream : Yes
Defeat audio cache : Yes
Make use of C2 pointers : No

Read offset correction : 6
Overread into Lead-In and Lead-Out : No
Fill up missing offset samples with silence : Yes
Delete leading and trailing silent blocks : No
Null samples used in CRC calculations : Yes
Used interface : Native Win32 interface for Win NT & 2000
Gap handling : Appended to previous track

Used output format : User Defined Encoder
Selected bitrate : 1024 kBit/s
Quality : High
Add ID3 tag : No
Command line compressor : C:\My Downloads\Music and Videos\What.CD Toolbox 6 for Windows\Codecs\flac-1.3.1-win\win64\flac.exe
Additional command line options : -8 -e -V -T "ARTIST=%artist%" -T "TITLE=%title%" -T "ALBUM=%albumtitle%" -T "DATE=%year%" -T "TRACKNUMBER=%tracknr%" -T "GENRE=%genre%" -T "PERFORMER=%albuminterpret%" -T "COMPOSER=%composer%" %haslyrics%–tag-from-file=LYRICS="%lyricsfile%"%haslyrics% -T "ALBUMARTIST=%albumartist%" -T "DISCNUMBER=%cdnumber%" -T "TOTALDISCS=%totalcds%" -T "TOTALTRACKS=%numtracks%" -T "COMMENT=%comment%" %source% -o %dest%


TOC of the extracted CD

Track | Start | Length | Start sector | End sector
––––––––––––––––––––––––––––-
1 | 0:00.00 | 2:02.58 | 0 | 9207
2 | 2:02.58 | 4:15.09 | 9208 | 28341
3 | 6:17.67 | 4:01.02 | 28342 | 46418
4 | 10:18.69 | 2:56.31 | 46419 | 59649
5 | 13:15.25 | 6:24.58 | 59650 | 88507
6 | 19:40.08 | 1:43.09 | 88508 | 96241
7 | 21:23.17 | 6:03.72 | 96242 | 123538
8 | 27:27.14 | 5:29.65 | 123539 | 148278
9 | 32:57.04 | 3:41.04 | 148279 | 164857
10 | 36:38.08 | 4:44.22 | 164858 | 186179
11 | 41:22.30 | 2:58.24 | 186180 | 199553
12 | 44:20.54 | 1:10.44 | 199554 | 204847
13 | 45:31.23 | 4:07.43 | 204848 | 223415
14 | 49:38.66 | 3:41.04 | 223416 | 239994
15 | 53:19.70 | 5:07.74 | 239995 | 263093
16 | 58:27.69 | 3:30.69 | 263094 | 278912
17 | 61:58.63 | 2:03.08 | 278913 | 288145
18 | 64:01.71 | 2:14.59 | 288146 | 298254


Track 1

Filename D:\Torrents\Steve Vai - Modern Primative-Passion and Warfare [FLAC]\Passion and Warfare 25th Anniversary Edition\01 - Liberty.wav

Pre-gap length 0:00:02.00

Peak level 100.0 %
Extraction speed 1.8 X
Track quality 100.0 %
Test CRC 3425636D
Copy CRC 3425636D
Track not present in AccurateRip database
Copy OK

Track 2

Filename D:\Torrents\Steve Vai - Modern Primative-Passion and Warfare [FLAC]\Passion and Warfare 25th Anniversary Edition\02 - Erotic Nightmares.wav

Peak level 100.0 %
Extraction speed 2.2 X
Track quality 100.0 %
Test CRC DA688E63
Copy CRC DA688E63
Track not present in AccurateRip database
Copy OK

Track 3

Filename D:\Torrents\Steve Vai - Modern Primative-Passion and Warfare [FLAC]\Passion and Warfare 25th Anniversary Edition\03 - The Animal.wav

Peak level 100.0 %
Extraction speed 2.1 X
Track quality 99.9 %
Test CRC 0C2FD128
Copy CRC 0C2FD128
Track not present in AccurateRip database
Copy OK

Track 4

Filename D:\Torrents\Steve Vai - Modern Primative-Passion and Warfare [FLAC]\Passion and Warfare 25th Anniversary Edition\04 - Answers.wav

Peak level 100.0 %
Extraction speed 1.4 X
Track quality 100.0 %
Test CRC 06148B17
Copy CRC 06148B17
Track not present in AccurateRip database
Copy OK

Track 5

Filename D:\Torrents\Steve Vai - Modern Primative-Passion and Warfare [FLAC]\Passion and Warfare 25th Anniversary Edition\05 - The Riddle.wav

Peak level 100.0 %
Extraction speed 1.5 X
Track quality 99.9 %
Test CRC 615F1F5E
Copy CRC 615F1F5E
Track not present in AccurateRip database
Copy OK

Track 6

Filename D:\Torrents\Steve Vai - Modern Primative-Passion and Warfare [FLAC]\Passion and Warfare 25th Anniversary Edition\06 - Ballerina 12_24.wav

Peak level 100.0 %
Extraction speed 1.4 X
Track quality 100.0 %
Test CRC 2ADB5B62
Copy CRC 2ADB5B62
Track not present in AccurateRip database
Copy OK

Track 7

Filename D:\Torrents\Steve Vai - Modern Primative-Passion and Warfare [FLAC]\Passion and Warfare 25th Anniversary Edition\07 - For The Love Of God.wav

Peak level 100.0 %
Extraction speed 1.8 X
Track quality 100.0 %
Test CRC 026E9AF8
Copy CRC 026E9AF8
Track not present in AccurateRip database
Copy OK

Track 8

Filename D:\Torrents\Steve Vai - Modern Primative-Passion and Warfare [FLAC]\Passion and Warfare 25th Anniversary Edition\08 - The Audience Is Listening.wav

Pre-gap length 0:00:01.00

Peak level 100.0 %
Extraction speed 1.9 X
Track quality 100.0 %
Test CRC D143F89F
Copy CRC D143F89F
Track not present in AccurateRip database
Copy OK

Track 9

Filename D:\Torrents\Steve Vai - Modern Primative-Passion and Warfare [FLAC]\Passion and Warfare 25th Anniversary Edition\09 - I would Love To.wav

Peak level 100.0 %
Extraction speed 1.9 X
Track quality 100.0 %
Test CRC 2DC66563
Copy CRC 2DC66563
Track not present in AccurateRip database
Copy OK

Track 10

Filename D:\Torrents\Steve Vai - Modern Primative-Passion and Warfare [FLAC]\Passion and Warfare 25th Anniversary Edition\10 - Blue Powder.wav

Pre-gap length 0:00:00.97

Peak level 100.0 %
Extraction speed 2.0 X
Track quality 100.0 %
Test CRC ABB38D47
Copy CRC ABB38D47
Track not present in AccurateRip database
Copy OK

Track 11

Filename D:\Torrents\Steve Vai - Modern Primative-Passion and Warfare [FLAC]\Passion and Warfare 25th Anniversary Edition\11 - Greasy Kid's Stuff.wav

Peak level 100.0 %
Extraction speed 1.9 X
Track quality 100.0 %
Test CRC 8961E9C0
Copy CRC 8961E9C0
Track not present in AccurateRip database
Copy OK

Track 12

Filename D:\Torrents\Steve Vai - Modern Primative-Passion and Warfare [FLAC]\Passion and Warfare 25th Anniversary Edition\12 - Alien Water Kiss.wav

Peak level 76.7 %
Extraction speed 1.5 X
Track quality 100.0 %
Test CRC 13D7ADD4
Copy CRC 13D7ADD4
Track not present in AccurateRip database
Copy OK

Track 13

Filename D:\Torrents\Steve Vai - Modern Primative-Passion and Warfare [FLAC]\Passion and Warfare 25th Anniversary Edition\13 - Sisters.wav

Peak level 100.0 %
Extraction speed 2.1 X
Track quality 100.0 %
Test CRC A966E95C
Copy CRC A966E95C
Track not present in AccurateRip database
Copy OK

Track 14

Filename D:\Torrents\Steve Vai - Modern Primative-Passion and Warfare [FLAC]\Passion and Warfare 25th Anniversary Edition\14 - Love Secrets.wav

Peak level 100.0 %
Extraction speed 2.2 X
Track quality 100.0 %
Test CRC B607CB1A
Copy CRC B607CB1A
Track not present in AccurateRip database
Copy OK

Track 15

Filename D:\Torrents\Steve Vai - Modern Primative-Passion and Warfare [FLAC]\Passion and Warfare 25th Anniversary Edition\15 - Lovely Elixir (Bonus Track).wav

Pre-gap length 0:00:00.68

Peak level 100.0 %
Extraction speed 2.3 X
Track quality 100.0 %
Test CRC E128B36F
Copy CRC E128B36F
Track not present in AccurateRip database
Copy OK

Track 16

Filename D:\Torrents\Steve Vai - Modern Primative-Passion and Warfare [FLAC]\Passion and Warfare 25th Anniversary Edition\16 - And We Are One Solo #2 (Bonus Track).wav

Peak level 100.0 %
Extraction speed 2.3 X
Track quality 100.0 %
Test CRC 9D28DC62
Copy CRC 9D28DC62
Track not present in AccurateRip database
Copy OK

Track 17

Filename D:\Torrents\Steve Vai - Modern Primative-Passion and Warfare [FLAC]\Passion and Warfare 25th Anniversary Edition\17 - As Above (Bonus Track).wav

Pre-gap length 0:00:00.40

Peak level 100.0 %
Extraction speed 2.1 X
Track quality 100.0 %
Test CRC E021D507
Copy CRC E021D507
Track not present in AccurateRip database
Copy OK

Track 18

Filename D:\Torrents\Steve Vai - Modern Primative-Passion and Warfare [FLAC]\Passion and Warfare 25th Anniversary Edition\18 - So Below (Bonus Track).wav

Pre-gap length 0:00:00.68

Peak level 100.0 %
Extraction speed 1.7 X
Track quality 99.9 %
Test CRC BCBEF9DF
Copy CRC BCBEF9DF
Track not present in AccurateRip database
Copy OK


None of the tracks are present in the AccurateRip database

No errors occurred

End of status report

–– CUETools DB Plugin V2.1.6

[CTDB TOCID: R4dxLiXPP2gQBLR8eiE1.kOkRAA-] found
Submit result: R4dxLiXPP2gQBLR8eiE1.kOkRAA- has been confirmed
Track | CTDB Status
1 | (4/4) Accurately ripped
2 | (4/4) Accurately ripped
3 | (4/4) Accurately ripped
4 | (4/4) Accurately ripped
5 | (4/4) Accurately ripped
6 | (4/4) Accurately ripped
7 | (4/4) Accurately ripped
8 | (4/4) Accurately ripped
9 | (4/4) Accurately ripped
10 | (4/4) Accurately ripped
11 | (4/4) Accurately ripped
12 | (4/4) Accurately ripped
13 | (4/4) Accurately ripped
14 | (4/4) Accurately ripped
15 | (4/4) Accurately ripped
16 | (4/4) Accurately ripped
17 | (4/4) Accurately ripped
18 | (4/4) Accurately ripped


==== Log checksum C39D8D7551FEB825F662FD73B31FC5D334C96DEA41F28C37885A1D82087C43B5 ====

foobar2000 1.2.9 / Dynamic Range Meter 1.1.1
log date: 2016-06-27 03:24:02

––––––––––––––––––––––––––––––––––––––––
Analyzed: Steve Vai / Passion & Warfare (25th Anniversary)
––––––––––––––––––––––––––––––––––––––––

DR Peak RMS Duration Track
––––––––––––––––––––––––––––––––––––––––
DR9 0.00 dB -10.62 dB 2:03 01-Liberty
DR8 0.00 dB -10.09 dB 4:15 02-Erotic Nightmares
DR8 0.00 dB -9.60 dB 4:01 03-The Animal
DR8 0.00 dB -10.13 dB 2:56 04-Answers
DR8 0.00 dB -10.42 dB 6:25 05-The Riddle
DR11 0.00 dB -15.74 dB 1:43 06-Ballerina 12_24
DR9 0.00 dB -10.53 dB 6:04 07-For The Love Of God
DR9 0.00 dB -11.77 dB 5:30 08-The Audience Is Listening
DR9 0.00 dB -10.19 dB 3:41 09-I would Love To
DR8 0.00 dB -11.15 dB 4:44 10-Blue Powder
DR9 0.00 dB -9.98 dB 2:58 11-Greasy Kid's Stuff
DR10 -2.30 dB -15.84 dB 1:11 12-Alien Water Kiss
DR10 0.00 dB -12.98 dB 4:08 13-Sisters
DR9 0.00 dB -11.07 dB 3:41 14-Love Secrets
DR7 0.00 dB -9.18 dB 5:08 15-Lovely Elixir (Bonus Track)
DR8 0.00 dB -9.72 dB 3:31 16-And We Are One Solo #2 (Bonus Track)
DR7 0.00 dB -9.65 dB 2:03 17-As Above (Bonus Track)
DR7 0.00 dB -9.37 dB 2:15 18-So Below (Bonus Track)
––––––––––––––––––––––––––––––––––––––––

Number of tracks: 18
Official DR value: DR9

Samplerate: 44100 Hz
Channels: 2
Bits per sample: 16
Bitrate: 1000 kbps
Codec: FLAC

[CUETools log; Date: 27.06.2016 3:23:46; Version: 2.1.4]
[CTDB TOCID: R4dxLiXPP2gQBLR8eiE1.kOkRAA-] found.
Track | CTDB Status
1 | (8/8) Accurately ripped
2 | (8/8) Accurately ripped
3 | (8/8) Accurately ripped
4 | (8/8) Accurately ripped
5 | (8/8) Accurately ripped
6 | (8/8) Accurately ripped
7 | (8/8) Accurately ripped
8 | (8/8) Accurately ripped
9 | (8/8) Accurately ripped
10 | (8/8) Accurately ripped
11 | (8/8) Accurately ripped
12 | (8/8) Accurately ripped
13 | (8/8) Accurately ripped
14 | (8/8) Accurately ripped
15 | (8/8) Accurately ripped
16 | (8/8) Accurately ripped
17 | (8/8) Accurately ripped
18 | (8/8) Accurately ripped
[AccurateRip ID: 002cf976-025937c5-030f8812] disk not present in database.

Track Peak [ CRC32 ] [W/O NULL] [ LOG ]
– 100,0 [5E5ECFD9] [10095917]
01 100,0 [3425636D] [BA03E5C2] CRC32
02 100,0 [DA688E63] [EB9105FB] CRC32
03 100,0 [0C2FD128] [B6628B0C] CRC32
04 100,0 [06148B17] [B23B7290] CRC32
05 100,0 [615F1F5E] [5DC3F91A] CRC32
06 100,0 [2ADB5B62] [29AD250B] CRC32
07 100,0 [026E9AF8] [F2E1CA49] CRC32
08 100,0 [D143F89F] [576383E1] CRC32
09 100,0 [2DC66563] [9E39EEE1] CRC32
10 100,0 [ABB38D47] [FC29514E] CRC32
11 100,0 [8961E9C0] [B1F0B9F9] CRC32
12 76,7 [13D7ADD4] [B436A4C7] CRC32
13 100,0 [A966E95C] [1ADAC2FA] CRC32
14 100,0 [B607CB1A] [BE650FA4] CRC32
15 100,0 [E128B36F] [59CAF66B] CRC32
16 100,0 [9D28DC62] [5B703A31] CRC32
17 100,0 [E021D507] [69146306] CRC32
18 100,0 [BCBEF9DF] [97AFE234] CRC32

All thanks go to the original releaser

Download Steve Vai - Modern Primitive / Passion And Warfare (25th Anniversary Edition) (2016):