Subcategories

Steve Hackett - Out of the Tunnel's Mouth (2009) [2CD Special Edition]

Posted By: gribovar
Steve Hackett - Out of the Tunnel's Mouth (2009) [2CD Special Edition]

Steve Hackett - Out of the Tunnel's Mouth (2009) [2CD Special Edition]
EAC Rip | WavPack (image+.cue+log) - 447 MB | MP3 CBR 320 kbps (LAME 3.93) - 185 MB | Covers - 87 MB
Genre: Progressive Rock | RAR 3% Rec. | Label: InsideOut Music (0505388), 2010

Steve Hackett has earned the reputation of being one of Britain's finest composers and guitarists. Peter Gabriel invited him to join Genesis in 1970 and his involvement led to 8 albums. His complex and distinctive playing contributed heavily to their early success, developing an elegance and sophistication which have become his trademark and he has since achieved consistent solo success internationally.
Hackett's newest symphonic progressive rock albums may be one of his best. The music here is basically a terrific amalgamation of his entire careers' work, and it all works so wonderfully together and still seems fresh after all these years. Some of the tracks create powerful symphonic and almost new-aged dream soundscapes (Fire on the Moon), some are Mediterranean/Spanish influenced songs with beautiful classical guitar (Nomads, Sleepers, Ghosts in the Grass), some are slighly folk influenced (Emerald and Ash), some rock pretty hard and are reminiscent of work by Joe Satriani (Tubehead, Still Waters), and "Last Train to Istanbul" is a very well executed world music influenced track. With such variations in style, it seems like the album shouldn't flow, but it definitely does. It all flows perfectly from one song to the next, although there is no seamless effect bridging them together as a whole suite (which is a good thing). Of course, all these songs have great progressions within themselves and are all very enlightening.

CD 1 Tracklist:
01. Fire on the Moon
02. Nomads
03. Emerald and Ash
04. Tubehead
05. Sleepers
06. Ghost in the Glass
07. Still Waters
08. Last Train to Istanbul

Total time: 45:42

CD 2 Tracklist:
01. Blood on the Rooftops
02. A Tower Struck Down
03. Firth of Fifth
04. Fly on a Windshield
05. Broadway Melody of 1974
06. Every Star in the Night Sky

Total time: 32:50

Exact Audio Copy V0.99 prebeta 5 from 4. May 2009

EAC extraction logfile from 17. May 2010, 12:16

Steve Hackett / Out of the Tunnel's Mouth

Used drive : HL-DT-STDVDRAM GE20NU10 Adapter: 4 ID: 0

Read mode : Secure
Utilize accurate stream : Yes
Defeat audio cache : Yes
Make use of C2 pointers : No

Read offset correction : 667
Overread into Lead-In and Lead-Out : No
Fill up missing offset samples with silence : Yes
Delete leading and trailing silent blocks : No
Null samples used in CRC calculations : Yes
Used interface : Native Win32 interface for Win NT & 2000

Used output format : Internal WAV Routines
Sample format : 44.100 Hz; 16 Bit; Stereo


TOC of the extracted CD

Track | Start | Length | Start sector | End sector
––––––––––––––––––––––––––––-
1 | 0:00.00 | 6:11.51 | 0 | 27875
2 | 6:11.51 | 4:31.48 | 27876 | 48248
3 | 10:43.24 | 8:59.27 | 48249 | 88700
4 | 19:42.51 | 3:36.61 | 88701 | 104961
5 | 23:19.37 | 8:50.53 | 104962 | 144764
6 | 32:10.15 | 2:59.63 | 144765 | 158252
7 | 35:10.03 | 4:35.38 | 158253 | 178915
8 | 39:45.41 | 5:56.54 | 178916 | 205669


Range status and errors

Selected range

Filename U:\Steve Hackett\Steve Hackett - Out of the Tunnel's Mouth.wav

Peak level 96.0 %
Range quality 100.0 %
Test CRC 0499117C
Copy CRC 0499117C
Copy OK

No errors occurred


AccurateRip summary

Track 1 not present in database
Track 2 not present in database
Track 3 not present in database
Track 4 not present in database
Track 5 not present in database
Track 6 not present in database
Track 7 not present in database
Track 8 not present in database

None of the tracks are present in the AccurateRip database

End of status report

[CUETools log; Date: 28.03.2020 21:50:27; Version: 2.1.4]
[CTDB TOCID: 8jvPyJ0wKSMiFeHozGkZxpafR1E-] found.
Track | CTDB Status
1 | (148/150) Accurately ripped
2 | (148/150) Accurately ripped
3 | (148/150) Accurately ripped
4 | (147/150) Accurately ripped
5 | (147/150) Accurately ripped
6 | (147/150) Accurately ripped
7 | (147/150) Accurately ripped
8 | (147/150) Accurately ripped
[AccurateRip ID: 000e9bd0-0060b911-5b0ab608] found.
Track [ CRC | V2 ] Status
01 [7d9c2333|8041cb82] (049+056/136) Accurately ripped
02 [7adc9259|f61b807d] (049+057/137) Accurately ripped
03 [a311c3ad|50a741e8] (049+056/136) Accurately ripped
04 [5d62755d|c209770e] (049+055/135) Accurately ripped
05 [010dd4eb|109d59a5] (049+056/136) Accurately ripped
06 [7bffc07d|c47e1a1c] (048+055/134) Accurately ripped
07 [947ae821|b2531f3d] (049+055/135) Accurately ripped
08 [25582f12|8f97c0bf] (049+056/136) Accurately ripped
Offsetted by -918:
01 [efbe1af4] (003/136) Accurately ripped
02 [9e9dc6af] (003/137) Accurately ripped
03 [d5941481] (003/136) Accurately ripped
04 [ee4f749c] (003/135) Accurately ripped
05 [e72c7409] (003/136) Accurately ripped
06 [f0fe2e88] (003/134) Accurately ripped
07 [7b8694eb] (003/135) Accurately ripped
08 [88df9d9f] (003/136) Accurately ripped
Offsetted by -870:
01 [21eac9a4] (007/136) Accurately ripped
02 [0fe7e87c] (007/137) Accurately ripped
03 [d178a182] (007/136) Accurately ripped
04 [22d94c33] (007/135) Accurately ripped
05 [b786e591] (007/136) Accurately ripped
06 [df3ee935] (007/134) Accurately ripped
07 [645dce2d] (007/135) Accurately ripped
08 [b622d07d] (007/136) Accurately ripped
Offsetted by -30:
01 [354b9d2b] (000/136) No match (V2 was not tested)
02 [15360484] (000/137) No match (V2 was not tested)
03 [622d0bc7] (000/136) No match (V2 was not tested)
04 [4fe0cbeb] (000/135) No match (V2 was not tested)
05 [8e59f373] (000/136) No match (V2 was not tested)
06 [7361e20a] (000/134) No match (V2 was not tested)
07 [9862b97a] (000/135) No match (V2 was not tested)
08 [1da7b13a] (000/136) No match (V2 was not tested)
Offsetted by 6:
01 [ed4db6f4] (000/136) No match (V2 was not tested)
02 [12a0aec6] (000/137) No match (V2 was not tested)
03 [8057e440] (000/136) No match (V2 was not tested)
04 [9d032811] (000/135) No match (V2 was not tested)
05 [b31c22de] (000/136) No match (V2 was not tested)
06 [285240b7] (000/134) No match (V2 was not tested)
07 [17ab7cdb] (000/135) No match (V2 was not tested)
08 [f3d6150f] (000/136) No match (V2 was not tested)

Track Peak [ CRC32 ] [W/O NULL] [ LOG ]
– 96,0 [0499117C] [24A3DB4B] CRC32
01 96,0 [F56F7B64] [B6E1D978]
02 96,0 [8DF45CD5] [E5984405]
03 96,0 [C553100D] [CD5FBDE7]
04 96,0 [724119B0] [FBA56AB9]
05 96,0 [A1E1E0DE] [D41F1EAB]
06 95,5 [C5B7E8E9] [4A77B94D]
07 96,0 [2E0E0450] [05515487]
08 96,0 [18D9E988] [C57160BA]

Exact Audio Copy V0.99 prebeta 5 from 4. May 2009

EAC extraction logfile from 17. May 2010, 12:34

Steve Hackett / Out of the Tunnel's Mouth (Bonus Disc)

Used drive : HL-DT-STDVDRAM GE20NU10 Adapter: 4 ID: 0

Read mode : Secure
Utilize accurate stream : Yes
Defeat audio cache : Yes
Make use of C2 pointers : No

Read offset correction : 667
Overread into Lead-In and Lead-Out : No
Fill up missing offset samples with silence : Yes
Delete leading and trailing silent blocks : No
Null samples used in CRC calculations : Yes
Used interface : Native Win32 interface for Win NT & 2000

Used output format : Internal WAV Routines
Sample format : 44.100 Hz; 16 Bit; Stereo


TOC of the extracted CD

Track | Start | Length | Start sector | End sector
––––––––––––––––––––––––––––-
1 | 0:00.00 | 5:46.29 | 0 | 25978
2 | 5:46.29 | 4:26.34 | 25979 | 45962
3 | 10:12.63 | 10:09.54 | 45963 | 91691
4 | 20:22.42 | 2:18.66 | 91692 | 102107
5 | 22:41.33 | 2:03.04 | 102108 | 111336
6 | 24:44.37 | 8:05.28 | 111337 | 147739


Range status and errors

Selected range

Filename U:\Steve Hackett\Steve Hackett - Out of the Tunnel's Mouth (Bonus Disc).wav

Peak level 96.4 %
Range quality 100.0 %
Test CRC BC7533B1
Copy CRC BC7533B1
Copy OK

No errors occurred


AccurateRip summary

Track 1 not present in database
Track 2 not present in database
Track 3 not present in database
Track 4 not present in database
Track 5 not present in database
Track 6 not present in database

None of the tracks are present in the AccurateRip database

End of status report

[CUETools log; Date: 28.03.2020 21:51:01; Version: 2.1.4]
[CTDB TOCID: D9ScJPEderPWJ3AtEp67tWQWCqs-] found.
Track | CTDB Status
1 | (89/89) Accurately ripped
2 | (89/89) Accurately ripped
3 | (88/89) Accurately ripped
4 | (88/89) Accurately ripped
5 | (89/89) Accurately ripped
6 | (88/89) Accurately ripped
[AccurateRip ID: 00080213-002a41ce-4507b106] found.
Track [ CRC | V2 ] Status
01 [c9ee1d6e|0791cc92] (035+036/101) Accurately ripped
02 [461e39d2|66045dee] (035+036/101) Accurately ripped
03 [a45dd32a|d0efaba0] (035+037/102) Accurately ripped
04 [71f27052|08e4b283] (035+036/101) Accurately ripped
05 [3d67069b|1babea7e] (035+036/101) Accurately ripped
06 [6d1f195f|ef5523a3] (036+036/102) Accurately ripped
Offsetted by -144:
01 [d7fc3342] (002/101) Accurately ripped
02 [e7ff72cd] (002/101) Accurately ripped
03 [5e734e47] (002/102) Accurately ripped
04 [c7b821cf] (002/101) Accurately ripped
05 [47cae705] (002/101) Accurately ripped
06 [3932f3c9] (002/102) Accurately ripped
Offsetted by -114:
01 [764ecfaf] (007/101) Accurately ripped
02 [669efc06] (007/101) Accurately ripped
03 [76c408fc] (007/102) Accurately ripped
04 [4da0f7f9] (007/101) Accurately ripped
05 [6899a6df] (007/101) Accurately ripped
06 [c98abd6b] (007/102) Accurately ripped
Offsetted by 6:
01 [f2f71859] (000/101) No match (V2 was not tested)
02 [9bcc1d9f] (000/101) No match (V2 was not tested)
03 [4ae43f72] (000/102) No match (V2 was not tested)
04 [a26f29d5] (000/101) No match (V2 was not tested)
05 [9632a65e] (000/101) No match (V2 was not tested)
06 [c50374d7] (000/102) No match (V2 was not tested)

Track Peak [ CRC32 ] [W/O NULL] [ LOG ]
– 96,4 [BC7533B1] [C632E9FC] CRC32
01 96,4 [F2EF4C1B] [9152FC2E]
02 96,4 [0B3C9122] [4C7FD0FA]
03 96,4 [44FCBAC9] [3F291457]
04 96,4 [F88853B1] [1518D636]
05 96,4 [D3AE3514] [6F950077]
06 96,4 [D5F99B15] [7A8606D9]

Thanks to OLCh

See also: