Subcategories

Steve Marriott - Clear Through The Night (1975)

Posted By: uff
Steve Marriott - Clear Through The Night (1975)

Steve Marriott - Clear Through The Night (1975)
rock | 1cd | Eac Rip | Flac + Cue + Log | covers
Fruit Gum 2007 | 350mb

Steve Marriott is one of the unsung vocal heroes of the british rnb explosion of the 60's. This album features Steve in a variety of vocal guises from blues, soul, to out and out rock and even a touch of country bluegrass. The album features an interesting mixture of self compositions and unusual covers. If you consider Steve Marriott to be a rock singer then listen to the gospel tinged `Lord help me hold out' or the funky sounding `Don't take but a few minutes' to realise how versatile the man was.

Tracks:
01. Midnight Rollin'
02. Wham Bam Thank You Mam
03. Street Rat
04. High n Happy
05. Ruthy
06. Shake
07. Don't Take But a Few Minutes
08. Cocaine
09. Bluegrass Interval
10. You're a Heartbreaker
11. Be My Baby
12. It's All Over
13. The Things You Do
14. Lord Help Me Hold Out
15. I Need a Star in My Life
16. Signed Sealed
17. The Times They Are A Changin'

Personnel:
- Steve Marriott - Guitar
- Greg Ridley - Bass
- Ian Wallace - Drums
- Mickey Finn - Keyboards

Exact Audio Copy V0.99 prebeta 4 from 23. January 2008

EAC extraction logfile from 1. April 2009, 8:04

Steve Marriott / Clear Through The Night

Used drive : Optiarc DVD RW AD-7203S Adapter: 3 ID: 0

Read mode : Secure
Utilize accurate stream : Yes
Defeat audio cache : Yes
Make use of C2 pointers : No

Read offset correction : 48
Overread into Lead-In and Lead-Out : No
Fill up missing offset samples with silence : Yes
Delete leading and trailing silent blocks : No
Null samples used in CRC calculations : No
Used interface : Native Win32 interface for Win NT & 2000

Used output format : Internal WAV Routines
Sample format : 44.100 Hz; 16 Bit; Stereo


TOC of the extracted CD

Track | Start | Length | Start sector | End sector
––––––––––––––––––––––––––––-
1 | 0:00.00 | 3:20.16 | 0 | 15015
2 | 3:20.16 | 3:40.09 | 15016 | 31524
3 | 7:00.25 | 2:48.62 | 31525 | 44186
4 | 9:49.12 | 2:43.41 | 44187 | 56452
5 | 12:32.53 | 4:11.73 | 56453 | 75350
6 | 16:44.51 | 2:50.47 | 75351 | 88147
7 | 19:35.23 | 3:41.13 | 88148 | 104735
8 | 23:16.36 | 3:48.18 | 104736 | 121853
9 | 27:04.54 | 3:37.25 | 121854 | 138153
10 | 30:42.04 | 1:49.38 | 138154 | 146366
11 | 32:31.42 | 2:39.53 | 146367 | 158344
12 | 35:11.20 | 3:36.03 | 158345 | 174547
13 | 38:47.23 | 6:02.14 | 174548 | 201711
14 | 44:49.37 | 3:27.15 | 201712 | 217251
15 | 48:16.52 | 2:53.00 | 217252 | 230226
16 | 51:09.52 | 2:43.39 | 230227 | 242490
17 | 53:53.16 | 3:10.47 | 242491 | 256787


Range status and errors

Selected range

Filename E:\1\Steve Marriott - Clear Through The Night.wav

Peak level 100.0 %
Range quality 100.0 %
Copy CRC 5530DF9D
Copy OK

No errors occurred


AccurateRip summary

Track 1 not present in database
Track 2 not present in database
Track 3 not present in database
Track 4 not present in database
Track 5 not present in database
Track 6 not present in database
Track 7 not present in database
Track 8 not present in database
Track 9 not present in database
Track 10 not present in database
Track 11 not present in database
Track 12 not present in database
Track 13 not present in database
Track 14 not present in database
Track 15 not present in database
Track 16 not present in database
Track 17 not present in database

None of the tracks are present in the AccurateRip database

End of status report


[CUETools log; Date: 2013.02.15. 14:30:00; Version: 2.1.4]
[CTDB TOCID: QCibboWxnOPJf4ZUR0JJ7yS2_uo-] disk not present in database.
[AccurateRip ID: 002324b2-01be7551-e70d5f11] disk not present in database.

Track Peak [ CRC32 ] [W/O NULL] [ LOG ]
– 100,0 [FE9ACB6C] [5530DF9D] W/O NULL
01 100,0 [F0AC8D21] [F3AC2551]
02 100,0 [DE335F50] [F1C5B1ED]
03 100,0 [5395C102] [8B7E6D01]
04 100,0 [DEDEABE2] [7C279D30]
05 100,0 [7D47E3D6] [C3810A87]
06 100,0 [4C15B1A4] [89CC9696]
07 100,0 [25DEA9A5] [A6286995]
08 100,0 [C453BF73] [E3C864E1]
09 100,0 [B6277482] [5723F581]
10 100,0 [116D7B8B] [36156B88]
11 100,0 [86125CD6] [21F92F35]
12 100,0 [4AEDF493] [69B21B21]
13 100,0 [10F0EF16] [213F1BA4]
14 100,0 [67CD6E36] [B12DE1BC]
15 100,0 [D915D882] [88966AE5]
16 100,0 [699AECC7] [4CF33398]
17 100,0 [504B2DC8] [E0BBE94B]


Thx to the original uploader

more S Marriott on my blog