Subcategories

Steve Morse Band - Southern Steel (1991)

Posted By: hill0
Steve Morse Band - Southern Steel (1991)

Steve Morse Band - Southern Steel (1991)
EAC Rip | FLAC (tracks & cue & log) | 263 MB | MP3 CBR 320 kbps | 94 MB | Scans | 37:51
Genre: Guitar Virtuoso / Instrumental Rock / Hard rock | Country: USA | MCA Records | MCAD-10112

Southern Steel is the fourth studio album by guitarist Steve Morse, released on February 5, 1991 through MCA Records.This one has a hard-rock feeling.. This album still blends various styles but in a more agressive way. The opening track is a boogie-hard rock tune typical of Watson's work, 'Southern Steel' recalls country, 'Wolf song' is a balad, 'Point counterpoint' is an acoustic eyeblink to Bach. Overall, this is a good album for all lovers of melodic guitar.



Tracklist:

1. Cut To The Chase (3:51)
2. Simple Simon (3:47)
3. Vista Grande (5:02)
4. Sleaze Factor (3:37)
5. Battle Lines (4:05)
6. Southern Steel (3:54)
7. Wolf Song (3:20)
8. Weekend Overdrive (4:04)
9. Arena Rock (3:59)
10. Point Counterpoint (2:12)

Exact Audio Copy V0.99 prebeta 4 from 23. January 2008

EAC extraction logfile from 5. December 2008, 15:17

Steve Morse Band / Southern Steel

Used drive : HL-DT-STDVDRAM GH20NS10 Adapter: 3 ID: 1

Read mode : Secure
Utilize accurate stream : Yes
Defeat audio cache : Yes
Make use of C2 pointers : No

Read offset correction : 667
Overread into Lead-In and Lead-Out : No
Fill up missing offset samples with silence : Yes
Delete leading and trailing silent blocks : No
Null samples used in CRC calculations : Yes
Used interface : Native Win32 interface for Win NT & 2000
Gap handling : Appended to previous track

Used output format : User Defined Encoder
Selected bitrate : 768 kBit/s
Quality : High
Add ID3 tag : Yes
Command line compressor : C:\Program Files\Exact Audio Copy\FLAC\FLAC.EXE
Additional command line options : -6 -V -T "ARTIST=%a" -T "TITLE=%t" -T "ALBUM=%g" -T "DATE=%y" -T "TRACKNUMBER=%n" -T "GENRE=%m" -T "COMMENT=%e" %s -o %d
Use compression offset : 0

TOC of the extracted CD

Track | Start | Length | Start sector | End sector
––––––––––––––––––––––––––––-
1 | 0:00.00 | 3:53.25 | 0 | 17499
2 | 3:53.25 | 3:49.50 | 17500 | 34724
3 | 7:43.00 | 5:04.22 | 34725 | 57546
4 | 12:47.22 | 3:39.60 | 57547 | 74031
5 | 16:27.07 | 4:07.23 | 74032 | 92579
6 | 20:34.30 | 3:56.25 | 92580 | 110304
7 | 24:30.55 | 3:22.65 | 110305 | 125519
8 | 27:53.45 | 4:06.40 | 125520 | 144009
9 | 32:00.10 | 4:01.42 | 144010 | 162126
10 | 36:01.52 | 2:12.28 | 162127 | 172054

Track 1

Filename E:\Temp\Steve Morse Band\Southern Steel\01. Cut to the Chase.wav

Pre-gap length 0:00:02.00

Peak level 94.4 %
Track quality 100.0 %
Copy CRC 26A34BAE
Accurately ripped (confidence 14) [B6C7B453]
Copy OK

Track 2

Filename E:\Temp\Steve Morse Band\Southern Steel\02. Simple Simon.wav

Pre-gap length 0:00:01.31

Peak level 94.4 %
Track quality 100.0 %
Copy CRC 2851C773
Accurately ripped (confidence 14) [7722F8F2]
Copy OK

Track 3

Filename E:\Temp\Steve Morse Band\Southern Steel\03. Vista Grande.wav

Pre-gap length 0:00:01.66

Peak level 94.4 %
Track quality 99.9 %
Copy CRC B90C3AD4
Accurately ripped (confidence 14) [D5C9F0A0]
Copy OK

Track 4

Filename E:\Temp\Steve Morse Band\Southern Steel\04. Sleaze Factor.wav

Pre-gap length 0:00:00.01

Peak level 89.1 %
Track quality 99.9 %
Copy CRC 8C46D07B
Accurately ripped (confidence 14) [A310D832]
Copy OK

Track 5

Filename E:\Temp\Steve Morse Band\Southern Steel\05. Battle Lines.wav

Pre-gap length 0:00:02.38

Peak level 89.1 %
Track quality 100.0 %
Copy CRC 5361F032
Accurately ripped (confidence 13) [9156CE5B]
Copy OK

Track 6

Filename E:\Temp\Steve Morse Band\Southern Steel\06. Southern Steel.wav

Pre-gap length 0:00:02.14

Peak level 89.1 %
Track quality 100.0 %
Copy CRC B8D74B4F
Accurately ripped (confidence 14) [CC3484E2]
Copy OK

Track 7

Filename E:\Temp\Steve Morse Band\Southern Steel\07. Wolf Song.wav

Pre-gap length 0:00:01.58

Peak level 84.1 %
Track quality 99.9 %
Copy CRC 95B745CF
Accurately ripped (confidence 14) [B04D5909]
Copy OK

Track 8

Filename E:\Temp\Steve Morse Band\Southern Steel\08. Weekend Overdrive.wav

Pre-gap length 0:00:02.26

Peak level 84.1 %
Track quality 100.0 %
Copy CRC AF4DEB91
Accurately ripped (confidence 14) [9F65269E]
Copy OK

Track 9

Filename E:\Temp\Steve Morse Band\Southern Steel\09. Arena Rock.wav

Pre-gap length 0:00:01.66

Peak level 89.1 %
Track quality 100.0 %
Copy CRC 18DD951A
Accurately ripped (confidence 14) [D49F12EB]
Copy OK

Track 10

Filename E:\Temp\Steve Morse Band\Southern Steel\10. Point,Counterpoint.wav

Pre-gap length 0:00:02.46

Peak level 89.1 %
Track quality 100.0 %
Copy CRC C587AF5A
Accurately ripped (confidence 14) [A3F06CE2]
Copy OK

All tracks accurately ripped

No errors occurred

End of status report


Personnel

- Steve Morse / guitars / guitar synthesizers
- Dave LaRue / bass
- Van Romaine / drums
- Jeff Watson of Night Ranger appears on "Cut to the Chase" - guitars

All thanks to 1962hughes

Steve Morse Band - Southern Steel (1991)
Steve Morse Band - Southern Steel (1991)