Subcategories

Steve Smith & Vital Information - Vitalive (1991)

Posted By: tiburon
Steve Smith & Vital Information - Vitalive (1991)

Steve Smith & Vital Information - Vitalive (1991)
EAC 1.0b1 | FLAC tracks level 8 | Cue+Log+M3U | Full Scans 600dpi | 376MB + 5% Recovery
Genre: Fusion, Post-Bop

The drummer with the very successful rock group Journey for seven years, Steve Smith left the band in 1985 to devote his career to jazz and specifically his group Vital Information. This CD is taken from their tour of August 1989 and features Smith's unit (which also includes Larry Schneider on reeds, guitarist Frank Gambale, keyboardist Tom Coster, and bassist Larry Grenadier) playing a strong set of group originals plus the standard "I Should Care" (a straight-ahead feature for Coster and the rhythm section). Although Coster uses electronics on some of the pieces, much of his date is simply high-quality acoustic jazz; even the funkier material swings.
Track List
01. One Flight Up 6:06
02. Looks Bad, Feels Good 5:39
03. Jave And A Nail 5:13
04. (What Lies) Beyond 7:09
05. I Should Care 8:29
06. Mac Attack 4:59
07. Johnny Cat 7:30
08. The Perfect Date 6:38
09. Island Holiday 7:31
10. Europa (Earth's Cry-Heaven's Smile) 4:38

musicians
Steve Smith - drums
Tom Coster - keyboards
Frank Gambale - guitar, vocal on track 7
Larry Grenadier - acoustic bass
Larry Schneider - sax
Tom Coster, Jr. - additional keyboards on track 1

Produced by Steve Smith


Exact Audio Copy V1.0 beta 1 from 15. November 2010

EAC extraction logfile from 31. December 2011, 5:26

Steve Smith & Vital Information / Vitalive

Used drive : ATAPI iHAS424 Y Adapter: 0 ID: 3

Read mode : Secure
Utilize accurate stream : Yes
Defeat audio cache : Yes
Make use of C2 pointers : No

Read offset correction : 48
Overread into Lead-In and Lead-Out : No
Fill up missing offset samples with silence : Yes
Delete leading and trailing silent blocks : No
Null samples used in CRC calculations : Yes
Used interface : Native Win32 interface for Win NT & 2000
Gap handling : Appended to previous track

Used output format : User Defined Encoder
Selected bitrate : 768 kBit/s
Quality : High
Add ID3 tag : No
Command line compressor : C:\Program Files\Exact Audio Copy\Flac\flac.exe
Additional command line options : -8 -V -T "ARTIST=%a" -T "TITLE=%t" -T "ALBUM=%g" -T "DATE=%y" -T "TRACKNUMBER=%n" -T "TOTALTRACKS=%x" -T "GENRE=%m" -T "ALBUMARTIST=%v" -T "ALBUM ARTIST=%v" -T "COMMENT=EAC Secure Mode, Test & Copy, AccurateRip, FLAC -8" %s


TOC of the extracted CD

Track | Start | Length | Start sector | End sector
––––––––––––––––––––––––––––-
1 | 0:00.32 | 6:06.35 | 32 | 27516
2 | 6:06.67 | 5:38.50 | 27517 | 52916
3 | 11:45.42 | 5:12.70 | 52917 | 76386
4 | 16:58.37 | 7:09.30 | 76387 | 108591
5 | 24:07.67 | 7:29.08 | 108592 | 142274
6 | 31:37.00 | 5:01.40 | 142275 | 164889
7 | 36:38.40 | 7:30.60 | 164890 | 198699
8 | 44:09.25 | 6:37.10 | 198700 | 228484
9 | 50:46.35 | 7:32.07 | 228485 | 262391
10 | 58:18.42 | 4:36.70 | 262392 | 283161


Track 1

Filename G:\Uploads\Steve Smith & Vital Information - Vitalive (1991) [FLAC]\01 - One Flight Up.wav

Pre-gap length 0:00:02.32

Peak level 87.9 %
Extraction speed 2.3 X
Track quality 99.9 %
Test CRC 636FD75A
Copy CRC 636FD75A
Track not present in AccurateRip database
Copy OK

Track 2

Filename G:\Uploads\Steve Smith & Vital Information - Vitalive (1991) [FLAC]\02 - Looks Bad, Feels Good.wav

Peak level 89.5 %
Extraction speed 2.9 X
Track quality 100.0 %
Test CRC D9F9AD9C
Copy CRC D9F9AD9C
Track not present in AccurateRip database
Copy OK

Track 3

Filename G:\Uploads\Steve Smith & Vital Information - Vitalive (1991) [FLAC]\03 - Jave And A Nail.wav

Peak level 97.1 %
Extraction speed 3.1 X
Track quality 100.0 %
Test CRC B5319B5F
Copy CRC B5319B5F
Track not present in AccurateRip database
Copy OK

Track 4

Filename G:\Uploads\Steve Smith & Vital Information - Vitalive (1991) [FLAC]\04 - (What Lies) Beyond.wav

Pre-gap length 0:00:00.02

Peak level 96.8 %
Extraction speed 3.6 X
Track quality 100.0 %
Test CRC 19E58724
Copy CRC 19E58724
Track not present in AccurateRip database
Copy OK

Track 5

Filename G:\Uploads\Steve Smith & Vital Information - Vitalive (1991) [FLAC]\05 - I Should Care.wav

Pre-gap length 0:00:00.02

Peak level 95.3 %
Extraction speed 3.9 X
Track quality 100.0 %
Test CRC 5C7B49DF
Copy CRC 5C7B49DF
Track not present in AccurateRip database
Copy OK

Track 6

Filename G:\Uploads\Steve Smith & Vital Information - Vitalive (1991) [FLAC]\06 - Mac Attack.wav

Peak level 95.1 %
Extraction speed 4.0 X
Track quality 100.0 %
Test CRC B21C3EF3
Copy CRC B21C3EF3
Track not present in AccurateRip database
Copy OK

Track 7

Filename G:\Uploads\Steve Smith & Vital Information - Vitalive (1991) [FLAC]\07 - Johnny Cat.wav

Pre-gap length 0:00:00.58

Peak level 90.0 %
Extraction speed 4.4 X
Track quality 100.0 %
Test CRC 1DD02E94
Copy CRC 1DD02E94
Track not present in AccurateRip database
Copy OK

Track 8

Filename G:\Uploads\Steve Smith & Vital Information - Vitalive (1991) [FLAC]\08 - The Perfect Date.wav

Peak level 97.4 %
Extraction speed 4.3 X
Track quality 99.9 %
Test CRC 9761825A
Copy CRC 9761825A
Track not present in AccurateRip database
Copy OK

Track 9

Filename G:\Uploads\Steve Smith & Vital Information - Vitalive (1991) [FLAC]\09 - Island Holiday.wav

Peak level 99.6 %
Extraction speed 4.9 X
Track quality 100.0 %
Test CRC 208BF29F
Copy CRC 208BF29F
Track not present in AccurateRip database
Copy OK

Track 10

Filename G:\Uploads\Steve Smith & Vital Information - Vitalive (1991) [FLAC]\10 - Europa (Earth's Cry-Heaven's Smile).wav

Peak level 98.3 %
Extraction speed 4.4 X
Track quality 99.9 %
Test CRC 8FE817F3
Copy CRC 8FE817F3
Track not present in AccurateRip database
Copy OK


None of the tracks are present in the AccurateRip database

No errors occurred

End of status report

==== Log checksum 90EBB26D9D631673F58A989A523B13340C2FA0565733B4EC8367E22B60FC58AD ====


––––––––––––––––––––––––––––––––––––––––
Analyzed: Steve Smith & Vital Information / Vitalive
––––––––––––––––––––––––––––––––––––––––

DR Peak RMS Duration Track
––––––––––––––––––––––––––––––––––––––––
DR14 -1.11 dB -17.37 dB 6:06 01-One Flight Up
DR14 -0.96 dB -18.16 dB 5:39 02-Looks Bad, Feels Good
DR15 -0.26 dB -18.42 dB 5:13 03-Jave And A Nail
DR17 -0.28 dB -22.49 dB 7:09 04-(What Lies) Beyond
DR17 -0.41 dB -21.35 dB 7:29 05-I Should Care
DR15 -0.43 dB -18.13 dB 5:02 06-Mac Attack
DR16 -0.91 dB -19.17 dB 7:31 07-Johnny Cat
DR16 -0.23 dB -18.03 dB 6:37 08-The Perfect Date
DR12 -0.03 dB -15.60 dB 7:32 09-Island Holiday
DR15 -0.15 dB -18.42 dB 4:37 10-Europa (Earth's Cry-Heaven's Smile)
––––––––––––––––––––––––––––––––––––––––

Number of tracks: 10
Official DR value: DR15

Samplerate: 44100 Hz
Channels: 2
Bits per sample: 16
Bitrate: 783 kbps
Codec: FLAC
================================================================================

Steve Smith & Vital Information - Vitalive (1991)
Steve Smith & Vital Information - Vitalive (1991)
Steve Smith & Vital Information - Vitalive (1991)


Rip by albundy