Subcategories

Ronald Stevenson - Rhapsody: Lyric Music of Ronald Stevenson (Nicoll)

Posted By: tapaz9
Ronald Stevenson - Rhapsody: Lyric Music of Ronald Stevenson (Nicoll)

Ronald Stevenson - Rhapsody: Lyric Music of Ronald Stevenson (Nicoll)
Classical | EAC: FLAC+Cue+Log | 1 Cd, Covers + Booklet | 273 Mb
Label: Dunelm - Date: 2006

Ronald Stevenson is one of Scotland's most heavyweight composers, yet, as recitalists such as Murray McLachlan repeatedly demonstrate, there is a more lyrical side to the great man. Here then is a real joy in Sheena Nicoll's wellplayed, broad survey of the other side of Stevenson.
Tracks:

01. 3 Lyric Pieces - No. 1. Vox Stellarum [0:05:00.62]
02. No. 2. Chorale Prelude for Jean Sibelius [0:06:00.67]
03. No. 3. Andante sereno [0:05:30.25]
04. 3 Nativity Pieces - No. 1. Gold: Children's March [0:03:56.50]
05. No. 2. Frankincense: Arabesque [0:06:29.32]
06. No. 3. Myrrh: Elegiac Carol [0:04:34.46]
07. Symphonic Elegy for Liszt [0:14:14.59]
08. A Carlyle Suite - I. Aubade (Morning Song) [0:02:00.50]
09. II. Souvenir de Salon: Jane Welsh Carlyle listens to Chopin [0:06:42.16]
10. III. Study in Historical Styles on a Theme by Frederick the Great: Theme - Variation 1. In Baroque Style [0:00:46.32]
11. III. Study in Historical Styles on a Theme by Frederick the Great: Variation 2. In Rococo Style [0:00:46.13]
12. III. Study in Historical Styles on a Theme by Frederick the Great: Variation 3. In Romantic Style [0:00:43.72]
13. III. Study in Historical Styles on a Theme by Frederick the Great: Variation 4. In Impressionist Style [0:01:16.53]
14. III. Study in Historical Styles on a Theme by Frederick the Great: Variation 5. Expressionist Style [0:02:06.70]
15. III. Study in Historical Styles on a Theme by Frederick the Great: Variation 6. Sketch for a New Classicality [0:01:35.46]
16. IV. Scherzino - Schottische: Jeannie's Wit [0:01:17.25]
17. V. Serenade (Evening Song) [0:01:57.49]
18. Scottish Folk Music Settings (excerpts) - No. 2. Waly, Waly [0:02:55.02]
19. No. 3. A Rosebud by my Early Walk [0:02:18.21]
20. No. 8. The Hielan Widow's Lament [0:02:12.22]
21. No. 9. Hard is my Fate [0:02:55.72]
22. No. 10. Ne'erday Sang [0:02:55.25]


Exact Audio Copy V1.0 beta 3 from 29. August 2011

EAC extraction logfile from 27. January 2013, 0:43

Ronald Stevenson / Rhapsody: Lyric Music of Ronald Stevenson (Nicoll)

Used drive : TSSTcorpCDDVDW SH-S223C Adapter: 2 ID: 1

Read mode : Secure
Utilize accurate stream : Yes
Defeat audio cache : Yes
Make use of C2 pointers : No

Read offset correction : 697
Overread into Lead-In and Lead-Out : No
Fill up missing offset samples with silence : Yes
Delete leading and trailing silent blocks : No
Null samples used in CRC calculations : Yes
Used interface : Native Win32 interface for Win NT & 2000

Used output format : User Defined Encoder
Selected bitrate : 896 kBit/s
Quality : High
Add ID3 tag : No
Command line compressor : C:\Program Files (x86)\Exact Audio Copy\FLAC\FLAC.EXE
Additional command line options : -V -0 -T "COMMENT=Ripped by Tapaz9" -T "artist=%artist%" -T "title=%title%" -T "album=%albumtitle%" -T "date=%year%" -T "tracknumber=%tracknr%" -T "genre=%genre%" %source%


TOC of the extracted CD

Track | Start | Length | Start sector | End sector
––––––––––––––––––––––––––––-
1 | 0:00.00 | 5:00.62 | 0 | 22561
2 | 5:00.62 | 6:00.67 | 22562 | 49628
3 | 11:01.54 | 5:30.25 | 49629 | 74403
4 | 16:32.04 | 3:56.50 | 74404 | 92153
5 | 20:28.54 | 6:29.32 | 92154 | 121360
6 | 26:58.11 | 4:34.46 | 121361 | 141956
7 | 31:32.57 | 14:14.59 | 141957 | 206065
8 | 45:47.41 | 2:00.50 | 206066 | 215115
9 | 47:48.16 | 6:42.16 | 215116 | 245281
10 | 54:30.32 | 0:46.32 | 245282 | 248763
11 | 55:16.64 | 0:46.13 | 248764 | 252226
12 | 56:03.02 | 0:43.72 | 252227 | 255523
13 | 56:46.74 | 1:16.53 | 255524 | 261276
14 | 58:03.52 | 2:06.70 | 261277 | 270796
15 | 60:10.47 | 1:35.46 | 270797 | 277967
16 | 61:46.18 | 1:17.25 | 277968 | 283767
17 | 63:03.43 | 1:57.49 | 283768 | 292591
18 | 65:01.17 | 2:55.02 | 292592 | 305718
19 | 67:56.19 | 2:18.21 | 305719 | 316089
20 | 70:14.40 | 2:12.22 | 316090 | 326011
21 | 72:26.62 | 2:55.72 | 326012 | 339208
22 | 75:22.59 | 2:55.25 | 339209 | 352358


Range status and errors

Selected range

Filename F:\Musique\Stevenson, Ronald\Stevenson_PianoMusic\Ronald Stevenson - Rhapsody- Lyric Music of Ronald Stevenson (Nicoll).wav

Peak level 88.6 %
Extraction speed 14.3 X
Range quality 99.9 %
Copy CRC CDEAB47F
Copy OK

No errors occurred

End of status report

==== Log checksum 769EBD194A7097EB1801CC76E398F5D08A75B6E0E3087A8177E14882B117F8A8 ====

No Mirrors and Torrent-uploads Please

See my classical digital download posts in the Vinyl & HR section or check out My Avax blog